osu file format v14

[General]
AudioFilename: audio.mp3
AudioLeadIn: 0
PreviewTime: 4257
Countdown: 0
SampleSet: Normal
StackLeniency: 0.7
Mode: 1
LetterboxInBreaks: 0
WidescreenStoryboard: 1

[Editor]
DistanceSpacing: 0.8
BeatDivisor: 8
GridSize: 32
TimelineZoom: 3.099999

[Metadata]
Title:Ice
TitleUnicode:Ice
Artist:Scott Lloyd Shelly
ArtistUnicode:Scott Lloyd Shelly
Creator:Antti
Version:Oni
Source:Terraria
Tags:snow biome tundra re-logic re logic original soundtrack volume 2 two ost video game music vgm electronic instrumental ambient
BeatmapID:3136128
BeatmapSetID:1532844

[Difficulty]
HPDrainRate:7.5
CircleSize:2
OverallDifficulty:6
ApproachRate:10
SliderMultiplier:1.6
SliderTickRate:1

[Events]
//Background and Video events
0,0,"iceterraria.png",0,45
//Break Periods
//Storyboard Layer 0 (Background)
//Storyboard Layer 1 (Fail)
//Storyboard Layer 2 (Pass)
//Storyboard Layer 3 (Foreground)
//Storyboard Layer 4 (Overlay)
//Storyboard Sound Samples

[TimingPoints]
36,535.714285714286,4,1,0,70,1,0
4311,-83.3333333333333,4,1,0,75,0,0
4378,-83.5503553814366,4,1,0,75,0,0
4445,-83.7685107466622,4,1,0,75,0,0
4579,-84.2082571248606,4,1,0,75,0,0
4646,-84.4297949369141,4,1,0,75,0,0
4713,-84.6525731419395,4,1,0,75,0,0
4847,-85.1016752264768,4,1,0,75,0,0
5115,-86.0143282668027,4,1,0,75,0,0
5182,-86.2454839708456,4,1,0,75,0,0
5249,-86.4779602270565,4,1,0,75,0,0
5383,-86.9466929825324,4,1,0,75,0,0
5450,-87.1829700273667,4,1,0,75,0,0
5517,-87.4205347339269,4,1,0,75,0,0
5651,-87.8995694679087,4,1,0,75,0,0
5717,-88.1410609539507,4,1,0,75,0,0
5784,-88.3838049051244,4,1,0,75,0,0
5918,-88.873484151636,4,1,0,75,0,0
6186,-89.8693030725416,4,1,0,75,0,0
6253,-90.1217544903164,4,1,0,75,0,0
6320,-90.3755465461177,4,1,0,75,0,0
6454,-90.887608383473,4,1,0,75,0,0
6521,-91.1458214653878,4,1,0,75,0,0
6588,-91.4055059020535,4,1,0,75,0,0
6722,-91.9293394325386,4,1,0,75,0,0
6856,-92.4592116187944,4,1,0,75,0,0
6990,-92.9951410038825,4,1,0,75,0,0
7258,-94.0860341513487,4,1,0,75,0,0
7325,-94.3627682261687,4,1,0,75,0,0
7392,-94.641135012204,4,1,0,75,0,0
7526,-95.2027342225269,4,1,0,75,0,0
7592,-95.4860862449428,4,1,0,75,0,0
7659,-95.7711299844084,4,1,0,75,0,0
7793,-96.3463535795561,4,1,0,75,0,0
7927,-96.9285287800188,4,1,0,75,0,0
8061,-97.5176872705287,4,1,0,75,0,0
8329,-98.7179499835635,4,1,0,75,0,0
8597,-99.9481269221274,4,1,0,70,0,0
16097,-99.9481269221274,4,1,0,75,0,0
16901,-99.9481269221274,4,1,0,70,0,0
25740,-95.2380952380952,4,1,0,70,0,0
41677,-95.6937799043062,4,1,0,70,0,0
41811,-96.1538461538461,4,1,0,70,0,0
42079,-97.0873786407767,4,1,0,70,0,0
42213,-97.5609756097561,4,1,0,70,0,0
42347,-98.0392156862745,4,1,0,70,0,0
42481,-98.5221674876847,4,1,0,70,0,0
42615,-99.009900990099,4,1,0,70,0,0
42749,-99.502487562189,4,1,0,70,0,0
42883,-100,4,1,0,70,0,0
49847,-100,4,1,0,75,0,0
50383,-100,4,1,0,70,0,0
56276,-83.3333333333333,4,1,0,75,0,0
56342,-84.3881856540084,4,1,0,75,0,0
56409,-85.4700854700855,4,1,0,75,0,0
56543,-86.9565217391304,4,1,0,75,0,0
56677,-88.4955752212389,4,1,0,75,0,0
56811,-89.6860986547085,4,1,0,75,0,0
56878,-90.0900900900901,4,1,0,75,0,0
56945,-90.4977375565611,4,1,0,75,0,0
57079,-91.324200913242,4,1,0,75,0,0
57347,-92.1658986175115,4,1,0,75,0,0
57414,-92.1658986175115,4,1,0,75,0,0
57481,-92.1658986175115,4,1,0,75,0,0
57615,-91.743119266055,4,1,0,75,0,0
57749,-90.9090909090909,4,1,0,75,0,0
57883,-90.0900900900901,4,1,0,75,0,0
57950,-89.2857142857143,4,1,0,75,0,0
58017,-88.4955752212389,4,1,0,75,0,0
58151,-86.5800865800866,4,1,0,75,0,0
58418,-82.6446280991736,4,1,0,75,0,0
58954,-100,4,1,0,70,0,0
65918,-100,4,1,0,65,0,0
67526,-100,4,1,0,70,0,0
70740,-83.3333333333333,4,1,0,75,0,0
70807,-84.2105263157895,4,1,0,75,0,0
70874,-85.1063829787234,4,1,0,75,0,0
71008,-86.9565217391304,4,1,0,75,0,0
71142,-88.8888888888889,4,1,0,75,0,0
71276,-90.9090909090909,4,1,0,75,0,0
71342,-91.9540229885058,4,1,0,75,0,0
71409,-93.0232558139535,4,1,0,75,0,0
71543,-95.2380952380952,4,1,0,75,0,0
71610,-96.3855421686747,4,1,0,75,0,0
71677,-97.5609756097561,4,1,0,75,0,0
71811,-100,4,1,0,75,0,0
72883,-100,4,1,0,70,0,0
73418,-83.3333333333333,4,1,0,75,0,0
73485,-84.2013793869971,4,1,0,75,0,0
73552,-85.087699892279,4,1,0,75,0,0
73686,-86.9175977714328,4,1,0,75,0,0
73820,-88.8278542832347,4,1,0,75,0,0
73954,-90.8239640845716,4,1,0,75,0,0
74021,-91.8560432090827,4,1,0,75,0,0
74088,-92.9118480259484,4,1,0,75,0,0
74222,-95.0980746443807,4,1,0,75,0,0
74289,-96.2301825967715,4,1,0,75,0,0
74356,-97.3895699666149,4,1,0,75,0,0
74490,-99.7942243094739,4,1,0,75,0,0
75026,-100,4,1,0,65,0,0
85472,-100,4,1,0,75,0,0
86276,-100,4,1,0,65,0,0

[HitObjects]
256,192,36,5,0,0:0:0:0:
256,192,1911,5,0,0:0:0:0:
256,192,2178,5,0,0:0:0:0:
256,192,3250,5,8,0:0:0:0:
256,192,4053,5,8,0:0:0:0:
256,192,4321,5,8,0:0:0:0:
256,192,4388,5,8,0:0:0:0:
256,192,4455,5,0,0:0:0:0:
256,192,4589,5,8,0:0:0:0:
256,192,4656,5,0,0:0:0:0:
256,192,4723,5,0,0:0:0:0:
256,192,4857,5,0,0:0:0:0:
256,192,5125,5,8,0:0:0:0:
256,192,5192,5,8,0:0:0:0:
256,192,5259,5,8,0:0:0:0:
256,192,5393,5,8,0:0:0:0:
256,192,5460,5,8,0:0:0:0:
256,192,5527,5,0,0:0:0:0:
256,192,5661,5,8,0:0:0:0:
256,192,5727,5,0,0:0:0:0:
256,192,5794,5,0,0:0:0:0:
256,192,5928,5,8,0:0:0:0:
256,192,6196,5,8,0:0:0:0:
256,192,6263,5,8,0:0:0:0:
256,192,6330,5,8,0:0:0:0:
256,192,6464,5,8,0:0:0:0:
256,192,6531,5,8,0:0:0:0:
256,192,6598,5,0,0:0:0:0:
256,192,6732,5,8,0:0:0:0:
256,192,6866,5,0,0:0:0:0:
256,192,7000,5,8,0:0:0:0:
256,192,7268,5,8,0:0:0:0:
256,192,7335,5,8,0:0:0:0:
256,192,7402,5,0,0:0:0:0:
256,192,7536,5,8,0:0:0:0:
256,192,7602,5,0,0:0:0:0:
256,192,7669,5,0,0:0:0:0:
256,192,7803,5,8,0:0:0:0:
256,192,7937,5,0,0:0:0:0:
256,192,8071,5,8,0:0:0:0:
256,192,8339,5,8,0:0:0:0:
256,192,8607,5,0,0:0:0:0:
256,192,8875,5,8,0:0:0:0:
256,192,9143,5,0,0:0:0:0:
256,192,9277,5,8,0:0:0:0:
256,192,9411,5,0,0:0:0:0:
256,192,9544,5,8,0:0:0:0:
256,192,9678,5,0,0:0:0:0:
256,192,9812,5,8,0:0:0:0:
256,192,9946,5,0,0:0:0:0:
256,192,10080,5,8,0:0:0:0:
256,192,10214,5,8,0:0:0:0:
256,192,10348,5,0,0:0:0:0:
256,192,10482,5,8,0:0:0:0:
256,192,10616,5,0,0:0:0:0:
256,192,10750,5,8,0:0:0:0:
256,192,11018,5,0,0:0:0:0:
256,192,11152,5,8,0:0:0:0:
256,192,11286,5,8,0:0:0:0:
256,192,11419,5,0,0:0:0:0:
256,192,11553,5,8,0:0:0:0:
256,192,11821,5,8,0:0:0:0:
256,192,12089,5,8,0:0:0:0:
256,192,12223,5,0,0:0:0:0:
256,192,12357,5,8,0:0:0:0:
256,192,12625,5,8,0:0:0:0:
256,192,12893,5,8,0:0:0:0:
256,192,13027,5,0,0:0:0:0:
256,192,13161,5,0,0:0:0:0:
256,192,13294,5,8,0:0:0:0:
256,192,13428,5,8,0:0:0:0:
256,192,13696,5,8,0:0:0:0:
256,192,13964,5,8,0:0:0:0:
256,192,14098,5,8,0:0:0:0:
256,192,14232,5,0,0:0:0:0:
256,192,14500,5,8,0:0:0:0:
256,192,14768,5,0,0:0:0:0:
256,192,14902,5,8,0:0:0:0:
256,192,15036,5,8,0:0:0:0:
256,192,15303,5,0,0:0:0:0:
256,192,15437,5,8,0:0:0:0:
256,192,15571,5,8,0:0:0:0:
256,192,15705,5,0,0:0:0:0:
256,192,15839,5,8,0:0:0:0:
256,192,15973,5,8,0:0:0:0:
256,192,16107,5,8,0:0:0:0:
256,192,16375,5,8,0:0:0:0:
256,192,16509,5,8,0:0:0:0:
256,192,16643,5,8,0:0:0:0:
256,192,16911,5,8,0:0:0:0:
256,192,17178,5,0,0:0:0:0:
256,192,17312,5,0,0:0:0:0:
256,192,17446,5,8,0:0:0:0:
256,192,17714,5,8,0:0:0:0:
256,192,17848,5,8,0:0:0:0:
256,192,17982,5,0,0:0:0:0:
256,192,18116,5,8,0:0:0:0:
256,192,18250,5,0,0:0:0:0:
256,192,18384,5,8,0:0:0:0:
256,192,18518,5,0,0:0:0:0:
256,192,18652,5,8,0:0:0:0:
256,192,18786,5,8,0:0:0:0:
256,192,18919,5,0,0:0:0:0:
256,192,19053,5,8,0:0:0:0:
256,192,19187,5,8,0:0:0:0:
256,192,19321,5,0,0:0:0:0:
256,192,19589,5,0,0:0:0:0:
256,192,19857,5,8,0:0:0:0:
256,192,19991,5,0,0:0:0:0:
256,192,20125,5,8,0:0:0:0:
256,192,20393,5,8,0:0:0:0:
256,192,20661,5,0,0:0:0:0:
256,192,20794,5,8,0:0:0:0:
256,192,20928,5,8,0:0:0:0:
256,192,21196,5,8,0:0:0:0:
256,192,21464,5,8,0:0:0:0:
256,192,21598,5,0,0:0:0:0:
256,192,21732,5,8,0:0:0:0:
256,192,21866,5,8,0:0:0:0:
256,192,22000,5,8,0:0:0:0:
256,192,22268,5,0,0:0:0:0:
256,192,22536,5,8,0:0:0:0:
256,192,22669,5,8,0:0:0:0:
256,192,22803,5,0,0:0:0:0:
256,192,23071,5,8,0:0:0:0:
256,192,23205,5,8,0:0:0:0:
256,192,23339,5,0,0:0:0:0:
256,192,23607,5,8,0:0:0:0:
256,192,23875,5,0,0:0:0:0:
256,192,24009,5,8,0:0:0:0:
256,192,24143,5,8,0:0:0:0:
256,192,24277,5,0,0:0:0:0:
256,192,24411,5,8,0:0:0:0:
256,192,24678,5,8,0:0:0:0:
256,192,24946,5,8,0:0:0:0:
256,192,25080,5,8,0:0:0:0:
256,192,25214,5,0,0:0:0:0:
256,192,25482,5,8,0:0:0:0:
256,192,25750,5,0,0:0:0:0:
256,192,25884,5,0,0:0:0:0:
256,192,26018,5,8,0:0:0:0:
256,192,26152,5,8,0:0:0:0:
256,192,26286,5,0,0:0:0:0:
256,192,26553,5,0,0:0:0:0:
256,192,26687,5,0,0:0:0:0:
256,192,26821,5,8,0:0:0:0:
256,192,27089,5,8,0:0:0:0:
256,192,27357,5,0,0:0:0:0:
256,192,27491,5,0,0:0:0:0:
256,192,27893,5,8,0:0:0:0:
256,192,28027,5,0,0:0:0:0:
256,192,28161,5,8,0:0:0:0:
256,192,28294,5,8,0:0:0:0:
256,192,28428,5,0,0:0:0:0:
256,192,28696,5,8,0:0:0:0:
256,192,28830,5,8,0:0:0:0:
256,192,28964,5,0,0:0:0:0:
256,192,29232,5,8,0:0:0:0:
256,192,29500,5,0,0:0:0:0:
256,192,29634,5,0,0:0:0:0:
256,192,29902,5,0,0:0:0:0:
256,192,30036,5,8,0:0:0:0:
256,192,30169,5,0,0:0:0:0:
256,192,30303,5,8,0:0:0:0:
256,192,30437,5,8,0:0:0:0:
256,192,30571,5,0,0:0:0:0:
256,192,30705,5,8,0:0:0:0:
256,192,30839,5,0,0:0:0:0:
256,192,30973,5,0,0:0:0:0:
256,192,31107,5,8,0:0:0:0:
256,192,31375,5,8,0:0:0:0:
256,192,31509,5,0,0:0:0:0:
256,192,31643,5,8,0:0:0:0:
256,192,31777,5,0,0:0:0:0:
256,192,32044,5,8,0:0:0:0:
256,192,32178,5,8,0:0:0:0:
256,192,32312,5,0,0:0:0:0:
256,192,32446,5,8,0:0:0:0:
256,192,32580,5,8,0:0:0:0:
256,192,32714,5,0,0:0:0:0:
256,192,32982,5,8,0:0:0:0:
256,192,33116,5,0,0:0:0:0:
256,192,33250,5,8,0:0:0:0:
256,192,33384,5,8,0:0:0:0:
256,192,33518,5,0,0:0:0:0:
256,192,33652,5,0,0:0:0:0:
256,192,33786,5,8,0:0:0:0:
256,192,33919,5,8,0:0:0:0:
256,192,34053,5,0,0:0:0:0:
256,192,34187,5,0,0:0:0:0:
256,192,34321,5,8,0:0:0:0:
256,192,34589,5,8,0:0:0:0:
256,192,34723,5,8,0:0:0:0:
256,192,34857,5,0,0:0:0:0:
256,192,34991,5,8,0:0:0:0:
256,192,35125,5,0,0:0:0:0:
256,192,35259,5,8,0:0:0:0:
256,192,35393,5,0,0:0:0:0:
256,192,35527,5,8,0:0:0:0:
256,192,35661,5,8,0:0:0:0:
256,192,35794,5,8,0:0:0:0:
256,192,35928,5,0,0:0:0:0:
256,192,36062,5,8,0:0:0:0:
256,192,36330,5,0,0:0:0:0:
256,192,36464,5,8,0:0:0:0:
256,192,36732,5,0,0:0:0:0:
256,192,36866,5,8,0:0:0:0:
256,192,37000,5,0,0:0:0:0:
256,192,37268,5,0,0:0:0:0:
256,192,37402,5,8,0:0:0:0:
256,192,37536,5,8,0:0:0:0:
256,192,37669,5,0,0:0:0:0:
256,192,37803,5,0,0:0:0:0:
256,192,37937,5,8,0:0:0:0:
256,192,38071,5,0,0:0:0:0:
256,192,38205,5,8,0:0:0:0:
256,192,38473,5,0,0:0:0:0:
256,192,38607,5,8,0:0:0:0:
256,192,38741,5,0,0:0:0:0:
256,192,38875,5,8,0:0:0:0:
256,192,39009,5,8,0:0:0:0:
256,192,39143,5,0,0:0:0:0:
256,192,39411,5,0,0:0:0:0:
256,192,39544,5,0,0:0:0:0:
256,192,39678,5,8,0:0:0:0:
256,192,39946,5,0,0:0:0:0:
256,192,40080,5,0,0:0:0:0:
256,192,40214,5,8,0:0:0:0:
256,192,40482,5,0,0:0:0:0:
256,192,40616,5,0,0:0:0:0:
256,192,40750,5,8,0:0:0:0:
256,192,40884,5,8,0:0:0:0:
256,192,41018,5,0,0:0:0:0:
256,192,41152,5,8,0:0:0:0:
256,192,41286,5,0,0:0:0:0:
256,192,41553,5,0,0:0:0:0:
256,192,41687,5,0,0:0:0:0:
256,192,41821,5,8,0:0:0:0:
256,192,42089,5,0,0:0:0:0:
256,192,42223,5,8,0:0:0:0:
256,192,42357,5,0,0:0:0:0:
256,192,42491,5,8,0:0:0:0:
256,192,42625,5,0,0:0:0:0:
256,192,42759,5,0,0:0:0:0:
256,192,42893,5,8,0:0:0:0:
256,192,43027,5,8,0:0:0:0:
256,192,43161,5,0,0:0:0:0:
256,192,43428,5,8,0:0:0:0:
256,192,43562,5,8,0:0:0:0:
256,192,43964,5,8,0:0:0:0:
256,192,44500,5,8,0:0:0:0:
256,192,44768,5,0,0:0:0:0:
256,192,45036,5,8,0:0:0:0:
256,192,45571,5,8,0:0:0:0:
256,192,45705,5,8,0:0:0:0:
256,192,46107,5,8,0:0:0:0:
256,192,46375,5,8,0:0:0:0:
256,192,47178,5,0,0:0:0:0:
256,192,47714,5,8,0:0:0:0:
256,192,47848,5,8,0:0:0:0:
256,192,48250,5,0,0:0:0:0:
256,192,48786,5,0,0:0:0:0:
256,192,48919,5,0,0:0:0:0:
256,192,49053,5,8,0:0:0:0:
256,192,49321,5,0,0:0:0:0:
256,192,49589,5,8,0:0:0:0:
256,192,49857,5,8,0:0:0:0:
256,192,50125,5,8,0:0:0:0:
256,192,50393,5,8,0:0:0:0:
256,192,50527,5,0,0:0:0:0:
256,192,50661,5,0,0:0:0:0:
256,192,50794,5,8,0:0:0:0:
256,192,51062,5,0,0:0:0:0:
256,192,51196,5,8,0:0:0:0:
256,192,51330,5,8,0:0:0:0:
256,192,51464,5,8,0:0:0:0:
256,192,52536,5,0,0:0:0:0:
256,192,52669,5,0,0:0:0:0:
256,192,53071,5,0,0:0:0:0:
256,192,53205,5,0,0:0:0:0:
256,192,53607,5,8,0:0:0:0:
256,192,53875,5,0,0:0:0:0:
256,192,54143,5,0,0:0:0:0:
256,192,54678,5,8,0:0:0:0:
256,192,54946,5,8,0:0:0:0:
256,192,55214,5,0,0:0:0:0:
256,192,55750,5,8,0:0:0:0:
256,192,56286,5,8,0:0:0:0:
256,192,56352,5,8,0:0:0:0:
256,192,56419,5,8,0:0:0:0:
256,192,56553,5,8,0:0:0:0:
256,192,56687,5,0,0:0:0:0:
256,192,56821,5,8,0:0:0:0:
256,192,56888,5,8,0:0:0:0:
256,192,56955,5,0,0:0:0:0:
256,192,57089,5,8,0:0:0:0:
256,192,57357,5,8,0:0:0:0:
256,192,57424,5,0,0:0:0:0:
256,192,57491,5,0,0:0:0:0:
256,192,57625,5,8,0:0:0:0:
256,192,57759,5,0,0:0:0:0:
256,192,57893,5,8,0:0:0:0:
256,192,57960,5,8,0:0:0:0:
256,192,58027,5,0,0:0:0:0:
256,192,58161,5,8,0:0:0:0:
256,192,58428,5,8,0:0:0:0:
256,192,61241,5,12,0:0:0:0:
256,192,62312,5,12,0:0:0:0:
256,192,64857,5,0,0:0:0:0:
256,192,65928,5,8,0:0:0:0:
256,192,66464,5,8,0:0:0:0:
256,192,67000,5,0,0:0:0:0:
256,192,67536,5,8,0:0:0:0:
256,192,68607,5,8,0:0:0:0:
256,192,70750,5,0,0:0:0:0:
256,192,70817,5,0,0:0:0:0:
256,192,70884,5,8,0:0:0:0:
256,192,71018,5,0,0:0:0:0:
256,192,71152,5,0,0:0:0:0:
256,192,71286,5,8,0:0:0:0:
256,192,71352,5,8,0:0:0:0:
256,192,71419,5,0,0:0:0:0:
256,192,71553,5,0,0:0:0:0:
256,192,71620,5,0,0:0:0:0:
256,192,71687,5,8,0:0:0:0:
256,192,71821,5,8,0:0:0:0:
256,192,72893,5,0,0:0:0:0:
256,192,73428,5,8,0:0:0:0:
256,192,73495,5,8,0:0:0:0:
256,192,73562,5,0,0:0:0:0:
256,192,73696,5,8,0:0:0:0:
256,192,73830,5,0,0:0:0:0:
256,192,73964,5,8,0:0:0:0:
256,192,74031,5,8,0:0:0:0:
256,192,74098,5,0,0:0:0:0:
256,192,74232,5,8,0:0:0:0:
256,192,74299,5,0,0:0:0:0:
256,192,74366,5,8,0:0:0:0:
256,192,74500,5,8,0:0:0:0:
256,192,77714,5,0,0:0:0:0:
256,192,77982,5,8,0:0:0:0:
256,192,78250,5,0,0:0:0:0:
256,192,78518,5,0,0:0:0:0:
256,192,78786,5,8,0:0:0:0:
256,192,79053,5,0,0:0:0:0:
256,192,79857,5,0,0:0:0:0:
256,192,80393,5,0,0:0:0:0:
256,192,80527,5,0,0:0:0:0:
256,192,80661,5,0,0:0:0:0:
256,192,80794,5,0,0:0:0:0:
256,192,80928,5,8,0:0:0:0:
256,192,81196,5,0,0:0:0:0:
256,192,81464,5,0,0:0:0:0:
256,192,82000,5,0,0:0:0:0:
256,192,82268,5,8,0:0:0:0:
256,192,82536,5,0,0:0:0:0:
256,192,82803,5,8,0:0:0:0:
256,192,83071,5,0,0:0:0:0:
256,192,83339,5,0,0:0:0:0:
256,192,83607,5,8,0:0:0:0:
256,192,83875,5,0,0:0:0:0:
256,192,84143,5,0,0:0:0:0:
256,192,84411,5,8,0:0:0:0:
256,192,84678,5,8,0:0:0:0:
256,192,85214,5,0,0:0:0:0:
256,192,85482,5,8,0:0:0:0:
256,192,85750,5,8,0:0:0:0:
256,192,85884,5,8,0:0:0:0:
256,192,86286,5,0,0:0:0:0:
256,192,86553,5,8,0:0:0:0:
256,192,86821,5,0,0:0:0:0:
256,192,87089,5,0,0:0:0:0:
256,192,87357,5,8,0:0:0:0:
256,192,87625,5,0,0:0:0:0:
256,192,87893,5,0,0:0:0:0:
256,192,88294,5,0,0:0:0:0:
256,192,88428,5,8,0:0:0:0:
256,192,88696,5,0,0:0:0:0:
256,192,88964,5,0,0:0:0:0:
256,192,89098,5,0,0:0:0:0:
256,192,89232,5,0,0:0:0:0:
256,192,89366,5,0,0:0:0:0:
256,192,89500,5,8,0:0:0:0:
256,192,90036,5,8,0:0:0:0:
256,192,90571,5,0,0:0:0:0:
256,192,90839,5,0,0:0:0:0:
256,192,91107,5,8,0:0:0:0:
256,192,91375,5,0,0:0:0:0:
256,192,91643,5,8,0:0:0:0:
256,192,91911,5,0,0:0:0:0:
256,192,92044,5,8,0:0:0:0:
256,192,92178,5,8,0:0:0:0:
256,192,92446,5,0,0:0:0:0:
256,192,92714,5,8,0:0:0:0:
256,192,92982,5,0,0:0:0:0:
256,192,93116,5,0,0:0:0:0:
256,192,93250,5,8,0:0:0:0:
256,192,93786,5,8,0:0:0:0:
256,192,93919,5,8,0:0:0:0:
256,192,94053,5,0,0:0:0:0:
256,192,94321,5,0,0:0:0:0:
