osu file format v14

[General]
AudioFilename: audio.mp3
AudioLeadIn: 0
PreviewTime: 4257
Countdown: 0
SampleSet: Normal
StackLeniency: 0.7
Mode: 1
LetterboxInBreaks: 0
WidescreenStoryboard: 1

[Editor]
DistanceSpacing: 0.8
BeatDivisor: 4
GridSize: 32
TimelineZoom: 2.9

[Metadata]
Title:Ice
TitleUnicode:Ice
Artist:Scott Lloyd Shelly
ArtistUnicode:Scott Lloyd Shelly
Creator:Antti
Version:Muzukashii
Source:Terraria
Tags:snow biome tundra re-logic re logic original soundtrack volume 2 two ost video game music vgm electronic instrumental ambient
BeatmapID:3136169
BeatmapSetID:1532844

[Difficulty]
HPDrainRate:8
CircleSize:2
OverallDifficulty:5
ApproachRate:10
SliderMultiplier:1.6
SliderTickRate:1

[Events]
//Background and Video events
0,0,"iceterraria.png",0,45
//Break Periods
//Storyboard Layer 0 (Background)
//Storyboard Layer 1 (Fail)
//Storyboard Layer 2 (Pass)
//Storyboard Layer 3 (Foreground)
//Storyboard Layer 4 (Overlay)
//Storyboard Sound Samples

[TimingPoints]
36,535.714285714286,4,1,0,70,1,0
4311,-90.9090909090909,4,1,0,75,0,0
4378,-91.0380338697901,4,1,0,75,0,0
4445,-91.167426243273,4,1,0,75,0,0
4579,-91.4272339787486,4,1,0,75,0,0
4713,-91.6885267395835,4,1,0,75,0,0
4847,-91.9513172945716,4,1,0,75,0,0
5115,-92.481358070247,4,1,0,75,0,0
5383,-93.0176314920493,4,1,0,75,0,0
5450,-93.1527164263637,4,1,0,75,0,0
5517,-93.2881072589342,4,1,0,75,0,0
5651,-93.5601605866596,4,1,0,75,0,0
5784,-93.8338053173741,4,1,0,75,0,0
5918,-94.1090554556431,4,1,0,75,0,0
6186,-94.6643391861139,4,1,0,75,0,0
6454,-95.2263053145801,4,1,0,75,0,0
6521,-95.3678863901443,4,1,0,75,0,0
6588,-95.5097978726148,4,1,0,75,0,0
6722,-95.7949834083089,4,1,0,75,0,0
6856,-96.0818771324172,4,1,0,75,0,0
6990,-96.3704944384588,4,1,0,75,0,0
7258,-96.9528683021323,4,1,0,75,0,0
7526,-97.542418759358,4,1,0,75,0,0
7592,-97.6909760891567,4,1,0,75,0,0
7659,-97.8398908889537,4,1,0,75,0,0
7793,-98.1391829520463,4,1,0,75,0,0
7927,-98.440311701403,4,1,0,75,0,0
8061,-98.7432940960397,4,1,0,75,0,0
8329,-99.3547899937804,4,1,0,75,0,0
8597,-99.9740067582429,4,1,0,70,0,0
16097,-99.9740067582429,4,1,0,75,0,0
16901,-99.9740067582429,4,1,0,70,0,0
25740,-97.5609756097561,4,1,0,70,0,0
41677,-97.65625,4,1,0,70,0,0
41811,-97.9088625144171,4,1,0,70,0,0
42079,-98.4181254693314,4,1,0,70,0,0
42347,-98.9326160059122,4,1,0,70,0,0
42481,-99.1918837233062,4,1,0,70,0,0
42615,-99.4525139109204,4,1,0,70,0,0
42883,-99.9780048389354,4,1,0,70,0,0
49847,-100,4,1,0,75,0,0
50383,-100,4,1,0,70,0,0
56276,-90.9090909090909,4,1,0,75,0,0
56342,-91.743119266055,4,1,0,75,0,0
56409,-92.5925925925926,4,1,0,75,0,0
56543,-93.4579439252336,4,1,0,75,0,0
56677,-94.3396226415094,4,1,0,75,0,0
56811,-95.2380952380952,4,1,0,75,0,0
57079,-96.6183574879227,4,1,0,75,0,0
57347,-95.2380952380952,4,1,0,75,0,0
57414,-94.7867298578199,4,1,0,75,0,0
57481,-94.3396226415094,4,1,0,75,0,0
57615,-93.4579439252336,4,1,0,75,0,0
57749,-92.5925925925926,4,1,0,75,0,0
57883,-90.9090909090909,4,1,0,75,0,0
58954,-100,4,1,0,70,0,0
65918,-100,4,1,0,65,0,0
67526,-100,4,1,0,70,0,0
70740,-90.9090909090909,4,1,0,75,0,0
70807,-91.4285714285714,4,1,0,75,0,0
70874,-91.9540229885058,4,1,0,75,0,0
71008,-93.0232558139535,4,1,0,75,0,0
71276,-95.2380952380952,4,1,0,75,0,0
71342,-95.8083832335329,4,1,0,75,0,0
71409,-96.3855421686747,4,1,0,75,0,0
71543,-97.5609756097561,4,1,0,75,0,0
71811,-100,4,1,0,75,0,0
72883,-100,4,1,0,70,0,0
73418,-90.9090909090909,4,1,0,75,0,0
73485,-91.4232218640464,4,1,0,75,0,0
73552,-91.9431166326017,4,1,0,75,0,0
73686,-93.000935589412,4,1,0,75,0,0
73954,-95.1914061198555,4,1,0,75,0,0
74021,-95.7551731732307,4,1,0,75,0,0
74088,-96.3257505702484,4,1,0,75,0,0
74222,-97.4874558016247,4,1,0,75,0,0
74490,-99.8970061866216,4,1,0,75,0,0
75026,-100,4,1,0,65,0,0
85472,-100,4,1,0,75,0,0
86276,-100,4,1,0,65,0,0

[HitObjects]
256,192,36,5,0,0:0:0:0:
256,192,1911,5,0,0:0:0:0:
256,192,2178,5,0,0:0:0:0:
256,192,3250,5,8,0:0:0:0:
256,192,4053,5,8,0:0:0:0:
256,192,4321,5,8,0:0:0:0:
256,192,4388,5,8,0:0:0:0:
256,192,4455,5,8,0:0:0:0:
256,192,4589,5,8,0:0:0:0:
256,192,4723,5,0,0:0:0:0:
256,192,4857,5,0,0:0:0:0:
256,192,5125,5,8,0:0:0:0:
256,192,5393,5,8,0:0:0:0:
256,192,5460,5,8,0:0:0:0:
256,192,5527,5,8,0:0:0:0:
256,192,5661,5,0,0:0:0:0:
256,192,5794,5,0,0:0:0:0:
256,192,5928,5,8,0:0:0:0:
256,192,6196,5,8,0:0:0:0:
256,192,6464,5,8,0:0:0:0:
256,192,6531,5,8,0:0:0:0:
256,192,6598,5,8,0:0:0:0:
256,192,6732,5,8,0:0:0:0:
256,192,6866,5,0,0:0:0:0:
256,192,7000,5,8,0:0:0:0:
256,192,7268,5,8,0:0:0:0:
256,192,7536,5,8,0:0:0:0:
256,192,7602,5,8,0:0:0:0:
256,192,7669,5,8,0:0:0:0:
256,192,7803,5,0,0:0:0:0:
256,192,7937,5,0,0:0:0:0:
256,192,8071,5,8,0:0:0:0:
256,192,8339,5,8,0:0:0:0:
256,192,8607,5,0,0:0:0:0:
256,192,9143,5,0,0:0:0:0:
256,192,9277,5,8,0:0:0:0:
256,192,9411,5,0,0:0:0:0:
256,192,9544,5,8,0:0:0:0:
256,192,9678,5,0,0:0:0:0:
256,192,9946,5,0,0:0:0:0:
256,192,10214,5,8,0:0:0:0:
256,192,10348,5,0,0:0:0:0:
256,192,10482,5,8,0:0:0:0:
256,192,10616,5,0,0:0:0:0:
256,192,10750,5,8,0:0:0:0:
256,192,11018,5,0,0:0:0:0:
256,192,11286,5,8,0:0:0:0:
256,192,11821,5,8,0:0:0:0:
256,192,12089,5,8,0:0:0:0:
256,192,12223,5,0,0:0:0:0:
256,192,12357,5,8,0:0:0:0:
256,192,12625,5,8,0:0:0:0:
256,192,12893,5,8,0:0:0:0:
256,192,13161,5,0,0:0:0:0:
256,192,13294,5,8,0:0:0:0:
256,192,13428,5,8,0:0:0:0:
256,192,13696,5,8,0:0:0:0:
256,192,13964,5,8,0:0:0:0:
256,192,14098,5,8,0:0:0:0:
256,192,14232,5,0,0:0:0:0:
256,192,14500,5,8,0:0:0:0:
256,192,14768,5,0,0:0:0:0:
256,192,15303,5,0,0:0:0:0:
256,192,15437,5,8,0:0:0:0:
256,192,15571,5,8,0:0:0:0:
256,192,15705,5,0,0:0:0:0:
256,192,15839,5,8,0:0:0:0:
256,192,16107,5,8,0:0:0:0:
256,192,16375,5,8,0:0:0:0:
256,192,16509,5,8,0:0:0:0:
256,192,16643,5,8,0:0:0:0:
256,192,16911,5,8,0:0:0:0:
256,192,17178,5,0,0:0:0:0:
256,192,17714,5,8,0:0:0:0:
256,192,17848,5,8,0:0:0:0:
256,192,17982,5,0,0:0:0:0:
256,192,18116,5,8,0:0:0:0:
256,192,18250,5,0,0:0:0:0:
256,192,18518,5,0,0:0:0:0:
256,192,18786,5,8,0:0:0:0:
256,192,18919,5,0,0:0:0:0:
256,192,19053,5,8,0:0:0:0:
256,192,19187,5,8,0:0:0:0:
256,192,19321,5,0,0:0:0:0:
256,192,19589,5,0,0:0:0:0:
256,192,19857,5,8,0:0:0:0:
256,192,20393,5,8,0:0:0:0:
256,192,20661,5,0,0:0:0:0:
256,192,20794,5,8,0:0:0:0:
256,192,20928,5,8,0:0:0:0:
256,192,21196,5,8,0:0:0:0:
256,192,21464,5,8,0:0:0:0:
256,192,21732,5,8,0:0:0:0:
256,192,21866,5,8,0:0:0:0:
256,192,22000,5,0,0:0:0:0:
256,192,22268,5,0,0:0:0:0:
256,192,22536,5,8,0:0:0:0:
256,192,22669,5,8,0:0:0:0:
256,192,22803,5,0,0:0:0:0:
256,192,23071,5,8,0:0:0:0:
256,192,23607,5,8,0:0:0:0:
256,192,23875,5,0,0:0:0:0:
256,192,24009,5,8,0:0:0:0:
256,192,24143,5,8,0:0:0:0:
256,192,24277,5,0,0:0:0:0:
256,192,24411,5,8,0:0:0:0:
256,192,24678,5,8,0:0:0:0:
256,192,25214,5,0,0:0:0:0:
256,192,25750,5,0,0:0:0:0:
256,192,25884,5,0,0:0:0:0:
256,192,26018,5,8,0:0:0:0:
256,192,26152,5,8,0:0:0:0:
256,192,26286,5,0,0:0:0:0:
256,192,26553,5,0,0:0:0:0:
256,192,26821,5,8,0:0:0:0:
256,192,27089,5,8,0:0:0:0:
256,192,27357,5,0,0:0:0:0:
256,192,27893,5,8,0:0:0:0:
256,192,28027,5,0,0:0:0:0:
256,192,28161,5,8,0:0:0:0:
256,192,28294,5,8,0:0:0:0:
256,192,28428,5,0,0:0:0:0:
256,192,28696,5,8,0:0:0:0:
256,192,28964,5,0,0:0:0:0:
256,192,29232,5,0,0:0:0:0:
256,192,29500,5,8,0:0:0:0:
256,192,30036,5,8,0:0:0:0:
256,192,30169,5,0,0:0:0:0:
256,192,30303,5,8,0:0:0:0:
256,192,30437,5,8,0:0:0:0:
256,192,30571,5,0,0:0:0:0:
256,192,30839,5,0,0:0:0:0:
256,192,30973,5,0,0:0:0:0:
256,192,31107,5,8,0:0:0:0:
256,192,31375,5,8,0:0:0:0:
256,192,31643,5,0,0:0:0:0:
256,192,32178,5,8,0:0:0:0:
256,192,32312,5,0,0:0:0:0:
256,192,32446,5,8,0:0:0:0:
256,192,32580,5,8,0:0:0:0:
256,192,32714,5,0,0:0:0:0:
256,192,32982,5,8,0:0:0:0:
256,192,33116,5,0,0:0:0:0:
256,192,33250,5,8,0:0:0:0:
256,192,33518,5,0,0:0:0:0:
256,192,33786,5,8,0:0:0:0:
256,192,33919,5,8,0:0:0:0:
256,192,34053,5,0,0:0:0:0:
256,192,34321,5,8,0:0:0:0:
256,192,34589,5,8,0:0:0:0:
256,192,34723,5,8,0:0:0:0:
256,192,34857,5,0,0:0:0:0:
256,192,35125,5,0,0:0:0:0:
256,192,35393,5,0,0:0:0:0:
256,192,35527,5,8,0:0:0:0:
256,192,35661,5,8,0:0:0:0:
256,192,35928,5,0,0:0:0:0:
256,192,36464,5,8,0:0:0:0:
256,192,36732,5,0,0:0:0:0:
256,192,36866,5,8,0:0:0:0:
256,192,37000,5,0,0:0:0:0:
256,192,37268,5,0,0:0:0:0:
256,192,37402,5,8,0:0:0:0:
256,192,37536,5,8,0:0:0:0:
256,192,37803,5,8,0:0:0:0:
256,192,38071,5,0,0:0:0:0:
256,192,38607,5,8,0:0:0:0:
256,192,38741,5,0,0:0:0:0:
256,192,38875,5,8,0:0:0:0:
256,192,39009,5,8,0:0:0:0:
256,192,39143,5,0,0:0:0:0:
256,192,39411,5,0,0:0:0:0:
256,192,39544,5,0,0:0:0:0:
256,192,39678,5,8,0:0:0:0:
256,192,39946,5,0,0:0:0:0:
256,192,40214,5,8,0:0:0:0:
256,192,40750,5,8,0:0:0:0:
256,192,40884,5,8,0:0:0:0:
256,192,41018,5,0,0:0:0:0:
256,192,41152,5,8,0:0:0:0:
256,192,41286,5,0,0:0:0:0:
256,192,41553,5,0,0:0:0:0:
256,192,41687,5,0,0:0:0:0:
256,192,41821,5,8,0:0:0:0:
256,192,42089,5,0,0:0:0:0:
256,192,42357,5,0,0:0:0:0:
256,192,42491,5,8,0:0:0:0:
256,192,42625,5,0,0:0:0:0:
256,192,42893,5,8,0:0:0:0:
256,192,43428,5,8,0:0:0:0:
256,192,43562,5,8,0:0:0:0:
256,192,43964,5,8,0:0:0:0:
256,192,44500,5,8,0:0:0:0:
256,192,45036,5,8,0:0:0:0:
256,192,45571,5,8,0:0:0:0:
256,192,45705,5,8,0:0:0:0:
256,192,46107,5,8,0:0:0:0:
256,192,46375,5,8,0:0:0:0:
256,192,47178,5,0,0:0:0:0:
256,192,47714,5,8,0:0:0:0:
256,192,47848,5,8,0:0:0:0:
256,192,48250,5,0,0:0:0:0:
256,192,48786,5,0,0:0:0:0:
256,192,49321,5,0,0:0:0:0:
256,192,49857,5,8,0:0:0:0:
256,192,50125,5,8,0:0:0:0:
256,192,50393,5,8,0:0:0:0:
256,192,50527,5,0,0:0:0:0:
256,192,50661,5,0,0:0:0:0:
256,192,50794,5,8,0:0:0:0:
256,192,51062,5,0,0:0:0:0:
256,192,51196,5,8,0:0:0:0:
256,192,51330,5,8,0:0:0:0:
256,192,52536,5,0,0:0:0:0:
256,192,53071,5,0,0:0:0:0:
256,192,53607,5,8,0:0:0:0:
256,192,53875,5,0,0:0:0:0:
256,192,54143,5,0,0:0:0:0:
256,192,54678,5,8,0:0:0:0:
256,192,54946,5,8,0:0:0:0:
256,192,55214,5,0,0:0:0:0:
256,192,55750,5,8,0:0:0:0:
256,192,56286,5,8,0:0:0:0:
256,192,56352,5,8,0:0:0:0:
256,192,56419,5,8,0:0:0:0:
256,192,56553,5,8,0:0:0:0:
256,192,56687,5,0,0:0:0:0:
256,192,56821,5,8,0:0:0:0:
256,192,57089,5,8,0:0:0:0:
256,192,57357,5,0,0:0:0:0:
256,192,57424,5,0,0:0:0:0:
256,192,57491,5,0,0:0:0:0:
256,192,57625,5,8,0:0:0:0:
256,192,57759,5,0,0:0:0:0:
256,192,57893,5,8,0:0:0:0:
256,192,58161,5,0,0:0:0:0:
256,192,58428,5,8,0:0:0:0:
256,192,61241,5,12,0:0:0:0:
256,192,62312,5,12,0:0:0:0:
256,192,64857,5,0,0:0:0:0:
256,192,65928,5,8,0:0:0:0:
256,192,66464,5,8,0:0:0:0:
256,192,67000,5,0,0:0:0:0:
256,192,67536,5,8,0:0:0:0:
256,192,68607,5,8,0:0:0:0:
256,192,70750,5,0,0:0:0:0:
256,192,70817,5,0,0:0:0:0:
256,192,70884,5,0,0:0:0:0:
256,192,71018,5,0,0:0:0:0:
256,192,71286,5,8,0:0:0:0:
256,192,71352,5,8,0:0:0:0:
256,192,71419,5,8,0:0:0:0:
256,192,71553,5,8,0:0:0:0:
256,192,71821,5,8,0:0:0:0:
256,192,72893,5,0,0:0:0:0:
256,192,73428,5,8,0:0:0:0:
256,192,73495,5,8,0:0:0:0:
256,192,73562,5,8,0:0:0:0:
256,192,73696,5,0,0:0:0:0:
256,192,73964,5,0,0:0:0:0:
256,192,74031,5,0,0:0:0:0:
256,192,74098,5,0,0:0:0:0:
256,192,74232,5,8,0:0:0:0:
256,192,74500,5,8,0:0:0:0:
256,192,77714,5,0,0:0:0:0:
256,192,77982,5,8,0:0:0:0:
256,192,78250,5,0,0:0:0:0:
256,192,78786,5,8,0:0:0:0:
256,192,79053,5,0,0:0:0:0:
256,192,79857,5,0,0:0:0:0:
256,192,80393,5,0,0:0:0:0:
256,192,80661,5,0,0:0:0:0:
256,192,80794,5,0,0:0:0:0:
256,192,80928,5,8,0:0:0:0:
256,192,81196,5,0,0:0:0:0:
256,192,82000,5,0,0:0:0:0:
256,192,82268,5,8,0:0:0:0:
256,192,82536,5,0,0:0:0:0:
256,192,83071,5,0,0:0:0:0:
256,192,83339,5,0,0:0:0:0:
256,192,83607,5,8,0:0:0:0:
256,192,83875,5,0,0:0:0:0:
256,192,84143,5,0,0:0:0:0:
256,192,84411,5,8,0:0:0:0:
256,192,84678,5,8,0:0:0:0:
256,192,85214,5,0,0:0:0:0:
256,192,85482,5,8,0:0:0:0:
256,192,85750,5,8,0:0:0:0:
256,192,85884,5,8,0:0:0:0:
256,192,86286,5,0,0:0:0:0:
256,192,86553,5,8,0:0:0:0:
256,192,86821,5,0,0:0:0:0:
256,192,87357,5,8,0:0:0:0:
256,192,87625,5,0,0:0:0:0:
256,192,87893,5,0,0:0:0:0:
256,192,88428,5,8,0:0:0:0:
256,192,88696,5,0,0:0:0:0:
256,192,88964,5,0,0:0:0:0:
256,192,89232,5,0,0:0:0:0:
256,192,89366,5,0,0:0:0:0:
256,192,89500,5,8,0:0:0:0:
256,192,90036,5,8,0:0:0:0:
256,192,90571,5,0,0:0:0:0:
256,192,90839,5,0,0:0:0:0:
256,192,91107,5,8,0:0:0:0:
256,192,91643,5,8,0:0:0:0:
256,192,91911,5,0,0:0:0:0:
256,192,92178,5,8,0:0:0:0:
256,192,92446,5,0,0:0:0:0:
256,192,92714,5,8,0:0:0:0:
256,192,92982,5,0,0:0:0:0:
256,192,93116,5,0,0:0:0:0:
256,192,93250,5,8,0:0:0:0:
256,192,93786,5,8,0:0:0:0:
256,192,93919,5,8,0:0:0:0:
256,192,94053,5,0,0:0:0:0:
256,192,94321,5,0,0:0:0:0:
