osu file format v14

[General]
AudioFilename: audio.mp3
AudioLeadIn: 0
PreviewTime: 4257
Countdown: 0
SampleSet: Normal
StackLeniency: 0.7
Mode: 1
LetterboxInBreaks: 0
WidescreenStoryboard: 1

[Editor]
DistanceSpacing: 0.8
BeatDivisor: 2
GridSize: 32
TimelineZoom: 2.4

[Metadata]
Title:Ice
TitleUnicode:Ice
Artist:Scott Lloyd Shelly
ArtistUnicode:Scott Lloyd Shelly
Creator:Antti
Version:Futsuu
Source:Terraria
Tags:snow biome tundra re-logic re logic original soundtrack volume 2 two ost video game music vgm electronic instrumental ambient
BeatmapID:3136229
BeatmapSetID:1532844

[Difficulty]
HPDrainRate:8.5
CircleSize:2
OverallDifficulty:4
ApproachRate:10
SliderMultiplier:1.6
SliderTickRate:1

[Events]
//Background and Video events
0,0,"iceterraria.png",0,45
//Break Periods
//Storyboard Layer 0 (Background)
//Storyboard Layer 1 (Fail)
//Storyboard Layer 2 (Pass)
//Storyboard Layer 3 (Foreground)
//Storyboard Layer 4 (Overlay)
//Storyboard Sound Samples

[TimingPoints]
36,535.714285714286,4,1,0,70,1,0
4311,-100,4,1,0,75,0,0
9133,-100,4,1,0,70,0,0
16097,-99.9740067582429,4,1,0,75,0,0
17168,-99.9740067582429,4,1,0,70,0,0
49847,-100,4,1,0,75,0,0
50383,-100,4,1,0,70,0,0
56276,-100,4,1,0,75,0,0
58954,-100,4,1,0,70,0,0
65918,-100,4,1,0,65,0,0
67526,-100,4,1,0,70,0,0
70740,-100,4,1,0,75,0,0
72883,-100,4,1,0,70,0,0
73418,-100,4,1,0,75,0,0
75026,-100,4,1,0,65,0,0
85472,-100,4,1,0,75,0,0
86276,-100,4,1,0,65,0,0

[HitObjects]
256,192,36,5,0,0:0:0:0:
256,192,1911,5,0,0:0:0:0:
256,192,2178,5,0,0:0:0:0:
256,192,3250,5,8,0:0:0:0:
256,192,4053,5,8,0:0:0:0:
256,192,4321,5,8,0:0:0:0:
256,192,4589,5,8,0:0:0:0:
256,192,4723,5,8,0:0:0:0:
256,192,4857,5,8,0:0:0:0:
256,192,5125,5,0,0:0:0:0:
256,192,5393,5,8,0:0:0:0:
256,192,5661,5,0,0:0:0:0:
256,192,5928,5,8,0:0:0:0:
256,192,6464,5,8,0:0:0:0:
256,192,6732,5,8,0:0:0:0:
256,192,6866,5,8,0:0:0:0:
256,192,7000,5,8,0:0:0:0:
256,192,7268,5,0,0:0:0:0:
256,192,7536,5,8,0:0:0:0:
256,192,8607,5,0,0:0:0:0:
256,192,9143,5,0,0:0:0:0:
256,192,9411,5,8,0:0:0:0:
256,192,9678,5,0,0:0:0:0:
256,192,10214,5,8,0:0:0:0:
256,192,10750,5,8,0:0:0:0:
256,192,11018,5,0,0:0:0:0:
256,192,11286,5,8,0:0:0:0:
256,192,11821,5,8,0:0:0:0:
256,192,12089,5,8,0:0:0:0:
256,192,12357,5,8,0:0:0:0:
256,192,12893,5,0,0:0:0:0:
256,192,13161,5,8,0:0:0:0:
256,192,13428,5,8,0:0:0:0:
256,192,13964,5,8,0:0:0:0:
256,192,14500,5,8,0:0:0:0:
256,192,15303,5,0,0:0:0:0:
256,192,15571,5,8,0:0:0:0:
256,192,15839,5,0,0:0:0:0:
256,192,16107,5,8,0:0:0:0:
256,192,16375,5,8,0:0:0:0:
256,192,16643,5,8,0:0:0:0:
256,192,17178,5,0,0:0:0:0:
256,192,17714,5,8,0:0:0:0:
256,192,17982,5,0,0:0:0:0:
256,192,18250,5,0,0:0:0:0:
256,192,18786,5,8,0:0:0:0:
256,192,19321,5,0,0:0:0:0:
256,192,19589,5,0,0:0:0:0:
256,192,19857,5,8,0:0:0:0:
256,192,20393,5,8,0:0:0:0:
256,192,20661,5,0,0:0:0:0:
256,192,20928,5,8,0:0:0:0:
256,192,21464,5,8,0:0:0:0:
256,192,21732,5,8,0:0:0:0:
256,192,22000,5,0,0:0:0:0:
256,192,22536,5,8,0:0:0:0:
256,192,23071,5,0,0:0:0:0:
256,192,23875,5,0,0:0:0:0:
256,192,24143,5,8,0:0:0:0:
256,192,24411,5,8,0:0:0:0:
256,192,24678,5,8,0:0:0:0:
256,192,25214,5,0,0:0:0:0:
256,192,25750,5,0,0:0:0:0:
256,192,26018,5,8,0:0:0:0:
256,192,26286,5,0,0:0:0:0:
256,192,26821,5,8,0:0:0:0:
256,192,27357,5,0,0:0:0:0:
256,192,27893,5,8,0:0:0:0:
256,192,28161,5,8,0:0:0:0:
256,192,28428,5,0,0:0:0:0:
256,192,28964,5,0,0:0:0:0:
256,192,30036,5,8,0:0:0:0:
256,192,30303,5,8,0:0:0:0:
256,192,30571,5,0,0:0:0:0:
256,192,31107,5,8,0:0:0:0:
256,192,31643,5,0,0:0:0:0:
256,192,32178,5,8,0:0:0:0:
256,192,32446,5,8,0:0:0:0:
256,192,32714,5,0,0:0:0:0:
256,192,32982,5,8,0:0:0:0:
256,192,33250,5,8,0:0:0:0:
256,192,34321,5,8,0:0:0:0:
256,192,34857,5,0,0:0:0:0:
256,192,35125,5,0,0:0:0:0:
256,192,35393,5,8,0:0:0:0:
256,192,35661,5,8,0:0:0:0:
256,192,35928,5,0,0:0:0:0:
256,192,36464,5,8,0:0:0:0:
256,192,36732,5,0,0:0:0:0:
256,192,37000,5,0,0:0:0:0:
256,192,37268,5,0,0:0:0:0:
256,192,37536,5,8,0:0:0:0:
256,192,38607,5,8,0:0:0:0:
256,192,38875,5,8,0:0:0:0:
256,192,39143,5,0,0:0:0:0:
256,192,39411,5,0,0:0:0:0:
256,192,39678,5,8,0:0:0:0:
256,192,40214,5,8,0:0:0:0:
256,192,40750,5,8,0:0:0:0:
256,192,41018,5,0,0:0:0:0:
256,192,41286,5,0,0:0:0:0:
256,192,41553,5,0,0:0:0:0:
256,192,41821,5,8,0:0:0:0:
256,192,42893,5,8,0:0:0:0:
256,192,43428,5,8,0:0:0:0:
256,192,43964,5,8,0:0:0:0:
256,192,45036,5,8,0:0:0:0:
256,192,45571,5,8,0:0:0:0:
256,192,46107,5,8,0:0:0:0:
256,192,46375,5,8,0:0:0:0:
256,192,47178,5,0,0:0:0:0:
256,192,47714,5,8,0:0:0:0:
256,192,48250,5,0,0:0:0:0:
256,192,49321,5,0,0:0:0:0:
256,192,49857,5,8,0:0:0:0:
256,192,50125,5,8,0:0:0:0:
256,192,50393,5,8,0:0:0:0:
256,192,50661,5,0,0:0:0:0:
256,192,50794,5,0,0:0:0:0:
256,192,51062,5,0,0:0:0:0:
256,192,51196,5,8,0:0:0:0:
256,192,51330,5,8,0:0:0:0:
256,192,52536,5,0,0:0:0:0:
256,192,53607,5,8,0:0:0:0:
256,192,54143,5,0,0:0:0:0:
256,192,54678,5,8,0:0:0:0:
256,192,55214,5,0,0:0:0:0:
256,192,55750,5,8,0:0:0:0:
256,192,56286,5,8,0:0:0:0:
256,192,56419,5,8,0:0:0:0:
256,192,56553,5,8,0:0:0:0:
256,192,56821,5,0,0:0:0:0:
256,192,57357,5,0,0:0:0:0:
256,192,57491,5,0,0:0:0:0:
256,192,57625,5,0,0:0:0:0:
256,192,57893,5,8,0:0:0:0:
256,192,58161,5,0,0:0:0:0:
256,192,58428,5,8,0:0:0:0:
256,192,61241,5,12,0:0:0:0:
256,192,62312,5,12,0:0:0:0:
256,192,64857,5,0,0:0:0:0:
256,192,65928,5,8,0:0:0:0:
256,192,66464,5,8,0:0:0:0:
256,192,67000,5,0,0:0:0:0:
256,192,67536,5,8,0:0:0:0:
256,192,68607,5,8,0:0:0:0:
256,192,70750,5,0,0:0:0:0:
256,192,70884,5,0,0:0:0:0:
256,192,71018,5,0,0:0:0:0:
256,192,71286,5,8,0:0:0:0:
256,192,71821,5,8,0:0:0:0:
256,192,72893,5,0,0:0:0:0:
256,192,73428,5,8,0:0:0:0:
256,192,73562,5,8,0:0:0:0:
256,192,73696,5,8,0:0:0:0:
256,192,73964,5,0,0:0:0:0:
256,192,74500,5,8,0:0:0:0:
256,192,77714,5,0,0:0:0:0:
256,192,77982,5,8,0:0:0:0:
256,192,78250,5,0,0:0:0:0:
256,192,78786,5,8,0:0:0:0:
256,192,79053,5,0,0:0:0:0:
256,192,79857,5,0,0:0:0:0:
256,192,80393,5,0,0:0:0:0:
256,192,80661,5,0,0:0:0:0:
256,192,80928,5,8,0:0:0:0:
256,192,82000,5,0,0:0:0:0:
256,192,82268,5,8,0:0:0:0:
256,192,82536,5,0,0:0:0:0:
256,192,83071,5,0,0:0:0:0:
256,192,83339,5,0,0:0:0:0:
256,192,84143,5,0,0:0:0:0:
256,192,84678,5,8,0:0:0:0:
256,192,85482,5,8,0:0:0:0:
256,192,85750,5,8,0:0:0:0:
256,192,86286,5,0,0:0:0:0:
256,192,86553,5,8,0:0:0:0:
256,192,86821,5,0,0:0:0:0:
256,192,87357,5,8,0:0:0:0:
256,192,87625,5,0,0:0:0:0:
256,192,88428,5,8,0:0:0:0:
256,192,88964,5,0,0:0:0:0:
256,192,89500,5,8,0:0:0:0:
256,192,90036,5,8,0:0:0:0:
256,192,90571,5,0,0:0:0:0:
256,192,90839,5,0,0:0:0:0:
256,192,91107,5,8,0:0:0:0:
256,192,91643,5,8,0:0:0:0:
256,192,91911,5,0,0:0:0:0:
256,192,92714,5,8,0:0:0:0:
256,192,92982,5,0,0:0:0:0:
256,192,93250,5,8,0:0:0:0:
256,192,93786,5,8,0:0:0:0:
256,192,94053,5,8,0:0:0:0:
256,192,94321,5,0,0:0:0:0:
