osu file format v14

[General]
AudioFilename: Boss 2.mp3
AudioLeadIn: 0
PreviewTime: 7485
Countdown: 0
SampleSet: Normal
StackLeniency: 0.7
Mode: 1
LetterboxInBreaks: 0
WidescreenStoryboard: 0

[Editor]
DistanceSpacing: 0.9
BeatDivisor: 12
GridSize: 8
TimelineZoom: 3.099999

[Metadata]
Title:Boss 2
TitleUnicode:Boss 2
Artist:Scott Lloyd Shelly
ArtistUnicode:Scott Lloyd Shelly
Creator:trollocat
Version:Oni
Source:Terraria
Tags:re-logic re logic original soundtrack two ost instrumental resonance array video game electronic music hell underworld indie games wof theme boss battle fight
BeatmapID:2718152
BeatmapSetID:1311441

[Difficulty]
HPDrainRate:6
CircleSize:5
OverallDifficulty:5
ApproachRate:5
SliderMultiplier:1.4
SliderTickRate:1

[Events]
//Background and Video events
0,0,"mcx5w8amjfsz.jpg",0,0
//Break Periods
//Storyboard Layer 0 (Background)
//Storyboard Layer 1 (Fail)
//Storyboard Layer 2 (Pass)
//Storyboard Layer 3 (Foreground)
//Storyboard Layer 4 (Overlay)
//Storyboard Sound Samples

[TimingPoints]
1170,394.736842105263,4,1,0,50,1,0
1170,-111.111111111111,4,1,0,50,0,0
1531,-105.263157894737,4,1,0,50,0,0
1762,-100,4,1,0,60,0,0
5676,-104.166666666667,4,1,0,60,0,0
5873,-100,4,1,0,60,0,0
6071,-103.092783505155,4,1,0,62,0,0
6268,-100,4,1,0,65,0,0
6465,-102.040816326531,4,1,0,68,0,0
6663,-100,4,1,0,71,0,0
6860,-101.010101010101,4,1,0,74,0,0
7058,-100,4,1,0,77,0,0
7485,-100,4,1,0,80,0,1
7650,-98.0392156862745,4,1,0,80,0,1
9229,-95.2380952380952,4,1,0,80,0,1
11005,-100,4,1,0,80,0,1
13768,-93.4579439252336,4,1,0,80,0,1
13965,-94.3396226415094,4,1,0,80,0,1
14064,-95.2380952380952,4,1,0,80,0,1
14163,-96.1538461538461,4,1,0,80,0,1
14360,-98.0392156862745,4,1,0,80,0,1
14459,-99.009900990099,4,1,0,80,0,1
14656,-100,4,1,0,80,0,1
17518,-92.5925925925926,4,1,0,80,0,1
17715,-93.4579439252336,4,1,0,80,0,1
17814,-94.3396226415094,4,1,0,80,0,1
18011,-95.2380952380952,4,1,0,80,0,1
18110,-96.1538461538461,4,1,0,80,0,1
18505,-100,4,1,0,80,0,1
18735,-95.2380952380952,4,1,0,80,0,1
18834,-96.1538461538461,4,1,0,80,0,1
18933,-97.0873786407767,4,1,0,80,0,1
19031,-98.0392156862745,4,1,0,80,0,1
19229,-100,4,1,0,80,0,1
19689,-102.040816326531,4,1,0,80,0,1
20084,-104.166666666667,4,1,0,80,0,1
20281,-102.040816326531,4,1,0,80,0,1
20479,-100,4,1,0,80,0,1
20577,-101.010101010101,4,1,0,80,0,1
20676,-102.040816326531,4,1,0,80,0,1
20873,-104.166666666667,4,1,0,80,0,1
21071,-102.040816326531,4,1,0,80,0,1
21268,-100,4,1,0,80,0,1
21367,-101.010101010101,4,1,0,80,0,1
21465,-102.040816326531,4,1,0,80,0,1
21663,-104.166666666667,4,1,0,80,0,1
21860,-102.040816326531,4,1,0,80,0,1
22058,-100,4,1,0,80,0,1
22255,-98.0392156862745,4,1,0,80,0,1
22354,-97.0873786407767,4,1,0,80,0,1
22452,-96.1538461538461,4,1,0,80,0,1
22551,-95.2380952380952,4,1,0,80,0,1
22650,-94.3396226415094,4,1,0,80,0,1
22847,-92.5925925925926,4,1,0,80,0,1
23044,-90.9090909090909,4,1,0,80,0,1
23242,-92.5925925925926,4,1,0,80,0,1
23439,-94.3396226415094,4,1,0,80,0,1
23538,-95.2380952380952,4,1,0,80,0,1
23636,-96.1538461538461,4,1,0,80,0,1
23834,-98.0392156862745,4,1,0,80,0,1
24031,-100,4,1,0,80,0,1
26433,-100,4,1,0,50,0,0
26794,-111.111111111111,4,1,0,50,0,0
32715,-100,4,1,0,60,0,0
39426,-91.743119266055,4,1,0,70,0,0
39525,-92.5925925925926,4,1,0,70,0,0
39623,-93.4579439252336,4,1,0,70,0,0
39722,-94.3396226415094,4,1,0,70,0,0
39821,-95.2380952380952,4,1,0,70,0,0
40018,-96.1538461538461,4,1,0,70,0,0
40215,-97.0873786407767,4,1,0,70,0,0
40413,-98.0392156862745,4,1,0,70,0,0
40511,-99.009900990099,4,1,0,70,0,0
40610,-100,4,1,0,70,0,0
42584,-94.3396226415094,4,1,0,70,0,0
42683,-95.2380952380952,4,1,0,70,0,0
42781,-96.1538461538461,4,1,0,70,0,0
42880,-97.0873786407767,4,1,0,70,0,0
42979,-98.0392156862745,4,1,0,70,0,0
43176,-99.009900990099,4,1,0,70,0,0
43373,-100,4,1,0,70,0,0
43571,-98.0392156862745,4,1,0,70,0,0
43768,-94.3396226415094,4,1,0,70,0,0
43867,-96.1538461538461,4,1,0,70,0,0
43965,-97.0873786407767,4,1,0,70,0,0
44163,-98.0392156862745,4,1,0,70,0,0
44360,-96.1538461538461,4,1,0,70,0,0
44459,-98.0392156862745,4,1,0,70,0,0
44558,-99.009900990099,4,1,0,70,0,0
44755,-100,4,1,0,70,0,0
45347,-99.009900990099,4,1,0,70,0,0
45446,-98.0392156862745,4,1,0,70,0,0
45544,-97.0873786407767,4,1,0,70,0,0
45643,-96.1538461538461,4,1,0,70,0,0
45742,-95.2380952380952,4,1,0,70,0,0
45939,-93.4579439252336,4,1,0,70,0,0
46136,-91.743119266055,4,1,0,70,0,0
46235,-90.9090909090909,4,1,0,70,0,0
46334,-90.0900900900901,4,1,0,70,0,0
46433,-89.2857142857143,4,1,0,70,0,0
46531,-88.4955752212389,4,1,0,70,0,0
46729,-86.9565217391304,4,1,0,70,0,0
46926,-83.3333333333333,4,1,0,70,0,0
47321,-100,4,1,0,70,0,0
51663,-99.009900990099,4,1,0,70,0,0
51794,-98.0392156862745,4,1,0,70,0,0
51926,-97.0873786407767,4,1,0,70,0,0
52058,-96.1538461538461,4,1,0,70,0,0
52189,-95.2380952380952,4,1,0,70,0,0
52452,-93.4579439252336,4,1,0,70,0,0
52584,-92.5925925925926,4,1,0,70,0,0
52715,-91.743119266055,4,1,0,70,0,0
52847,-90.9090909090909,4,1,0,70,0,0
52979,-90.0900900900901,4,1,0,70,0,0
53110,-89.2857142857143,4,1,0,70,0,0
53242,-86.9565217391304,4,1,0,70,0,0
54031,-111.111111111111,4,1,0,50,0,0
55610,-107.52688172043,4,1,0,50,0,0
56005,-111.111111111111,4,1,0,50,0,0
57189,-109.89010989011,4,1,0,50,0,0
57386,-108.695652173913,4,1,0,50,0,0
57584,-107.52688172043,4,1,0,50,0,0
57781,-106.382978723404,4,1,0,50,0,0
57979,-105.263157894737,4,1,0,50,0,0
58406,363.636363636364,4,1,0,80,1,8
58406,-113.636363636364,4,1,0,80,0,0

[HitObjects]
249,306,1170,5,0,0:0:0:0:
246,309,1564,1,0,0:0:0:0:
163,309,1959,1,8,0:0:0:0:
179,300,2354,1,8,0:0:0:0:
182,295,2748,1,4,0:0:0:0:
181,296,3933,1,0,0:0:0:0:
237,271,4130,1,8,0:0:0:0:
181,296,4327,1,0,0:0:0:0:
196,298,4722,1,8,0:0:0:0:
196,298,4919,1,8,0:0:0:0:
190,284,5117,1,0,0:0:0:0:
190,284,5512,1,0,0:0:0:0:
183,284,5709,1,8,0:0:0:0:
236,192,5906,1,0,0:0:0:0:
140,264,6104,1,8,0:0:0:0:
236,192,6301,1,0,0:0:0:0:
91,293,6498,1,8,0:0:0:0:
82,293,6696,1,0,0:0:0:0:
64,278,6893,1,8,0:0:0:0:
403,246,7091,1,0,0:0:0:0:
63,284,7288,1,8,0:0:0:0:
298,276,7387,1,8,0:0:0:0:
61,274,7485,1,0,0:0:0:0:
154,279,7683,1,8,0:0:0:0:
277,154,7880,1,0,0:0:0:0:
240,139,8077,1,0,0:0:0:0:
217,122,8176,1,0,0:0:0:0:
192,129,8275,1,8,0:0:0:0:
164,236,8472,1,8,0:0:0:0:
169,253,8669,1,0,0:0:0:0:
93,251,8867,1,8,0:0:0:0:
134,249,9262,1,8,0:0:0:0:
282,242,9360,1,8,0:0:0:0:
197,271,9459,1,0,0:0:0:0:
200,264,9656,1,8,0:0:0:0:
200,264,9854,1,8,0:0:0:0:
176,270,10051,1,0,0:0:0:0:
327,277,10150,1,0,0:0:0:0:
193,239,10248,1,8,0:0:0:0:
118,273,10446,1,0,0:0:0:0:
110,259,10643,1,8,0:0:0:0:
122,273,11038,1,0,0:0:0:0:
136,267,11235,1,0,0:0:0:0:
266,134,11334,1,8,0:0:0:0:
136,267,11433,1,8,0:0:0:0:
125,259,11630,1,8,0:0:0:0:
181,260,11827,1,0,0:0:0:0:
140,272,12025,1,0,0:0:0:0:
236,298,12123,1,0,0:0:0:0:
126,266,12222,1,8,0:0:0:0:
153,266,12617,1,8,0:0:0:0:
168,261,13012,1,8,0:0:0:0:
153,269,13209,1,8,0:0:0:0:
169,256,13406,1,0,0:0:0:0:
161,264,13801,1,8,0:0:0:0:
172,265,13998,1,0,0:0:0:0:
172,265,14097,1,8,0:0:0:0:
276,310,14196,1,0,0:0:0:0:
273,299,14393,1,8,0:0:0:0:
221,296,14492,1,0,0:0:0:0:
195,311,14689,1,8,0:0:0:0:
172,237,14788,1,0,0:0:0:0:
172,237,14985,1,8,0:0:0:0:
177,269,15183,1,8,0:0:0:0:
177,269,15380,1,0,0:0:0:0:
273,266,15479,1,0,0:0:0:0:
177,269,15577,1,8,0:0:0:0:
273,299,15676,1,0,0:0:0:0:
177,269,15775,1,8,0:0:0:0:
168,265,15972,1,0,0:0:0:0:
168,265,16169,1,8,0:0:0:0:
164,261,16367,1,0,0:0:0:0:
164,261,16466,1,0,0:0:0:0:
164,261,16564,1,8,0:0:0:0:
156,261,16762,1,0,0:0:0:0:
131,231,16959,1,0,0:0:0:0:
149,226,17156,1,8,0:0:0:0:
177,218,17255,1,8,0:0:0:0:
177,218,17354,1,0,0:0:0:0:
192,212,17551,1,8,0:0:0:0:
170,213,17748,1,0,0:0:0:0:
170,213,17847,1,0,0:0:0:0:
160,220,18044,1,8,0:0:0:0:
160,220,18143,1,8,0:0:0:0:
151,206,18538,1,0,0:0:0:0:
146,209,18735,1,8,0:0:0:0:
273,266,18834,1,8,0:0:0:0:
133,215,18933,1,0,0:0:0:0:
222,284,19031,1,0,0:0:0:0:
146,224,19327,1,8,0:0:0:0:
273,299,19525,1,8,0:0:0:0:
60,214,19722,1,0,0:0:0:0:
104,218,19821,1,0,0:0:0:0:
118,220,19919,1,0,0:0:0:0:
103,232,20117,1,0,0:0:0:0:
223,284,20314,1,8,0:0:0:0:
189,283,20512,1,8,0:0:0:0:
194,280,20610,1,8,0:0:0:0:
192,279,20709,1,8,0:0:0:0:
192,279,20906,1,0,0:0:0:0:
184,279,21104,1,8,0:0:0:0:
189,276,21301,1,8,0:0:0:0:
211,268,21400,1,8,0:0:0:0:
217,263,21498,1,8,0:0:0:0:
180,271,21696,1,0,0:0:0:0:
159,203,21893,1,8,0:0:0:0:
150,203,22091,1,0,0:0:0:0:
150,203,22288,1,8,0:0:0:0:
141,197,22387,1,8,0:0:0:0:
146,207,22485,1,8,0:0:0:0:
154,205,22584,1,8,0:0:0:0:
146,207,22683,1,0,0:0:0:0:
157,199,22880,1,8,0:0:0:0:
194,182,23077,1,0,0:0:0:0:
182,288,23275,1,0,0:0:0:0:
153,264,23472,1,8,0:0:0:0:
153,264,23571,1,0,0:0:0:0:
148,261,23669,1,8,0:0:0:0:
218,267,23867,1,8,0:0:0:0:
49,232,24064,2,0,B|50:150|106:201|141:279|130:161|177:118|197:125,1,210
131,293,24854,5,0,0:0:0:0:
163,292,25051,1,8,0:0:0:0:
215,229,25150,1,8,0:0:0:0:
165,223,25248,1,8,0:0:0:0:
207,302,25446,1,0,0:0:0:0:
79,185,25643,2,0,P|71:258|129:194,1,210
230,283,26433,5,4,0:0:0:0:
206,298,26827,1,8,0:0:0:0:
199,315,27222,1,8,0:0:0:0:
203,305,27419,1,0,0:0:0:0:
203,305,28012,1,0,0:0:0:0:
192,316,28209,1,8,0:0:0:0:
199,321,28505,1,8,0:0:0:0:
198,311,28801,1,8,0:0:0:0:
156,193,29196,1,0,0:0:0:0:
188,317,29591,1,0,0:0:0:0:
188,317,29689,1,8,0:0:0:0:
188,317,29788,1,8,0:0:0:0:
178,323,29985,1,8,0:0:0:0:
229,200,30380,1,0,0:0:0:0:
193,208,30577,1,0,0:0:0:0:
193,208,30775,1,8,0:0:0:0:
236,293,31169,1,0,0:0:0:0:
236,291,31466,1,0,0:0:0:0:
234,290,31762,1,8,0:0:0:0:
236,287,32058,1,8,0:0:0:0:
235,288,32748,1,8,0:0:0:0:
235,288,32946,1,0,0:0:0:0:
235,288,33143,1,8,0:0:0:0:
196,286,33341,1,8,0:0:0:0:
211,291,33538,1,0,0:0:0:0:
197,291,33735,1,0,0:0:0:0:
197,291,33933,1,8,0:0:0:0:
197,291,34327,1,8,0:0:0:0:
197,291,34525,1,0,0:0:0:0:
192,289,34722,1,8,0:0:0:0:
192,289,34919,1,0,0:0:0:0:
122,260,35018,1,0,0:0:0:0:
122,260,35117,1,8,0:0:0:0:
273,299,35216,1,8,0:0:0:0:
273,299,35314,1,0,0:0:0:0:
234,246,35512,1,8,0:0:0:0:
208,250,35906,1,8,0:0:0:0:
230,259,36104,1,0,0:0:0:0:
239,263,36301,1,8,0:0:0:0:
236,258,36498,1,8,0:0:0:0:
219,272,36696,1,0,0:0:0:0:
211,272,36893,1,0,0:0:0:0:
144,262,37091,1,8,0:0:0:0:
232,251,37189,1,0,0:0:0:0:
211,316,37288,1,8,0:0:0:0:
183,290,37387,1,8,0:0:0:0:
174,284,37485,1,0,0:0:0:0:
153,214,37683,1,8,0:0:0:0:
156,233,37880,1,0,0:0:0:0:
221,232,38077,1,8,0:0:0:0:
108,270,38472,1,8,0:0:0:0:
192,253,38669,1,0,0:0:0:0:
171,249,38867,1,0,0:0:0:0:
266,258,39064,1,8,0:0:0:0:
373,173,39459,1,8,0:0:0:0:
278,253,39558,1,8,0:0:0:0:
231,260,39656,1,8,0:0:0:0:
200,238,39755,1,8,0:0:0:0:
187,263,39854,1,0,0:0:0:0:
187,263,40051,1,0,0:0:0:0:
160,244,40248,1,8,0:0:0:0:
118,245,40446,1,8,0:0:0:0:
200,238,40544,1,8,0:0:0:0:
94,258,40643,1,0,0:0:0:0:
289,286,40841,1,0,0:0:0:0:
151,227,41038,1,8,0:0:0:0:
213,289,41235,1,0,0:0:0:0:
191,213,41334,1,0,0:0:0:0:
195,219,41433,1,8,0:0:0:0:
195,219,41531,1,8,0:0:0:0:
122,243,41630,1,0,0:0:0:0:
260,283,41827,1,8,0:0:0:0:
260,283,42025,1,0,0:0:0:0:
264,270,42222,1,8,0:0:0:0:
230,249,42617,1,8,0:0:0:0:
192,240,42716,1,8,0:0:0:0:
200,238,42814,1,8,0:0:0:0:
200,238,42913,1,8,0:0:0:0:
262,256,43012,1,0,0:0:0:0:
131,225,43209,1,0,0:0:0:0:
200,248,43406,1,8,0:0:0:0:
228,251,43604,1,0,0:0:0:0:
221,253,43801,1,8,0:0:0:0:
229,181,43900,1,8,0:0:0:0:
138,216,43998,1,0,0:0:0:0:
169,231,44196,1,0,0:0:0:0:
229,252,44393,1,8,0:0:0:0:
304,197,44492,1,0,0:0:0:0:
187,181,44591,1,0,0:0:0:0:
205,193,44788,1,8,0:0:0:0:
170,274,44985,1,0,0:0:0:0:
265,225,45380,1,8,0:0:0:0:
407,244,45479,1,8,0:0:0:0:
407,244,45577,1,0,0:0:0:0:
407,244,45676,1,0,0:0:0:0:
407,244,45775,1,8,0:0:0:0:
407,244,45972,1,0,0:0:0:0:
407,244,46169,1,0,0:0:0:0:
407,244,46268,1,8,0:0:0:0:
407,244,46367,1,8,0:0:0:0:
407,244,46466,1,0,0:0:0:0:
407,244,46564,1,8,0:0:0:0:
407,244,46762,1,8,0:0:0:0:
407,244,46959,1,4,0:0:0:0:
188,214,47354,1,8,0:0:0:0:
316,147,47551,1,8,0:0:0:0:
186,267,47650,1,8,0:0:0:0:
186,267,47748,1,0,0:0:0:0:
156,232,47847,1,0,0:0:0:0:
121,227,47946,1,8,0:0:0:0:
199,264,48143,1,8,0:0:0:0:
282,255,48341,1,0,0:0:0:0:
16,172,48439,1,0,0:0:0:0:
233,254,48538,1,0,0:0:0:0:
238,320,48735,1,0,0:0:0:0:
261,299,48933,1,8,0:0:0:0:
179,253,49130,1,0,0:0:0:0:
231,266,49327,1,8,0:0:0:0:
167,256,49525,1,0,0:0:0:0:
199,275,49722,1,8,0:0:0:0:
275,196,49821,1,8,0:0:0:0:
142,276,49919,1,8,0:0:0:0:
142,276,50117,1,0,0:0:0:0:
179,297,50512,1,8,0:0:0:0:
196,282,50709,1,0,0:0:0:0:
97,273,50808,1,0,0:0:0:0:
98,276,50906,1,8,0:0:0:0:
98,276,51005,1,8,0:0:0:0:
100,277,51104,1,0,0:0:0:0:
171,282,51301,1,8,0:0:0:0:
171,282,51498,1,8,0:0:0:0:
186,282,51696,1,0,0:0:0:0:
200,230,51827,1,8,0:0:0:0:
132,228,51959,1,0,0:0:0:0:
129,232,52091,1,8,0:0:0:0:
150,250,52222,1,0,0:0:0:0:
150,250,52485,1,0,0:0:0:0:
150,250,52617,1,8,0:0:0:0:
107,262,52748,1,0,0:0:0:0:
107,262,52880,1,8,0:0:0:0:
138,271,53012,1,8,0:0:0:0:
130,268,53143,1,8,0:0:0:0:
191,234,53275,1,4,0:0:0:0:
208,300,54064,1,8,0:0:0:0:
224,259,54262,1,0,0:0:0:0:
246,259,54459,1,8,0:0:0:0:
205,256,54656,1,0,0:0:0:0:
205,256,54854,1,0,0:0:0:0:
161,256,55051,1,0,0:0:0:0:
177,256,55248,1,8,0:0:0:0:
155,257,55643,1,4,0:0:0:0:
181,257,56038,1,0,0:0:0:0:
202,261,56235,1,8,0:0:0:0:
202,261,56433,1,0,0:0:0:0:
220,251,57222,1,8,0:0:0:0:
181,254,57419,1,8,0:0:0:0:
174,255,57617,1,0,0:0:0:0:
183,258,57814,1,8,0:0:0:0:
183,258,58012,1,0,0:0:0:0:
175,251,58209,1,0,0:0:0:0:
395,210,58587,1,8,0:0:0:0:
221,217,58678,1,8,0:0:0:0:
336,280,58769,1,8,0:0:0:0:
