osu file format v14

[General]
AudioFilename: spelunk.mp3
AudioLeadIn: 3000
PreviewTime: 6490
Countdown: 1
SampleSet: Normal
StackLeniency: 0
Mode: 0
LetterboxInBreaks: 1
WidescreenStoryboard: 1

[Editor]
Bookmarks: 14038
DistanceSpacing: 1
BeatDivisor: 4
GridSize: 4
TimelineZoom: 1

[Metadata]
Title:Spelunker
TitleUnicode:Spelunker
Artist:Scognito
ArtistUnicode:Scognito
Creator:Ekoro
Version:AR0 TROLL
Source:Syobon Action
Tags:
BeatmapID:574165
BeatmapSetID:249761

[Difficulty]
HPDrainRate:2
CircleSize:4
OverallDifficulty:5
ApproachRate:0
SliderMultiplier:1.8
SliderTickRate:0.5

[Events]
//Background and Video events
0,0,"WP.PNG",0,0
//Break Periods
//Storyboard Layer 0 (Background)
//Storyboard Layer 1 (Fail)
//Storyboard Layer 2 (Pass)
//Storyboard Layer 3 (Foreground)
//Storyboard Sound Samples

[TimingPoints]
133,397.350993377483,4,1,1,50,1,0
530,-66.6666666666667,4,1,1,50,0,0
1722,-100,4,1,1,50,0,0
2119,-66.6666666666667,4,1,1,50,0,0
2417,-66.6666666666667,4,1,1,5,0,0
2616,49.6688741721854,4,1,1,50,1,0
3311,397.350993377483,4,1,1,50,1,0
3708,-66.6666666666667,4,1,1,50,0,0
5297,176.600441501104,4,1,1,50,1,0
5695,397.350993377483,4,1,1,50,1,0
6887,-66.6666666666667,4,1,1,50,0,0
8079,198.675496688742,4,1,1,50,1,0
8079,-66.6666666666667,4,1,1,50,0,0
8476,397.350993377483,4,1,1,50,1,0
8476,-66.6666666666667,4,1,1,50,0,0
9668,-100,4,1,1,50,0,0
10065,-66.6666666666667,4,1,1,50,0,0
11654,176.600441501104,4,1,1,50,1,0
12052,198.675496688742,4,1,1,50,1,0
12250,-50,4,1,1,50,0,0
18806,397.350993377483,4,1,1,6,1,0
18905,-100,4,1,1,17,0,0
19004,-100,4,1,1,28,0,0
19104,-100,4,1,1,39,0,0
19203,-100,4,1,1,50,0,0
19600,198.675496688742,4,1,1,50,1,0
19600,-33.3333333333333,4,1,1,50,0,0
20792,-66.6666666666667,4,1,1,50,0,0
21189,-22.2222222222222,4,1,1,50,0,0
21984,-44.4444444444445,4,1,1,50,0,0
22381,397.350993377483,4,1,1,50,1,0
22778,198.675496688742,4,1,1,50,1,0
22778,-33.3333333333333,4,1,1,50,0,0
24268,-22.2222222222222,4,1,1,50,0,0
25559,397.350993377483,4,1,1,50,1,0
25956,198.675496688742,4,1,1,50,1,0
25956,-50,4,1,1,50,0,0
27148,99.3377483443709,4,1,1,50,1,0
27148,-50,4,1,1,50,0,0
27545,198.675496688742,4,1,1,50,1,0
27545,-50,4,1,1,50,0,0
28538,397.350993377483,4,1,1,50,1,0
29134,198.675496688742,4,1,1,50,1,0
29134,-33.3333333333333,4,1,1,50,0,0
31915,397.350993377483,4,1,1,50,1,0
33305,-50,4,1,1,50,0,0

[Colours]
Combo1 : 192,115,38
Combo2 : 0,77,115

[HitObjects]
348,49,133,6,0,P|406:79|435:139,1,135,2|2,0:0|0:0,0:0:0:0:
436,140,530,2,0,P|407:80|348:49,1,135,0|2,0:0|0:0,0:0:0:0:
256,148,927,1,0,0:0:0:0:
324,264,1126,1,2,0:0:0:0:
256,148,1325,1,0,0:0:0:0:
324,264,1523,1,2,0:0:0:0:
456,300,1722,6,0,P|416:360|352:368,1,135.000005149842,0|2,0:0|0:0,0:0:0:0:
357,369,2119,2,0,P|421:356|456:300,2,135.000005149842,0|2|0,0:0|0:0|0:0,0:0:0:0:
64,24,2715,6,0,B|52:204|52:204|64:24|64:24|52:204|52:204|64:24,1,720,0|0,0:0|0:0,0:0:0:0:
240,64,3311,6,0,L|376:72,1,135,2|2,0:0|0:0,0:0:0:0:
240,64,3708,2,0,L|376:72,2,135,0|2|0,0:0|0:0|0:0,0:0:0:0:
374,71,4304,2,0,L|240:64,1,135.000005149842,2|0,0:0|0:0,0:0:0:0:
374,71,4701,1,2,0:0:0:0:
240,64,4900,6,0,L|252:268,1,202.500007724762,0|2,0:0|0:0,0:0:0:0:
240,64,5297,2,0,L|252:268,1,202.5,0|2,0:0|0:0,0:0:0:0:
240,64,5893,1,0,0:0:0:0:
251,266,6092,1,0,0:0:0:0:
251,266,6291,1,0,0:0:0:0:
240,64,6489,6,0,L|104:52,1,135,2|2,0:0|0:0,0:0:0:0:
196,144,6887,2,0,L|60:132,1,135,0|2,0:0|0:0,0:0:0:0:
152,224,7284,2,0,L|16:212,2,135,0|2|2,0:0|0:0|0:0,0:0:0:0:
272,64,8079,2,0,L|408:52,2,135,2|0|2,0:0|0:0|0:0,0:0:0:0:
316,144,8476,2,0,L|452:132,1,135,2|0,0:0|0:0,0:0:0:0:
316,144,8873,1,2,0:0:0:0:
450,132,9072,2,0,L|316:144,1,135,0|0,0:0|0:0,0:0:0:0:
360,224,9668,6,0,L|496:212,1,135,2|2,0:0|0:0,0:0:0:0:
494,212,10065,2,0,L|484:346,1,135,0|2,0:0|0:0,0:0:0:0:
360,224,10462,1,0,0:0:0:0:
484,348,10661,1,2,0:0:0:0:
492,212,10860,1,0,0:0:0:0:
484,348,11058,1,2,0:0:0:0:
360,224,11257,6,0,B|492:212|492:212|504:144,1,202.500007724762,0|2,0:0|0:0,0:0:0:0:
360,224,11654,6,0,B|492:212|492:212|504:144,1,202.500007724762,0|2,0:0|0:0,0:0:0:0:
248,56,12250,6,0,B|156:48|156:48|248:56|248:56|72:40,1,360,0|2,0:0|0:0,0:0:0:0:
360,260,12846,6,0,B|328:344|328:344|360:260|360:260|328:344|328:344|360:260|360:260|328:344|328:344|360:260|360:260|328:344|328:344|360:260|360:260|328:344|328:344|360:260|360:260|328:344|328:344|360:260|360:260|328:344|328:344|360:260|360:260|328:344|328:344|360:260|360:260|328:344|328:344|360:260|360:260|252:112|360:260,1,1800,2|0,0:0|0:0,0:0:0:0:
360,260,14038,2,0,B|448:244|448:244|360:260|360:260|448:244|448:244|360:260|360:260|448:244,1,360,2|2,0:0|0:0,0:0:0:0:
240,284,14436,2,0,B|232:292|232:292|240:284|240:284|232:292|232:292|240:284|240:284|240:284|240:284|232:292|232:292|240:284|240:284|232:292|232:292|240:284|240:284|232:292|232:292|240:284|240:284|232:292|232:292|240:284|240:284|232:292|232:292|240:284|240:284|232:292|232:292|240:284|240:284|232:292|232:292|240:284|240:284|232:292|232:292|240:284|240:284|232:292|232:292|240:284|240:284|232:292|232:292|240:284|240:284|232:292|232:292|240:284|240:284|232:292|232:292|240:284|240:284|232:292|232:292|240:284|240:284|232:292|232:292|240:284|240:284|232:292|232:292|240:284|240:284|232:292|232:292|240:284|240:284|232:292|232:292|240:284|240:284|232:292|232:292|240:284|240:284|204:252|192:208,1,540
108,52,15032,2,0,B|104:144|104:144|16:140|16:140|20:48|20:48|108:52|108:52|104:144|104:144|16:140|16:140|20:48|20:48|108:52|108:52|20:48|20:48|16:140|16:140|104:144|104:144|108:52,1,1080,2|0,0:0|0:0,0:0:0:0:
248,24,16025,6,0,B|260:40|260:40|244:56|244:56|264:72|264:72|240:88|240:88|268:104|268:104|236:120|236:120|272:136|272:136|232:152|232:152|276:168|276:168|228:184|228:184|280:200|280:200|224:216|224:216|284:232|284:232|220:248|220:248|288:264|288:264|216:280|216:280|292:296|292:296|212:312|212:312|296:328|296:328|208:344|208:344|224:352|224:352,1,1080,2|0,0:0|0:0,0:0:0:0:
348,64,16820,5,2,0:0:0:0:
144,124,17018,1,2,0:0:0:0:
368,216,17217,1,0,0:0:0:0:
124,276,17416,1,2,0:0:0:0:
348,64,17614,5,0,0:0:0:0:
124,276,17813,1,2,0:0:0:0:
368,216,18012,1,0,0:0:0:0:
144,124,18210,1,0,0:0:0:0:
256,192,18409,1,2,0:0:0:0:
348,64,18806,6,0,L|360:148,1,45
144,124,19004,2,0,L|132:208,1,45,0|0,0:0|0:0,0:0:0:0:
368,216,19203,6,0,P|408:232|352:236,1,135,2|2,0:0|0:0,0:0:0:0:
368,136,19600,6,0,P|480:280|276:216,1,540,8|2,0:0|0:0,0:0:0:0:
348,64,19997,1,2,0:0:0:0:
144,124,20196,1,2,0:0:0:0:
348,64,20394,2,0,B|144:124|144:124|468:28,1,540.000020599366,8|2,0:0|0:0,0:0:0:0:
88,72,20792,6,0,P|72:152|160:48,1,405.000015449525,2|2,0:0|0:0,0:0:0:0:
16,32,21189,6,0,P|184:288|176:-32,1,810.000030899049,8|2,0:0|0:0,0:0:0:0:
36,352,21586,5,0,0:0:0:0:
36,352,21785,5,10,0:0:0:0:
436,292,21984,2,0,L|36:352,1,405.000015449524,10|0,0:0|0:0,0:0:0:0:
252,96,22381,6,0,B|256:140|256:140|296:116|296:116|292:72,1,135,2|2,0:0|0:0,0:0:0:0:
180,104,22778,6,0,B|196:264|196:264|372:152|372:152|360:20|360:20|304:0,1,540,8|2,0:0|0:0,0:0:0:0:
16,28,23175,1,2,0:0:0:0:
36,352,23374,1,2,0:0:0:0:
16,28,23572,2,0,B|36:352|36:352|16:28,1,540.000020599366,8|2,0:0|0:0,0:0:0:0:
468,272,23970,6,0,P|192:328|392:56,1,810.000030899049,2|2,0:0|0:0,0:0:0:0:
468,272,24367,6,0,P|192:328|392:56,1,810.000030899049,8|2,0:0|0:0,0:0:0:0:
468,272,24764,1,0,0:0:0:0:
64,228,24963,1,10,0:0:0:0:
468,272,25162,2,0,B|64:228|64:228|468:272|468:272,1,810.000030899049,10|0,0:0|0:0,0:0:0:0:
332,72,25559,6,0,B|356:92|356:92|364:200,1,135,2|2,0:0|0:0,0:0:0:0:
356,0,25956,6,0,B|424:52|424:52|444:332,1,360,8|2,0:0|0:0,0:0:0:0:
156,384,26353,2,0,B|88:332|88:332|68:52,2,360,2|2|10,0:0|0:0|0:0,0:0:0:0:
356,0,27148,6,0,B|424:52|424:52|444:332,2,360,2|0|2,0:0|0:0|0:0,0:0:0:0:
156,384,27545,2,0,B|88:332|88:332|68:52,2,360,10|0|2,0:0|0:0|0:0,0:0:0:0:
156,384,28141,2,0,B|88:332|88:332|68:52,1,360,8|8,0:0|0:0,0:0:0:0:
232,176,28736,6,0,P|272:176|228:212,1,135,2|2,0:0|0:0,0:0:0:0:
204,100,29134,6,0,P|360:208|144:198,1,540.000020599366,8|2,0:0|0:0,0:0:0:0:
360,36,29531,1,2,0:0:0:0:
152,348,29730,1,2,0:0:0:0:
360,36,29928,1,8,0:0:0:0:
152,348,30127,1,2,0:0:0:0:
152,348,30326,6,0,B|20:320|20:320|152:348|152:348|20:320|20:320|152:348|152:348|20:320|20:320|152:348|152:348|152:348,1,810.000030899049,2|2,0:0|0:0,0:0:0:0:
276,288,30723,2,0,B|12:232|12:232|276:288,1,540.000020599366,8|2,0:0|0:0,0:0:0:0:
232,196,31319,2,0,B|496:140|496:140|232:196,1,540.000020599366,10|10,0:0|0:0,0:0:0:0:
256,80,31915,5,2,0:0:0:0:
190,282,32114,1,8,0:0:0:0:
362,157,32312,1,8,0:0:0:0:
149,157,32511,1,8,0:0:0:0:
149,157,32610,1,8,0:0:0:0:
321,282,32809,1,8,0:0:0:0:
321,282,32908,1,8,0:0:0:0:
357,52,33107,6,0,L|408:44,1,45,8|8,0:0|0:0,0:0:0:0:
357,52,33305,6,0,L|456:36,1,90,8|0,0:0|0:0,0:0:0:0:
256,364,33504,5,2,0:0:0:0:
92,245,33703,1,8,0:0:0:0:
357,52,33902,1,8,0:0:0:0:
419,245,34101,1,10,0:0:0:0:
419,245,34200,1,8,0:0:0:0:
154,52,34398,1,8,0:0:0:0:
154,52,34498,1,8,0:0:0:0:
256,192,34696,1,8,0:0:0:0:
256,192,34796,1,8,0:0:0:0:
432,144,35094,5,2,0:0:0:0:
80,240,35292,1,8,0:0:0:0:
80,240,35392,1,8,0:0:0:0:
80,240,35491,1,8,0:0:0:0:
80,240,35690,1,8,0:0:0:0:
432,144,35888,5,2,0:0:0:0:
80,240,36086,1,10,0:0:0:0:
80,240,36186,1,8,0:0:0:0:
80,240,36285,1,10,0:0:0:0:
432,144,36484,1,10,0:0:0:0:
108,88,36683,5,0,0:0:0:0:
404,296,36882,1,2,0:0:0:0:
80,240,37081,1,0,0:0:0:0:
432,144,37279,1,0,0:0:0:0:
404,296,37478,1,6,0:0:0:0:
