osu file format v14

[General]
AudioFilename: spelunk.mp3
AudioLeadIn: 3000
PreviewTime: 6490
Countdown: 0
SampleSet: Normal
StackLeniency: 0
Mode: 0
LetterboxInBreaks: 1
WidescreenStoryboard: 1

[Editor]
Bookmarks: 14038
DistanceSpacing: 1
BeatDivisor: 4
GridSize: 4
TimelineZoom: 1

[Metadata]
Title:Spelunker
TitleUnicode:Spelunker
Artist:Scognito
ArtistUnicode:Scognito
Creator:Ekoro
Version:rainbow seizures
Source:Syobon Action
Tags:
BeatmapID:1227265
BeatmapSetID:249761

[Difficulty]
HPDrainRate:2
CircleSize:4
OverallDifficulty:5
ApproachRate:0
SliderMultiplier:1.8
SliderTickRate:0.5

[Events]
//Background and Video events
0,0,"WP.PNG",0,0
//Break Periods
//Storyboard Layer 0 (Background)
//Storyboard Layer 1 (Fail)
//Storyboard Layer 2 (Pass)
//Storyboard Layer 3 (Foreground)
//Storyboard Sound Samples

[TimingPoints]
133,397.350993377483,4,1,1,50,1,0
530,-66.6666666666667,4,1,1,50,0,0
1722,-100,4,1,1,50,0,0
2119,-66.6666666666667,4,1,1,50,0,0
2417,-66.6666666666667,4,1,1,5,0,0
2616,49.6688741721854,4,1,1,50,1,0
3311,397.350993377483,4,1,1,50,1,0
3708,-66.6666666666667,4,1,1,50,0,0
5297,176.600441501104,4,1,1,50,1,0
5695,397.350993377483,4,1,1,50,1,0
6887,-66.6666666666667,4,1,1,50,0,0
8079,198.675496688742,4,1,1,50,1,0
8079,-66.6666666666667,4,1,1,50,0,0
8476,397.350993377483,4,1,1,50,1,0
8476,-66.6666666666667,4,1,1,50,0,0
9668,-100,4,1,1,50,0,0
10065,-66.6666666666667,4,1,1,50,0,0
11654,176.600441501104,4,1,1,50,1,0
12052,198.675496688742,4,1,1,50,1,0
12250,-50,4,1,1,50,0,0
18806,397.350993377483,4,1,1,6,1,0
18905,-100,4,1,1,17,0,0
19004,-100,4,1,1,28,0,0
19104,-100,4,1,1,39,0,0
19203,198.675496688742,4,1,1,50,1,0
19203,-50,4,1,1,50,0,0
19600,198.675496688742,4,1,1,50,1,0
19600,-33.3333333333333,4,1,1,50,0,0
20792,-33.3333333333333,4,1,1,50,0,0
21189,-22.2222222222222,4,1,1,50,0,0
21984,-44.4444444444445,4,1,1,50,0,0
22381,198.675496688742,4,1,1,50,1,0
22381,-50,4,1,1,50,0,0
22778,-33.3333333333333,4,1,1,50,0,0
24268,-22.2222222222222,4,1,1,50,0,0
25559,198.675496688742,4,1,1,50,1,0
25559,-75.187969924812,4,1,1,50,0,0
25956,198.675496688742,4,1,1,50,1,0
25956,-50,4,1,1,50,0,0
27148,99.3377483443709,4,1,1,50,1,0
27148,-50,4,1,1,50,0,0
27545,198.675496688742,4,1,1,50,1,0
27545,-50,4,1,1,50,0,0
28538,397.350993377483,4,1,1,50,1,0
29134,198.675496688742,4,1,1,50,1,0
29134,-33.3333333333333,4,1,1,50,0,0
31915,397.350993377483,4,1,1,50,1,0
33305,-50,4,1,1,50,0,0

[Colours]
Combo1 : 128,0,64
Combo2 : 255,0,0
Combo3 : 255,255,0
Combo4 : 128,255,0
Combo5 : 0,128,255
Combo6 : 255,128,0
Combo7 : 0,64,128
Combo8 : 255,128,255

[HitObjects]
164,335,133,6,0,P|106:305|77:245,1,135,2|2,0:0|0:0,0:0:0:0:
76,244,530,6,0,P|105:304|164:335,1,135,0|2,0:0|0:0,0:0:0:0:
256,236,927,5,0,0:0:0:0:
188,120,1126,5,2,0:0:0:0:
256,236,1325,5,0,0:0:0:0:
188,120,1523,5,2,0:0:0:0:
56,84,1722,6,0,P|96:24|160:16,1,135.000005149842,0|2,0:0|0:0,0:0:0:0:
155,15,2119,6,0,P|91:28|56:84,1,135.000005149842,0|2,0:0|0:0,0:0:0:0:
55,84,2318,2,0,P|90:28|155:15,1,135.000005149842,0|2,0:0|0:0,0:0:0:0:
448,360,2715,6,0,B|460:180|460:180|448:360|448:360|460:180|460:180|448:360,1,720,0|0,0:0|0:0,0:0:0:0:
272,320,3311,6,0,L|136:312,1,135,2|2,0:0|0:0,0:0:0:0:
137,312,3708,6,0,L|272:320,1,135,0|2,0:0|0:0,0:0:0:0:
138,313,4105,6,0,L|272:320,2,135.000005149842,0|2|0,0:0|0:0|0:0,0:0:0:0:
272,320,4701,5,2,0:0:0:0:
272,320,4900,6,0,L|260:116,1,202.500007724762,0|2,0:0|0:0,0:0:0:0:
272,320,5297,6,0,L|260:116,1,202.5,0|2,0:0|0:0,0:0:0:0:
260,117,5893,5,0,0:0:0:0:
272,320,6092,5,0,0:0:0:0:
261,118,6291,5,0,0:0:0:0:
272,320,6489,6,0,L|408:332,1,135,2|2,0:0|0:0,0:0:0:0:
360,160,6887,6,0,L|496:172,2,135,0|2|0,0:0|0:0|0:0,0:0:0:0:
316,240,7483,6,0,L|452:252,1,135,0|2,0:0|0:0,0:0:0:0:
240,320,8079,6,0,L|104:332,2,135,2|0|2,0:0|0:0|0:0,0:0:0:0:
18,172,8476,6,0,L|152:160,1,135,2|0,0:0|0:0,0:0:0:0:
196,240,8873,5,2,0:0:0:0:
62,252,9072,6,0,L|196:240,2,135
152,160,9668,6,0,L|16:172,1,135,2|2,0:0|0:0,0:0:0:0:
18,172,10065,6,0,L|28:38,1,135,0|2,0:0|0:0,0:0:0:0:
18,172,10462,5,0,0:0:0:0:
28,37,10661,5,2,0:0:0:0:
28,37,10860,5,0,0:0:0:0:
152,160,11058,5,2,0:0:0:0:
8,240,11257,6,0,B|20:172|20:172|152:160,1,202.500007724762,0|2,0:0|0:0,0:0:0:0:
152,160,11654,6,0,B|20:172|20:172|8:240,1,202.500007724762,0|2,0:0|0:0,0:0:0:0:
264,328,12250,6,0,B|356:336|356:336|264:328|264:328|440:344,1,360,0|2,0:0|0:0,0:0:0:0:
208,172,12846,5,2,0:0:0:0:
256,192,12846,12,0,13840,0:0:0:0:
262,243,13244,5,0,0:0:0:0:
297,160,13641,5,0,0:0:0:0:
408,240,14038,6,0,B|404:332|404:332|492:336|492:336|496:244|496:244|408:240,1,360,2|2,0:0|0:0,0:0:0:0:
408,240,14436,6,0,B|496:244|496:244|492:336|492:336|404:332|404:332|408:240|408:240|404:332|404:332|492:336,1,540
404,332,15032,6,0,B|408:240|408:240|496:244|496:244|492:336|492:336|404:332|404:332|408:240|408:240|496:244|496:244|492:336|492:336|404:332|404:332|492:336|492:336|496:244|496:244|408:240|408:240|404:332,1,1080,2|0,0:0|0:0,0:0:0:0:
264,360,16025,6,0,B|252:344|252:344|268:328|268:328|248:312|248:312|272:296|272:296|244:280|244:280|276:264|276:264|240:248|240:248|280:232|280:232|236:216|236:216|284:200|284:200|232:184|232:184|288:168|288:168|228:152|228:152|292:136|292:136|224:120|224:120|296:104|296:104|220:88|220:88|300:72|300:72|216:56|216:56|304:40|304:40|288:32|288:32,1,1080,2|0,0:0|0:0,0:0:0:0:
164,320,16820,5,2,0:0:0:0:
144,168,17018,5,2,0:0:0:0:
368,260,17217,5,0,0:0:0:0:
164,320,17416,5,2,0:0:0:0:
388,108,17614,5,0,0:0:0:0:
164,320,17813,5,2,0:0:0:0:
256,192,18012,5,0,0:0:0:0:
144,168,18211,5,0,0:0:0:0:
368,260,18409,5,2,0:0:0:0:
368,260,18806,6,0,L|374:215,1,45
164,320,19004,6,0,L|157:275,1,45
236,165,19203,6,0,P|60:61|144:248,1,540,2|2,0:0|0:0,0:0:0:0:
144,248,19600,6,0,P|32:104|236:168,1,540,8|2,0:0|0:0,0:0:0:0:
368,260,19997,5,2,0:0:0:0:
54,352,20196,5,2,0:0:0:0:
164,320,20394,6,0,B|368:260|368:260|44:356,1,540.000020599366,8|2,0:0|0:0,0:0:0:0:
302,406,20792,6,0,P|320:98|496:352,1,810.000030899049,2|2,0:0|0:0,0:0:0:0:
302,406,21189,6,0,P|319:97|495:351,2,810.000030899049,8|2|0,0:0|0:0|0:0,0:0:0:0:
496,351,21388,1,0,0:0:0:0:
75,92,21785,5,10,0:0:0:0:
476,32,21984,6,0,L|76:92,1,405.000015449524,10|0,0:0|0:0,0:0:0:0:
187,376,22381,6,0,B|152:364|152:364|140:232|140:232|316:120|316:120|332:280,1,540,2|2,0:0|0:0,0:0:0:0:
332,280,22778,6,0,B|316:120|316:120|140:232|140:232|152:364|152:364|208:384,1,540,8|2,0:0|0:0,0:0:0:0:
496,356,23175,5,2,0:0:0:0:
476,32,23374,5,2,0:0:0:0:
496,356,23572,6,0,B|476:32|476:32|496:356,1,540.000020599366,8|2,0:0|0:0,0:0:0:0:
44,112,23970,6,0,P|320:56|120:328,1,810.000030899049,2|2,0:0|0:0,0:0:0:0:
128,332,24367,6,0,P|360:116|44:112,2,810.000030899049,8|2|0,0:0|0:0|0:0,0:0:0:0:
44,110,24566,1,0,0:0:0:0:
448,156,24963,5,10,0:0:0:0:
44,112,25162,6,0,B|448:156|448:156|44:112|44:112,1,810.000030899049,10|0,0:0|0:0,0:0:0:0:
443,325,25559,6,0,B|424:52|424:52|356:0,1,359.099985205536,2|2,0:0|0:0,0:0:0:0:
155,383,25956,6,0,B|87:331|87:331|67:51,1,360,8|2,0:0|0:0,0:0:0:0:
356,0,26353,6,0,B|424:52|424:52|444:332,2,360,2|2|10,0:0|0:0|0:0,0:0:0:0:
68,58,27148,6,0,B|88:332|88:332|156:384,2,360,2|0|2,0:0|0:0|0:0,0:0:0:0:
156,384,27545,6,0,B|88:332|88:332|69:59,2,360,10|0|2,0:0|0:0|0:0,0:0:0:0:
356,0,28141,6,0,B|424:52|424:52|443:325,1,360,8|8,0:0|0:0,0:0:0:0:
280,208,28736,6,0,P|240:208|284:172,1,135,2|2,0:0|0:0,0:0:0:0:
308,284,29134,6,0,P|152:176|368:186,1,540.000020599366,8|2,0:0|0:0,0:0:0:0:
152,348,29531,5,2,0:0:0:0:
152,348,29730,5,2,0:0:0:0:
360,36,29928,5,8,0:0:0:0:
152,348,30127,5,2,0:0:0:0:
360,36,30326,6,0,B|492:64|492:64|360:36|360:36|492:64|492:64|360:36|360:36|492:64|492:64|360:36|360:36|360:36,1,810.000030899049,2|2,0:0|0:0,0:0:0:0:
236,96,30723,6,0,B|500:152|500:152|236:96,1,540.000020599366,8|2,0:0|0:0,0:0:0:0:
280,188,31319,6,0,B|16:244|16:244|280:188,1,540.000020599366,10|10,0:0|0:0,0:0:0:0:
256,304,31915,5,2,0:0:0:0:
322,102,32114,5,8,0:0:0:0:
191,102,32312,5,8,0:0:0:0:
150,227,32511,5,8,0:0:0:0:
150,227,32610,5,8,0:0:0:0:
363,227,32809,5,8,0:0:0:0:
363,227,32908,5,8,0:0:0:0:
155,332,33107,6,0,L|104:340,1,45,8|8,0:0|0:0,0:0:0:0:
155,332,33305,6,0,L|56:348,1,90,8|0,0:0|0:0,0:0:0:0:
256,20,33504,5,2,0:0:0:0:
420,139,33703,5,8,0:0:0:0:
155,332,33901,5,8,0:0:0:0:
419,139,34101,5,8,0:0:0:0:
419,139,34200,5,10,0:0:0:0:
93,139,34398,5,8,0:0:0:0:
93,139,34497,5,10,0:0:0:0:
358,332,34696,5,8,0:0:0:0:
358,332,34796,5,8,0:0:0:0:
80,240,35094,5,2,0:0:0:0:
432,144,35292,5,8,0:0:0:0:
432,144,35392,5,8,0:0:0:0:
432,144,35491,5,8,0:0:0:0:
80,240,35690,5,8,0:0:0:0:
432,144,35888,5,2,0:0:0:0:
80,240,36086,5,10,0:0:0:0:
80,240,36186,5,8,0:0:0:0:
80,240,36285,5,10,0:0:0:0:
80,240,36484,5,10,0:0:0:0:
432,144,36683,5,0,0:0:0:0:
108,88,36882,5,2,0:0:0:0:
432,144,37081,5,0,0:0:0:0:
80,240,37279,5,0,0:0:0:0:
404,296,37478,5,6,0:0:0:0:
