osu file format v14

[General]
AudioFilename: audio.mp3
AudioLeadIn: 0
PreviewTime: 73801
Countdown: 0
SampleSet: Normal
StackLeniency: 0.7
Mode: 0
LetterboxInBreaks: 0
StoryFireInFront: 0
WidescreenStoryboard: 1

[Editor]
Bookmarks: 59555,81489,85672,86916
DistanceSpacing: 0.7
BeatDivisor: 4
GridSize: 4
TimelineZoom: 3.4

[Metadata]
Title:Ghost House
TitleUnicode:Ghost House
Artist:Schtiffles
ArtistUnicode:Schtiffles
Creator:TESKAB
Version:Not so scary
Source:
Tags:ghost house
BeatmapID:1764013
BeatmapSetID:843059

[Difficulty]
HPDrainRate:4
CircleSize:3.5
OverallDifficulty:4
ApproachRate:7
SliderMultiplier:1.3
SliderTickRate:1

[Events]
//Background and Video events
0,0,"23.png",0,0
//Break Periods
2,37482,43637
//Storyboard Layer 0 (Background)
//Storyboard Layer 1 (Fail)
//Storyboard Layer 2 (Pass)
//Storyboard Layer 3 (Foreground)
//Storyboard Sound Samples

[TimingPoints]
7433.59858971517,452.249943468757,4,1,0,100,1,0
29706,-66.6666666666667,4,1,0,100,0,0
44348,-57.1428571428571,4,1,0,100,0,1
47909,-40,4,1,0,100,0,1
51697,-66.6666666666667,4,1,0,100,0,1
55937,-40,4,1,0,100,0,1
59555,-40,4,1,0,100,0,0
66678,-66.6666666666667,4,1,0,80,0,0
74366,-100,4,1,0,100,0,0
77576,-40,4,1,0,100,0,0
85446,-40,4,1,0,50,0,0
86916,-40,4,1,0,100,0,1
88951,-40,4,1,0,100,0,0

[Colours]
Combo1 : 255,192,0
Combo2 : 0,202,0
Combo3 : 18,124,255
Combo4 : 242,24,57

[HitObjects]
200,56,367,6,0,P|244:81|288:84,1,65
218,114,706,2,0,P|174:139|130:142,1,65
204,164,1045,2,0,P|248:189|292:192,1,65
225,225,1384,2,0,P|181:250|137:253,1,65
210,278,1723,2,0,P|254:303|298:306,1,65
189,365,2176,1,4,0:0:0:0:
101,320,2402,6,0,P|57:295|13:292,1,65
84,265,2741,2,0,P|128:240|172:237,1,65
99,210,3080,2,0,P|55:185|11:182,1,65
83,155,3419,2,0,P|127:130|171:127,1,65
92,106,3759,2,0,P|48:81|4:78,1,65
164,28,4211,1,4,0:0:0:0:
261,38,4437,6,0,P|305:63|349:66,1,65
282,100,4776,2,0,P|238:125|194:128,1,65
267,152,5115,2,0,P|311:177|355:180,1,65
279,200,5455,2,0,P|235:225|191:228,1,65
117,333,6039,5,0,0:0:0:0:
109,244,6265,2,0,P|65:219|21:216,1,65
97,195,6604,2,0,P|141:170|185:167,1,65
125,128,6943,2,0,P|81:103|37:100,1,65
116,86,7282,2,0,P|160:61|204:58,1,65
235,108,7659,6,8,P|279:83|323:80,1,65
344,136,8111,2,8,P|369:92|372:48,1,65
424,152,8564,6,8,P|399:196|397:240,1,65
336,264,9016,2,8,P|292:289|248:293,1,65
216,252,9468,6,8,P|169:231|125:233,1,65
80,204,9920,2,8,P|50:162|42:119,1,65
80,80,10373,6,8,P|124:55|168:52,1,65
192,104,10825,2,8,P|217:60|220:16,1,65
368,152,11447,5,10,0:0:0:0:
232,184,11786,1,10,0:0:0:0:
304,40,12125,1,10,0:0:0:0:
304,40,12464,5,10,0:0:0:0:
432,96,12804,1,10,0:0:0:0:
364,204,13312,2,8,P|339:160|336:116,1,65
248,140,13765,2,8,P|223:184|220:228,1,65
132,192,14217,6,8,P|157:148|160:104,1,65
212,216,14670,2,8,P|237:260|240:304,1,65
332,336,15121,2,0,L|292:328,5,32.5
212,216,16026,5,2,0:0:0:0:
316,128,16365,1,2,0:0:0:0:
196,64,16704,1,2,0:0:0:0:
196,64,16930,1,2,0:0:0:0:
132,137,17156,6,8,P|88:112|44:109,1,65
69,206,17609,2,8,P|94:250|97:294,1,65
174,204,18061,2,8,P|199:248|202:292,1,65
263,186,18513,1,10,0:0:0:0:
259,332,18852,2,0,L|219:324,5,32.5
124,220,19757,5,2,0:0:0:0:
268,201,20096,1,2,0:0:0:0:
189,77,20435,1,2,0:0:0:0:
189,77,20661,1,2,0:0:0:0:
339,36,21001,6,4,P|364:80|367:124,1,65
311,174,21454,2,12,L|271:131,2,32.5
408,172,21906,2,4,L|453:125,2,65
340,250,22583,6,8,P|315:206|312:162,1,65
212,162,23036,2,8,P|237:206|240:250,1,65
201,316,23488,2,8,P|176:272|173:228,1,65
274,283,23941,2,8,P|287:325|328:349,1,65
367,258,24392,1,10,0:0:0:0:
289,188,24619,6,8,P|333:163|377:160,1,65
249,122,25072,2,8,P|205:147|164:159,1,65
199,48,25524,2,8,P|243:23|287:20,1,65
333,91,25975,2,8,P|335:47|324:-3,1,65
239,71,26428,6,8,P|195:96|151:99,1,65
250,177,26881,2,8,P|275:221|278:265,1,65
205,309,27333,2,8,P|180:353|177:397,1,65
281,356,27784,2,8,P|323:343|347:302,1,65
376,260,28237,5,6,0:0:0:0:
206,143,28613,1,6,0:0:0:0:
96,312,28990,1,6,0:0:0:0:
206,143,29443,1,6,0:0:0:0:
339,62,29819,6,6,P|360:68|388:80,5,48.750001859665
256,188,30837,1,6,0:0:0:0:
344,204,31063,1,6,0:0:0:0:
196,292,31515,2,6,P|180:267|165:230,3,48.750001859665
220,72,32759,5,10,0:0:0:0:
220,72,32985,2,10,B|174:88|157:96|142:119|145:172,2,97.50000371933
220,72,33551,6,4,P|240:68|276:64,5,48.750001859665
412,92,34569,1,2,0:0:0:0:
372,176,34795,1,2,0:0:0:0:
260,60,35247,2,4,P|220:95|200:163,2,97.50000371933
256,192,35925,12,4,37282,0:0:0:0:
80,96,44687,6,8,P|160:64|240:64,1,142.187501356006
205,119,45139,2,8,P|285:151|365:151,1,142.187501356006
364,99,45592,6,8,P|396:179|396:259,1,142.187501356006
340,220,46044,2,8,P|260:252|180:252,1,142.187501356006
131,224,46439,5,10,0:0:0:0:
131,224,46666,2,10,B|139:184|139:172|123:160,2,56.8750005424023
316,152,47457,6,10,B|340:30|179:212|314:-18|187:48|187:48,1,170.625001627207
100,72,48023,6,4,L|32:116,7,81.25
68,92,48927,6,4,L|116:160,10,81.25
92,124,50171,6,4,P|116:108|164:76,13,81.25
159,78,52206,6,8,P|239:46|312:44,1,146.250005578995
296,80,52658,2,8,P|376:112|448:116,1,146.250005578995
400,136,53110,6,8,P|432:216|424:288,1,146.250005578995
404,256,53563,2,8,P|324:288|252:288,1,146.250005578995
256,192,54015,12,4,55824,0:0:0:0:
120,132,56276,6,4,P|132:105|155:59,12,81.25
120,132,57746,6,4,P|147:125|204:112,13,81.25
198,113,59555,6,8,B|278:93|290:97|298:113|294:137|294:145|302:145|350:137|350:133,1,162.5
408,44,60007,2,8,B|344:-20|332:-20|324:-20|324:-12|308:40|284:24,1,162.5
172,40,60459,2,8,B|128:0|108:-12|76:-12|76:-12|8:0|-4:20,1,162.5
88,96,60912,2,8,B|88:184|60:196|36:204|36:204|36:236|48:248|68:252,1,162.5
156,252,61364,6,8,B|136:172|140:160|156:152|180:156|188:156|188:148|180:100|176:100,1,162.5
292,84,61816,2,12,B|228:20|216:20|208:20|208:28,2,81.25
264,196,62268,2,8,B|308:156|352:180|424:144|424:144,1,162.5
464,252,62721,2,8,B|379:276|313:236|353:316,1,162.5
284,356,63173,6,4,B|252:332|232:360|208:340,2,81.25
224,260,63625,2,4,B|192:284|172:256|148:276,2,81.25
132,192,64077,6,4,B|164:168|184:196|208:176,2,81.25
180,88,64529,2,4,B|148:112|128:84|104:104,2,81.25
280,144,64982,6,6,B|312:168|332:140|356:160,2,81.25
332,244,65434,2,6,B|300:220|280:248|256:228,2,81.25
436,200,65886,6,6,B|468:224|488:196|512:216,2,81.25
496,104,66338,2,6,B|475:69|446:87|432:59,2,81.25
416,100,66829,6,8,B|360:76|356:64|288:64,1,130.000004959107
248,56,67281,2,8,B|264:140|204:116|228:180,1,130.000004959107
204,216,67733,2,8,B|224:160|224:276|308:224,1,130.000004959107
352,216,68185,2,8,B|360:276|360:288|296:336,1,130.000004959107
328,380,68675,1,12,0:0:0:0:
256,192,69617,12,14,74140,0:0:0:0:
84,104,74253,6,8,P|128:84|176:80,1,97.50000371933
236,108,74705,1,10,0:0:0:0:
348,236,75158,6,8,P|304:256|264:260,1,65
224,260,75610,1,10,0:0:0:0:
136,184,75949,6,6,L|51:179,2,65
144,140,76627,6,6,B|192:120|208:120|208:120,2,65
144,140,77306,1,6,0:0:0:0:
144,140,77532,1,6,0:0:0:0:
296,64,77871,6,8,B|331:94|351:68|374:86,3,81.25
371,85,78323,2,8,B|354:120|324:105|313:133,3,81.25
311,136,78775,2,8,B|350:128|355:162|386:154,3,81.25
387,153,79228,2,8,B|365:186|336:167|321:194,3,81.25
320,194,79680,2,8,B|353:216|334:245|361:260,2,81.25
192,40,81602,6,8,B|258:4|323:-6|407:-1|470:15|528:47,1,325
448,136,82280,1,10,0:0:0:0:
512,232,82507,2,8,B|445:267|380:278|296:273|233:256|176:224,1,325
88,200,83185,1,10,0:0:0:0:
124,92,83411,6,8,B|116:84|112:80|108:76|104:72|100:68|96:64|93:61|89:57|85:53|81:49|77:45|73:41|69:37|65:33|62:30|146:34|158:46|166:58|182:114|170:86|134:82,1,162.5
124,92,83863,2,8,B|181:153|197:155|212:153|265:129|236:138|210:113,1,162.5
256,192,84316,12,4,85220,0:0:0:0:
148,312,85672,5,0,0:0:0:0:
148,230,85899,1,0,0:0:0:0:
218,271,86125,1,0,0:0:0:0:
219,192,86351,1,0,0:0:0:0:
219,110,86577,1,0,0:0:0:0:
289,151,86803,1,0,0:0:0:0:
386,208,87029,5,0,0:0:0:0:
386,289,87256,1,0,0:0:0:0:
316,249,87482,1,0,0:0:0:0:
217,304,87707,5,0,0:0:0:0:
144,265,87934,1,0,0:0:0:0:
213,224,88160,1,0,0:0:0:0:
186,113,88386,5,0,0:0:0:0:
252,64,88613,1,0,0:0:0:0:
260,145,88839,1,0,0:0:0:0:
