osu file format v14

[General]
AudioFilename: audio.mp3
AudioLeadIn: 0
PreviewTime: 205790
Countdown: 0
SampleSet: Soft
StackLeniency: 0.3
Mode: 0
LetterboxInBreaks: 0
EpilepsyWarning: 1
WidescreenStoryboard: 1

[Editor]
Bookmarks: 13791,28274,41929,55170,68412,81653,94894,108136,126343,139584,154481,167722,180963,194205,207446,219032,225653,232274
DistanceSpacing: 1.5
BeatDivisor: 6
GridSize: 16
TimelineZoom: 1.5

[Metadata]
Title:NEWDAYS
TitleUnicode:NEWDAYS
Artist:Schroeder-Headz
ArtistUnicode:Schroeder-Headz
Creator:SLM
Version:pizzahut
Source:
Tags:piano singletap
BeatmapID:1300394
BeatmapSetID:616625

[Difficulty]
HPDrainRate:5
CircleSize:4.2
OverallDifficulty:8
ApproachRate:9.2
SliderMultiplier:2.02
SliderTickRate:1

[Events]
//Background and Video events
0,0,"fml.jpg",0,0
//Break Periods
//Storyboard Layer 0 (Background)
//Storyboard Layer 1 (Fail)
//Storyboard Layer 2 (Pass)
//Storyboard Layer 3 (Foreground)
Sprite,Foreground,Centre,"sb\hit.png",320,240 M,0,28274,,528,181 S,0,28274,,0.8 C,0,28274,,249,239,123 P,0,28274,,A F,2,28274,29929,0.4,0
Sprite,Foreground,Centre,"sb\hit.png",320,240 M,0,28412,,531,184 S,0,28412,,0.8 C,0,28412,,249,239,123 P,0,28412,,A F,2,28412,30067,0.4,0
Sprite,Foreground,Centre,"sb\hit.png",320,240 M,0,28550,,463,255 S,0,28550,,0.8 C,0,28550,,249,239,123 P,0,28550,,A F,2,28550,30205,0.4,0
Sprite,Foreground,Centre,"sb\hit.png",320,240 M,0,30756,,206,293 S,0,30756,,0.8 C,0,30756,,190,134,247 P,0,30756,,A F,2,30756,32411,0.4,0
Sprite,Foreground,Centre,"sb\hit.png",320,240 M,0,30894,,298,319 S,0,30894,,0.8 C,0,30894,,190,134,247 P,0,30894,,A F,2,30894,32549,0.4,0
Sprite,Foreground,Centre,"sb\hit.png",320,240 M,0,31032,,301,322 S,0,31032,,0.8 C,0,31032,,190,134,247 P,0,31032,,A F,2,31032,32687,0.4,0
Sprite,Foreground,Centre,"sb\hit.png",320,240 M,0,31584,,298,319 S,0,31584,,0.8 C,0,31584,,249,239,123 P,0,31584,,A F,2,31584,33239,0.4,0
Sprite,Foreground,Centre,"sb\hit.png",320,240 M,0,31722,,301,322 S,0,31722,,0.8 C,0,31722,,249,239,123 P,0,31722,,A F,2,31722,33377,0.4,0
Sprite,Foreground,Centre,"sb\hit.png",320,240 M,0,31860,,396,351 S,0,31860,,0.8 C,0,31860,,249,239,123 P,0,31860,,A F,2,31860,33515,0.4,0
Sprite,Foreground,Centre,"sb\hit.png",320,240 M,0,32412,,396,351 S,0,32412,,0.8 C,0,32412,,190,134,247 P,0,32412,,A F,2,32412,34067,0.4,0
Sprite,Foreground,Centre,"sb\hit.png",320,240 M,0,32550,,298,319 S,0,32550,,0.8 C,0,32550,,190,134,247 P,0,32550,,A F,2,32550,34205,0.4,0
Sprite,Foreground,Centre,"sb\hit.png",320,240 M,0,32688,,301,322 S,0,32688,,0.8 C,0,32688,,190,134,247 P,0,32688,,A F,2,32688,34343,0.4,0
Sprite,Foreground,Centre,"sb\hit.png",320,240 M,0,33239,,298,319 S,0,33239,,0.8 C,0,33239,,249,239,123 P,0,33239,,A F,2,33239,34894,0.4,0
Sprite,Foreground,Centre,"sb\hit.png",320,240 M,0,33377,,301,322 S,0,33377,,0.8 C,0,33377,,249,239,123 P,0,33377,,A F,2,33377,35032,0.4,0
Sprite,Foreground,Centre,"sb\hit.png",320,240 M,0,33515,,274,227 S,0,33515,,0.8 C,0,33515,,249,239,123 P,0,33515,,A F,2,33515,35170,0.4,0
Sprite,Foreground,Centre,"sb\hit.png",320,240 M,0,34067,,274,227 S,0,34067,,0.8 C,0,34067,,190,134,247 P,0,34067,,A F,2,34067,35722,0.4,0
Sprite,Foreground,Centre,"sb\hit.png",320,240 M,0,34205,,203,295 S,0,34205,,0.8 C,0,34205,,190,134,247 P,0,34205,,A F,2,34205,35860,0.4,0
Sprite,Foreground,Centre,"sb\hit.png",320,240 M,0,34343,,206,298 S,0,34343,,0.8 C,0,34343,,190,134,247 P,0,34343,,A F,2,34343,35998,0.4,0
Sprite,Foreground,Centre,"sb\hit.png",320,240 M,0,34894,,271,224 S,0,34894,,0.8 C,0,34894,,249,239,123 P,0,34894,,A F,2,34894,36549,0.4,0
Sprite,Foreground,Centre,"sb\hit.png",320,240 M,0,35032,,274,227 S,0,35032,,0.8 C,0,35032,,249,239,123 P,0,35032,,A F,2,35032,36687,0.4,0
Sprite,Foreground,Centre,"sb\hit.png",320,240 M,0,35170,,179,204 S,0,35170,,0.8 C,0,35170,,249,239,123 P,0,35170,,A F,2,35170,36825,0.4,0
Sprite,Foreground,Centre,"sb\hit.png",320,240 M,0,37377,,178,160 S,0,37377,,0.8 C,0,37377,,190,134,247 P,0,37377,,A F,2,37377,39032,0.4,0
Sprite,Foreground,Centre,"sb\hit.png",320,240 M,0,37515,,266,122 S,0,37515,,0.8 C,0,37515,,190,134,247 P,0,37515,,A F,2,37515,39170,0.4,0
Sprite,Foreground,Centre,"sb\hit.png",320,240 M,0,37653,,269,125 S,0,37653,,0.8 C,0,37653,,190,134,247 P,0,37653,,A F,2,37653,39308,0.4,0
Sprite,Foreground,Centre,"sb\hit.png",320,240 M,0,38205,,266,122 S,0,38205,,0.8 C,0,38205,,249,239,123 P,0,38205,,A F,2,38205,39860,0.4,0
Sprite,Foreground,Centre,"sb\hit.png",320,240 M,0,38343,,269,125 S,0,38343,,0.8 C,0,38343,,249,239,123 P,0,38343,,A F,2,38343,39998,0.4,0
Sprite,Foreground,Centre,"sb\hit.png",320,240 M,0,38481,,360,90 S,0,38481,,0.8 C,0,38481,,249,239,123 P,0,38481,,A F,2,38481,40136,0.4,0
Sprite,Foreground,Centre,"sb\hit.png",320,240 M,0,39032,,360,90 S,0,39032,,0.8 C,0,39032,,190,134,247 P,0,39032,,A F,2,39032,40687,0.4,0
Sprite,Foreground,Centre,"sb\hit.png",320,240 M,0,39170,,266,122 S,0,39170,,0.8 C,0,39170,,190,134,247 P,0,39170,,A F,2,39170,40825,0.4,0
Sprite,Foreground,Centre,"sb\hit.png",320,240 M,0,39308,,269,125 S,0,39308,,0.8 C,0,39308,,190,134,247 P,0,39308,,A F,2,39308,40963,0.4,0
Sprite,Foreground,Centre,"sb\hit.png",320,240 M,0,39860,,269,125 S,0,39860,,0.8 C,0,39860,,249,239,123 P,0,39860,,A F,2,39860,41515,0.4,0
Sprite,Foreground,Centre,"sb\hit.png",320,240 M,0,39998,,342,184 S,0,39998,,0.8 C,0,39998,,249,239,123 P,0,39998,,A F,2,39998,41653,0.4,0
Sprite,Foreground,Centre,"sb\hit.png",320,240 M,0,40136,,345,187 S,0,40136,,0.8 C,0,40136,,249,239,123 P,0,40136,,A F,2,40136,41791,0.4,0
Sprite,Foreground,Centre,"sb\hit.png",320,240 M,0,40687,,342,184 S,0,40687,,0.8 C,0,40687,,190,134,247 P,0,40687,,A F,2,40687,42342,0.4,0
Sprite,Foreground,Centre,"sb\hit.png",320,240 M,0,40825,,345,187 S,0,40825,,0.8 C,0,40825,,190,134,247 P,0,40825,,A F,2,40825,42480,0.4,0
Sprite,Foreground,Centre,"sb\hit.png",320,240 M,0,40963,,421,249 S,0,40963,,0.8 C,0,40963,,190,134,247 P,0,40963,,A F,2,40963,42618,0.4,0
Sprite,Foreground,Centre,"sb\hit.png",320,240 M,0,41515,,418,246 S,0,41515,,0.8 C,0,41515,,249,239,123 P,0,41515,,A F,2,41515,43170,0.4,0
Sprite,Foreground,Centre,"sb\hit.png",320,240 M,0,41653,,421,249 S,0,41653,,0.8 C,0,41653,,249,239,123 P,0,41653,,A F,2,41653,43308,0.4,0
Sprite,Foreground,Centre,"sb\hit.png",320,240 M,0,41791,,345,187 S,0,41791,,0.8 C,0,41791,,249,239,123 P,0,41791,,A F,2,41791,43446,0.4,0
Sprite,Foreground,Centre,"sb\hit.png",320,240 M,0,42343,,485,323 S,0,42343,,0.8 C,0,42343,,138,172,236 P,0,42343,,A F,2,42343,43998,0.4,0
Sprite,Foreground,Centre,"sb\hit.png",320,240 M,0,42481,,421,249 S,0,42481,,0.8 C,0,42481,,138,172,236 P,0,42481,,A F,2,42481,44136,0.4,0
Sprite,Foreground,Centre,"sb\hit.png",320,240 M,0,42619,,330,285 S,0,42619,,0.8 C,0,42619,,138,172,236 P,0,42619,,A F,2,42619,44274,0.4,0
Sprite,Foreground,Centre,"sb\hit.png",320,240 M,0,43170,,192,411 S,0,43170,,0.8 C,0,43170,,190,134,247 P,0,43170,,A F,2,43170,44825,0.4,0
Sprite,Foreground,Centre,"sb\hit.png",320,240 M,0,43308,,208,313 S,0,43308,,0.8 C,0,43308,,190,134,247 P,0,43308,,A F,2,43308,44963,0.4,0
Sprite,Foreground,Centre,"sb\hit.png",320,240 M,0,43446,,141,239 S,0,43446,,0.8 C,0,43446,,190,134,247 P,0,43446,,A F,2,43446,45101,0.4,0
Sprite,Foreground,Centre,"sb\hit.png",320,240 M,0,43998,,425,160 S,0,43998,,0.8 C,0,43998,,240,117,120 P,0,43998,,A F,2,43998,45653,0.4,0
Sprite,Foreground,Centre,"sb\hit.png",320,240 M,0,44136,,501,96 S,0,44136,,0.8 C,0,44136,,240,117,120 P,0,44136,,A F,2,44136,45791,0.4,0
Sprite,Foreground,Centre,"sb\hit.png",320,240 M,0,44274,,557,176 S,0,44274,,0.8 C,0,44274,,240,117,120 P,0,44274,,A F,2,44274,45929,0.4,0
Sprite,Foreground,Centre,"sb\hit.png",320,240 M,0,44825,,222,234 S,0,44825,,0.8 C,0,44825,,249,239,123 P,0,44825,,A F,2,44825,46480,0.4,0
Sprite,Foreground,Centre,"sb\hit.png",320,240 M,0,44963,,130,200 S,0,44963,,0.8 C,0,44963,,249,239,123 P,0,44963,,A F,2,44963,46618,0.4,0
Sprite,Foreground,Centre,"sb\hit.png",320,240 M,0,45101,,207,136 S,0,45101,,0.8 C,0,45101,,249,239,123 P,0,45101,,A F,2,45101,46756,0.4,0
Sprite,Foreground,Centre,"sb\hit.png",320,240 M,0,45653,,222,234 S,0,45653,,0.8 C,0,45653,,138,172,236 P,0,45653,,A F,2,45653,47308,0.4,0
Sprite,Foreground,Centre,"sb\hit.png",320,240 M,0,45791,,315,203 S,0,45791,,0.8 C,0,45791,,138,172,236 P,0,45791,,A F,2,45791,47446,0.4,0
Sprite,Foreground,Centre,"sb\hit.png",320,240 M,0,45929,,379,279 S,0,45929,,0.8 C,0,45929,,138,172,236 P,0,45929,,A F,2,45929,47584,0.4,0
Sprite,Foreground,Centre,"sb\hit.png",320,240 M,0,46481,,468,238 S,0,46481,,0.8 C,0,46481,,190,134,247 P,0,46481,,A F,2,46481,48136,0.4,0
Sprite,Foreground,Centre,"sb\hit.png",320,240 M,0,46619,,379,279 S,0,46619,,0.8 C,0,46619,,190,134,247 P,0,46619,,A F,2,46619,48274,0.4,0
Sprite,Foreground,Centre,"sb\hit.png",320,240 M,0,46757,,338,189 S,0,46757,,0.8 C,0,46757,,190,134,247 P,0,46757,,A F,2,46757,48412,0.4,0
Sprite,Foreground,Centre,"sb\hit.png",320,240 M,0,47308,,339,362 S,0,47308,,0.8 C,0,47308,,240,117,120 P,0,47308,,A F,2,47308,48963,0.4,0
Sprite,Foreground,Centre,"sb\hit.png",320,240 M,0,47446,,262,300 S,0,47446,,0.8 C,0,47446,,240,117,120 P,0,47446,,A F,2,47446,49101,0.4,0
Sprite,Foreground,Centre,"sb\hit.png",320,240 M,0,47584,,205,382 S,0,47584,,0.8 C,0,47584,,240,117,120 P,0,47584,,A F,2,47584,49239,0.4,0
Sprite,Foreground,Centre,"sb\hit.png",320,240 M,0,48136,,170,175 S,0,48136,,0.8 C,0,48136,,249,239,123 P,0,48136,,A F,2,48136,49791,0.4,0
Sprite,Foreground,Centre,"sb\hit.png",320,240 M,0,48274,,173,178 S,0,48274,,0.8 C,0,48274,,249,239,123 P,0,48274,,A F,2,48274,49929,0.4,0
Sprite,Foreground,Centre,"sb\hit.png",320,240 M,0,48412,,102,108 S,0,48412,,0.8 C,0,48412,,249,239,123 P,0,48412,,A F,2,48412,50067,0.4,0
Sprite,Foreground,Centre,"sb\hit.png",320,240 M,0,48963,,471,217 S,0,48963,,0.8 C,0,48963,,138,172,236 P,0,48963,,A F,2,48963,50618,0.4,0
Sprite,Foreground,Centre,"sb\hit.png",320,240 M,0,49101,,485,119 S,0,49101,,0.8 C,0,49101,,138,172,236 P,0,49101,,A F,2,49101,50756,0.4,0
Sprite,Foreground,Centre,"sb\hit.png",320,240 M,0,49239,,395,155 S,0,49239,,0.8 C,0,49239,,138,172,236 P,0,49239,,A F,2,49239,50894,0.4,0
Sprite,Foreground,Centre,"sb\hit.png",320,240 M,0,49791,,330,314 S,0,49791,,0.8 C,0,49791,,190,134,247 P,0,49791,,A F,2,49791,51446,0.4,0
Sprite,Foreground,Centre,"sb\hit.png",320,240 M,0,49929,,316,216 S,0,49929,,0.8 C,0,49929,,190,134,247 P,0,49929,,A F,2,49929,51584,0.4,0
Sprite,Foreground,Centre,"sb\hit.png",320,240 M,0,50067,,227,172 S,0,50067,,0.8 C,0,50067,,190,134,247 P,0,50067,,A F,2,50067,51722,0.4,0
Sprite,Foreground,Centre,"sb\hit.png",320,240 M,0,50618,,330,314 S,0,50618,,0.8 C,0,50618,,240,117,120 P,0,50618,,A F,2,50618,52273,0.4,0
Sprite,Foreground,Centre,"sb\hit.png",320,240 M,0,50756,,425,338 S,0,50756,,0.8 C,0,50756,,240,117,120 P,0,50756,,A F,2,50756,52411,0.4,0
Sprite,Foreground,Centre,"sb\hit.png",320,240 M,0,50894,,506,282 S,0,50894,,0.8 C,0,50894,,240,117,120 P,0,50894,,A F,2,50894,52549,0.4,0
Sprite,Foreground,Centre,"sb\hit.png",320,240 M,0,51446,,242,202 S,0,51446,,0.8 C,0,51446,,249,239,123 P,0,51446,,A F,2,51446,53101,0.4,0
Sprite,Foreground,Centre,"sb\hit.png",320,240 M,0,51584,,151,163 S,0,51584,,0.8 C,0,51584,,249,239,123 P,0,51584,,A F,2,51584,53239,0.4,0
Sprite,Foreground,Centre,"sb\hit.png",320,240 M,0,51722,,229,104 S,0,51722,,0.8 C,0,51722,,249,239,123 P,0,51722,,A F,2,51722,53377,0.4,0
Sprite,Foreground,Centre,"sb\hit.png",320,240 M,0,52274,,68,333 S,0,52274,,0.8 C,0,52274,,138,172,236 P,0,52274,,A F,2,52274,53929,0.4,0
Sprite,Foreground,Centre,"sb\hit.png",320,240 M,0,52412,,126,411 S,0,52412,,0.8 C,0,52412,,138,172,236 P,0,52412,,A F,2,52412,54067,0.4,0
Sprite,Foreground,Centre,"sb\hit.png",320,240 M,0,52550,,224,403 S,0,52550,,0.8 C,0,52550,,138,172,236 P,0,52550,,A F,2,52550,54205,0.4,0
Sprite,Foreground,Centre,"sb\hit.png",320,240 M,0,53101,,147,149 S,0,53101,,0.8 C,0,53101,,190,134,247 P,0,53101,,A F,2,53101,54756,0.4,0
Sprite,Foreground,Centre,"sb\hit.png",320,240 M,0,53239,,99,235 S,0,53239,,0.8 C,0,53239,,190,134,247 P,0,53239,,A F,2,53239,54894,0.4,0
Sprite,Foreground,Centre,"sb\hit.png",320,240 M,0,53377,,168,304 S,0,53377,,0.8 C,0,53377,,190,134,247 P,0,53377,,A F,2,53377,55032,0.4,0
Sprite,Foreground,Centre,"sb\hit.png",320,240 M,0,53929,,465,377 S,0,53929,,0.8 C,0,53929,,249,239,123 P,0,53929,,A F,2,53929,55584,0.4,0
Sprite,Foreground,Centre,"sb\hit.png",320,240 M,0,54067,,490,282 S,0,54067,,0.8 C,0,54067,,249,239,123 P,0,54067,,A F,2,54067,55722,0.4,0
Sprite,Foreground,Centre,"sb\hit.png",320,240 M,0,54205,,515,187 S,0,54205,,0.8 C,0,54205,,249,239,123 P,0,54205,,A F,2,54205,55860,0.4,0
//Storyboard Sound Samples

[TimingPoints]
550,413.793103448276,4,2,2,40,1,0
550,-142.857142857143,4,2,2,40,0,0
13515,-100,4,2,2,50,0,0
55170,-100,4,2,1,60,0,1
68412,-100,4,2,2,60,0,0
79998,-100,4,2,2,50,0,0
81653,-125,4,2,2,50,0,0
93239,-100,4,2,2,50,0,0
94894,-100,4,2,1,50,0,1
108136,-125,4,2,2,50,0,0
111446,408.163265306122,4,2,2,50,1,0
111446,-125,4,2,2,50,0,0
113078,413.793103448276,4,2,2,50,1,0
114707,413.793103448276,4,2,2,50,1,0
114707,-100,4,2,3,50,0,0
120136,413.793103448276,4,2,2,50,1,0
121377,413.793103448276,4,2,2,50,1,0
121377,-166.666666666667,4,2,2,50,0,0
126342,-142.857142857143,4,2,2,40,0,0
127170,-142.857142857143,4,2,1,40,0,0
127308,-142.857142857143,4,2,2,40,0,0
133790,-142.857142857143,4,2,1,40,0,0
133928,-142.857142857143,4,2,2,40,0,0
139308,-100,4,2,2,50,0,0
180963,-100,4,2,1,60,0,1
192549,-90.9090909090909,4,2,1,60,0,1
193377,-90.9090909090909,4,2,1,60,0,0
194204,-90.9090909090909,4,2,1,60,0,1
206618,-90.9090909090909,4,2,1,60,0,0
207445,-83.3333333333333,4,2,1,70,0,1
219032,-125,4,2,2,40,0,0
225652,-111.111111111111,4,2,2,40,0,0
227308,-100,4,2,2,40,0,0
242204,-111.111111111111,4,2,2,40,0,0
243032,-125,4,2,2,40,0,0
243859,-166.666666666667,4,2,2,40,0,0
245960,379.312306787794,4,2,2,40,1,0

[Colours]
Combo1 : 190,134,247
Combo2 : 240,117,120
Combo3 : 249,239,123
Combo4 : 138,172,236

[HitObjects]
371,116,550,6,0,P|394:112|417:107,2,47.1333318949382,2|0|0,0:0|0:0|0:0,0:0:0:0:
340,159,963,2,0,P|295:145|248:149,1,94.2666637898764,4|0,0:0|0:0,0:0:0:0:
111,265,1377,6,0,P|88:273|66:280,2,47.1333318949382,0|0|0,0:0|0:0|0:0,0:0:0:0:
137,220,1791,2,0,P|170:254|212:274,1,94.2666637898764,4|0,0:0|0:0,0:0:0:0:
376,278,2205,6,0,P|384:301|391:323,2,47.1333318949382,0|0|0,0:0|0:0|0:0,0:0:0:0:
333,251,2618,2,0,P|328:204|339:158,1,94.2666637898764,4|0,0:0|0:0,0:0:0:0:
211,72,3032,6,0,P|188:76|165:81,2,47.1333318949382,0|0|0,0:0|0:0|0:0,0:0:0:0:
242,29,3446,2,0,P|287:43|334:39,1,94.2666637898764,4|0,0:0|0:0,0:0:0:0:
462,126,3860,6,0,P|485:122|508:117,2,47.1333318949382,2|0|0,0:0|0:0|0:0,0:0:0:0:
431,169,4274,2,0,P|386:155|339:159,1,94.2666637898764,4|0,0:0|0:0,0:0:0:0:
243,237,4687,6,0,P|247:260|252:283,2,47.1333318949382,0|0|0,0:0|0:0|0:0,0:0:0:0:
200,206,5101,2,0,P|214:161|210:114,1,94.2666637898764,4|0,0:0|0:0,0:0:0:0:
87,57,5515,6,0,P|64:61|41:66,2,47.1333318949382,0|0|0,0:0|0:0|0:0,0:0:0:0:
118,14,5929,2,0,P|163:28|210:24,1,94.2666637898764,4|0,0:0|0:0,0:0:0:0:
318,93,6343,6,0,P|322:115|327:139,2,47.1333318949382,0|0|0,0:0|0:0|0:0,0:0:0:0:
354,54,6756,2,0,P|399:40|446:44,1,94.2666637898764,4|0,0:0|0:0,0:0:0:0:
413,177,7170,6,0,P|434:185|457:192,2,47.1333318949382,2|0|0,0:0|0:0|0:0,0:0:0:0:
365,206,7584,2,0,P|318:200|273:211,1,94.2666637898764,4|0,0:0|0:0,0:0:0:0:
355,325,7998,6,0,L|449:328,1,94.2666637898764,0|0,0:0|0:0,0:0:0:0:
306,343,8412,2,0,P|260:354|214:348,1,94.2666637898764,4|0,0:0|0:0,0:0:0:0:
96,295,8825,6,0,P|78:309|60:325,2,47.1333318949382,0|0|0,0:0|0:0|0:0,0:0:0:0:
107,244,9239,2,0,P|93:199|97:151,1,94.2666637898764,4|0,0:0|0:0,0:0:0:0:
206,79,9653,6,0,P|229:83|252:88,2,47.1333318949382,0|0|0,0:0|0:0|0:0,0:0:0:0:
176,36,10067,2,0,P|129:32|84:46,1,94.2666637898764,4|0,0:0|0:0,0:0:0:0:
48,161,10481,6,0,P|25:165|2:170,2,47.1333318949382,2|0|0,0:0|0:0|0:0,0:0:0:0:
92,187,10894,2,0,P|136:200|183:197,1,94.2666637898764,4|0,0:0|0:0,0:0:0:0:
303,160,11308,6,0,P|326:164|349:169,2,47.1333318949382
261,128,11722,2,0,P|257:81|271:36,1,94.2666637898764,4|0,0:0|0:0,0:0:0:0:
378,96,12136,1,0,0:0:0:0:
256,192,12239,12,4,13377,0:0:0:0:
424,257,13515,5,0,0:0:0:0:
410,159,13653,1,0,0:0:0:0:
500,197,13791,6,0,B|484:243|484:243|485:269|485:269|466:325,1,134.666666666667,2|0,0:0|0:0,0:0:0:0:
373,355,14205,1,4,0:0:0:0:
281,321,14343,1,0,0:0:0:0:
188,355,14481,1,0,0:0:0:0:
10,267,14618,6,0,B|-2:206|-2:206|17:132,1,134.666666666667,2|0,0:0|0:0,0:0:0:0:
95,308,15032,1,4,0:0:0:0:
87,210,15170,1,0,0:0:0:0:
13,364,15308,1,0,0:0:0:0:
188,355,15446,6,0,L|321:336,1,134.666666666667,2|0,0:0|0:0,0:0:0:0:
419,322,15860,1,4,0:0:0:0:
443,138,16136,1,0,0:0:0:0:
366,199,16274,6,0,L|232:179,1,134.666666666667,2|0,0:0|0:0,0:0:0:0:
121,279,16687,2,0,L|190:268,2,67.3333333333333,4|4|0,0:0|0:0|0:0,0:0:0:0:
366,199,17101,6,0,L|232:179,1,134.666666666667,2|0,0:0|0:0,0:0:0:0:
147,132,17515,1,4,0:0:0:0:
144,31,17653,1,0,0:0:0:0:
144,31,17791,1,0,0:0:0:0:
232,179,17929,6,0,L|299:189,1,67.3333333333333,2|0,0:0|0:0,0:0:0:0:
382,135,18205,1,4,0:0:0:0:
382,135,18343,1,4,0:0:0:0:
450,272,18481,2,0,L|450:204,1,67.3333333333333
389,349,18756,6,0,L|255:330,1,134.666666666667,2|0,0:0|0:0,0:0:0:0:
210,233,19170,2,0,L|277:223,2,67.3333333333333,4|0|0,0:0|0:0|0:0,0:0:0:0:
389,311,19584,6,0,L|255:330,1,134.666666666667,2|0,0:0|0:0,0:0:0:0:
158,344,19998,1,4,0:0:0:0:
77,168,20136,1,0,0:0:0:0:
36,258,20274,1,0,0:0:0:0:
135,248,20412,6,0,B|215:237|215:237|262:212,1,134.666666666667,2|0,0:0|0:0,0:0:0:0:
342,154,20825,1,4,0:0:0:0:
430,196,20963,1,0,0:0:0:0:
355,259,21101,1,0,0:0:0:0:
417,99,21239,6,0,P|327:117|265:101,1,134.666666666667,2|0,0:0|0:0,0:0:0:0:
190,94,21653,1,4,0:0:0:0:
153,0,21791,1,0,0:0:0:0:
126,170,21929,1,0,0:0:0:0:
286,109,22067,6,0,L|427:100,1,134.666666666667,2|0,0:0|0:0,0:0:0:0:
512,115,22481,1,4,0:0:0:0:
369,17,22618,1,0,0:0:0:0:
356,186,22756,1,0,0:0:0:0:
139,87,22894,6,0,L|207:83,1,67.3333333333333,2|0,0:0|0:0,0:0:0:0:
90,172,23170,2,0,L|23:176,1,67.3333333333333,4|4,0:0|0:0,0:0:0:0:
181,208,23446,1,4,0:0:0:0:
181,208,23584,1,0,0:0:0:0:
286,124,23722,6,0,P|350:96|426:126,1,134.666666666667,2|0,0:0|0:0,0:0:0:0:
486,228,24136,2,0,B|439:230|388:213|388:213|372:226|360:234,1,134.666666666667,4|0,0:0|0:0,0:0:0:0:
181,292,24550,6,0,P|116:302|61:266,1,134.666666666667,2|0,0:0|0:0,0:0:0:0:
140,127,24963,2,0,B|194:127|194:127|240:133,2,101,4|0|2,0:0|0:0|0:0,0:0:0:0:
256,192,25481,12,0,27860,0:0:0:0:
467,128,28274,5,0,0:0:0:0:
467,128,28412,1,0,0:0:0:0:
399,199,28550,1,0,0:0:0:0:
259,130,28687,6,0,P|292:126|325:132,2,67.3333333333333,2|0|0,0:0|0:0|0:0,0:0:0:0:
142,237,29101,6,0,P|108:240|75:234,2,67.3333333333333,2|0|0,0:0|0:0|0:0,0:0:0:0:
292,222,29515,6,0,P|322:235|348:257,2,67.3333333333333,2|0|0,0:0|0:0|0:0,0:0:0:0:
109,145,29929,6,0,P|78:131|52:109,2,67.3333333333333,2|0|0,0:0|0:0|0:0,0:0:0:0:
259,130,30343,6,0,P|292:126|325:132,2,67.3333333333333,2|0|0,0:0|0:0|0:0,0:0:0:0:
142,237,30756,5,2,0:0:0:0:
237,266,30894,1,0,0:0:0:0:
237,266,31032,1,0,0:0:0:0:
258,130,31170,6,0,P|292:126|325:132,2,67.3333333333333,2|0|0,0:0|0:0|0:0,0:0:0:0:
237,266,31584,5,2,0:0:0:0:
237,266,31722,1,0,0:0:0:0:
332,295,31860,1,0,0:0:0:0:
418,195,31998,6,0,P|451:190|484:196,2,67.3333333333333,2|0|0,0:0|0:0|0:0,0:0:0:0:
332,295,32412,5,2,0:0:0:0:
237,266,32550,1,0,0:0:0:0:
237,266,32688,1,0,0:0:0:0:
151,366,32825,6,0,P|117:370|84:364,2,67.3333333333333,2|0|0,0:0|0:0|0:0,0:0:0:0:
237,266,33239,5,2,0:0:0:0:
237,266,33377,1,0,0:0:0:0:
210,171,33515,1,0,0:0:0:0:
340,240,33653,6,0,P|374:243|407:237,2,67.3333333333333,2|0|0,0:0|0:0|0:0,0:0:0:0:
210,171,34067,5,2,0:0:0:0:
142,242,34205,1,0,0:0:0:0:
142,242,34343,1,0,0:0:0:0:
340,240,34481,6,0,P|374:243|407:237,2,67.3333333333333,2|0|0,0:0|0:0|0:0,0:0:0:0:
210,171,34894,5,2,0:0:0:0:
210,171,35032,1,0,0:0:0:0:
115,148,35170,1,0,0:0:0:0:
264,89,35308,6,0,P|297:85|330:91,2,67.3333333333333,2|0|0,0:0|0:0|0:0,0:0:0:0:
147,196,35722,6,0,P|113:199|80:193,2,67.3333333333333,2|0|0,0:0|0:0|0:0,0:0:0:0:
297,181,36136,6,0,P|327:194|353:216,2,67.3333333333333,2|0|0,0:0|0:0|0:0,0:0:0:0:
114,104,36550,6,0,P|83:90|57:68,2,67.3333333333333,2|0|0,0:0|0:0|0:0,0:0:0:0:
221,221,36963,6,0,P|225:254|219:287,2,67.3333333333333,2|0|0,0:0|0:0|0:0,0:0:0:0:
114,104,37377,5,2,0:0:0:0:
205,69,37515,1,0,0:0:0:0:
205,69,37653,1,0,0:0:0:0:
221,220,37791,6,0,P|225:254|219:287,2,67.3333333333333,2|0|0,0:0|0:0|0:0,0:0:0:0:
205,69,38205,5,2,0:0:0:0:
205,69,38343,1,0,0:0:0:0:
296,34,38481,1,0,0:0:0:0:
380,138,38618,6,0,P|414:142|447:136,2,67.3333333333333,2|0|0,0:0|0:0|0:0,0:0:0:0:
296,34,39032,5,2,0:0:0:0:
205,69,39170,1,0,0:0:0:0:
205,69,39308,1,0,0:0:0:0:
151,181,39446,6,0,P|147:215|153:248,2,67.3333333333333,2|0|0,0:0|0:0|0:0,0:0:0:0:
205,69,39860,5,2,0:0:0:0:
281,131,39998,1,0,0:0:0:0:
281,131,40136,1,0,0:0:0:0:
396,56,40274,6,0,P|429:50|462:54,2,67.3333333333333,2|0|0,0:0|0:0|0:0,0:0:0:0:
281,131,40687,5,2,0:0:0:0:
281,131,40825,1,0,0:0:0:0:
357,193,40963,1,0,0:0:0:0:
262,283,41101,6,0,P|257:316|263:349,2,67.3333333333333,2|0|0,0:0|0:0|0:0,0:0:0:0:
357,193,41515,5,2,0:0:0:0:
357,193,41653,1,0,0:0:0:0:
281,131,41791,1,0,0:0:0:0:
426,51,41929,6,0,P|459:105|444:191,1,134.666666666667,2|0,0:0|0:0,0:0:0:0:
421,267,42343,1,8,0:0:0:0:
357,193,42481,1,0,0:0:0:0:
266,229,42618,1,0,0:0:0:0:
347,339,42756,6,0,P|289:310|205:332,1,134.666666666667,2|0,0:0|0:0,0:0:0:0:
128,355,43170,1,8,0:0:0:0:
144,257,43308,1,0,0:0:0:0:
77,183,43446,1,0,0:0:0:0:
146,64,43584,6,0,P|209:43|273:60,1,134.666666666667,2|0,0:0|0:0,0:0:0:0:
361,104,43998,1,8,0:0:0:0:
437,40,44136,1,0,0:0:0:0:
493,120,44274,1,0,0:0:0:0:
361,104,44412,6,0,P|295:92|250:146,1,134.666666666667,2|0,0:0|0:0,0:0:0:0:
158,178,44825,1,8,0:0:0:0:
66,144,44963,1,0,0:0:0:0:
143,80,45101,1,0,0:0:0:0:
223,259,45239,6,0,P|160:279|97:260,1,134.666666666667,2|0,0:0|0:0,0:0:0:0:
158,178,45653,1,8,0:0:0:0:
251,147,45791,1,0,0:0:0:0:
315,223,45929,1,0,0:0:0:0:
485,255,46067,6,0,P|506:192|496:124,1,134.666666666667,2|0,0:0|0:0,0:0:0:0:
404,182,46481,1,8,0:0:0:0:
315,223,46618,1,0,0:0:0:0:
274,133,46756,1,0,0:0:0:0:
404,182,46894,6,0,P|401:248|384:321,1,134.666666666667,2|0,0:0|0:0,0:0:0:0:
275,306,47308,1,8,0:0:0:0:
198,244,47446,1,0,0:0:0:0:
141,326,47584,1,0,0:0:0:0:
12,292,47722,6,0,P|-8:224|29:174,1,134.666666666667,2|0,0:0|0:0,0:0:0:0:
109,122,48136,1,8,0:0:0:0:
109,122,48274,1,0,0:0:0:0:
38,52,48411,1,0,0:0:0:0:
204,96,48550,6,0,P|277:79|345:111,1,134.666666666667,2|0,0:0|0:0,0:0:0:0:
407,161,48963,1,8,0:0:0:0:
421,63,49101,1,0,0:0:0:0:
331,99,49239,1,0,0:0:0:0:
471,210,49377,6,0,P|405:184|340:196,1,134.666666666667,2|0,0:0|0:0,0:0:0:0:
266,258,49791,1,8,0:0:0:0:
252,160,49929,1,0,0:0:0:0:
163,116,50067,1,0,0:0:0:0:
53,240,50205,6,0,P|100:278|174:288,1,134.666666666667,2|0,0:0|0:0,0:0:0:0:
266,258,50618,1,8,0:0:0:0:
361,282,50756,1,0,0:0:0:0:
442,226,50894,1,0,0:0:0:0:
395,116,51032,6,0,P|328:99|275:140,1,134.666666666667,2|0,0:0|0:0,0:0:0:0:
178,146,51446,1,8,0:0:0:0:
87,107,51584,1,0,0:0:0:0:
165,48,51722,1,0,0:0:0:0:
196,213,51860,6,0,P|134:190|69:203,1,134.666666666667,2|0,0:0|0:0,0:0:0:0:
4,277,52274,1,8,0:0:0:0:
62,355,52412,1,0,0:0:0:0:
160,347,52550,1,0,0:0:0:0:
196,213,52687,6,0,P|197:146|181:81,1,134.666666666667,2|0,0:0|0:0,0:0:0:0:
83,93,53101,1,8,0:0:0:0:
35,179,53239,1,0,0:0:0:0:
104,248,53377,1,0,0:0:0:0:
196,213,53515,6,0,B|221:220|241:228|241:228|276:219|346:223,1,134.666666666667,2|0,0:0|0:0,0:0:0:0:
401,321,53929,5,8,0:0:0:0:
426,226,54067,1,0,0:0:0:0:
451,131,54205,1,0,0:0:0:0:
352,127,54343,6,0,B|305:110|264:134|218:123,1,134.666666666667,2|0,0:0|0:0,0:0:0:0:
105,221,54756,6,0,P|103:298|113:359,1,134.666666666667,2|0,0:0|0:0,0:0:0:0:
61,102,55170,5,2,0:0:0:0:
61,102,55308,2,0,P|93:86|140:76,1,67.3333333333333,0|0,0:0|0:0,0:0:0:0:
279,56,55584,1,8,0:0:0:0:
279,56,55722,2,0,P|294:88|305:135,1,67.3333333333333,0|0,0:0|0:0,0:0:0:0:
190,219,55998,6,0,P|222:234|269:245,1,67.3333333333333,2|0,0:0|0:0,0:0:0:0:
384,149,56274,2,0,P|387:113|381:65,1,67.3333333333333,0|8,0:0|0:0,0:0:0:0:
450,282,56550,2,0,P|446:317|452:365,1,67.3333333333333,0|0,0:0|0:0,0:0:0:0:
471,181,56825,5,2,0:0:0:0:
471,181,56963,2,0,P|474:145|468:97,1,67.3333333333333,0|0,0:0|0:0,0:0:0:0:
302,118,57239,1,8,0:0:0:0:
302,118,57377,2,0,P|266:115|218:121,1,67.3333333333333,0|0,0:0|0:0,0:0:0:0:
121,217,57653,6,0,P|157:220|205:214,1,67.3333333333333,2|0,0:0|0:0,0:0:0:0:
322,270,57929,1,0,0:0:0:0:
322,270,58067,1,8,0:0:0:0:
224,349,58205,2,0,P|188:346|140:352,1,67.3333333333333,0|0,0:0|0:0,0:0:0:0:
34,252,58481,5,2,0:0:0:0:
33,251,58619,2,0,P|31:218|33:184,1,67.3333333333333,0|0,0:0|0:0,0:0:0:0:
108,71,58894,1,8,0:0:0:0:
108,70,59032,2,0,P|140:61|173:58,1,67.3333333333333,0|0,0:0|0:0,0:0:0:0:
237,190,59308,6,0,P|271:199|320:201,1,67.3333333333333,2|0,0:0|0:0,0:0:0:0:
435,104,59584,2,0,P|401:101|367:104,1,67.3333333333333,0|8,0:0|0:0,0:0:0:0:
419,273,59860,2,0,P|421:239|419:205,1,67.3333333333333,0|0,0:0|0:0,0:0:0:0:
295,40,60136,6,0,P|280:70|271:102,1,67.3333333333333,2|0,0:0|0:0,0:0:0:0:
295,40,60412,1,0,0:0:0:0:
302,202,60550,6,0,P|269:198|237:190,1,67.3333333333333,8|0,0:0|0:0,0:0:0:0:
302,202,60825,1,0,0:0:0:0:
220,348,60963,6,0,P|234:317|243:285,2,67.3333333333333,2|0|0,0:0|0:0|0:0,0:0:0:0:
77,253,61377,5,8,0:0:0:0:
131,173,61515,2,0,P|163:160|196:156,1,67.3333333333333
355,256,61791,5,2,0:0:0:0:
355,256,61929,2,0,P|351:222|343:189,1,67.3333333333333,0|0,0:0|0:0,0:0:0:0:
251,78,62205,1,8,0:0:0:0:
251,78,62343,2,0,P|210:63|166:63,1,67.3333333333333,0|0,0:0|0:0,0:0:0:0:
20,174,62618,6,0,P|53:182|87:180,1,67.3333333333333,2|0,0:0|0:0,0:0:0:0:
275,174,62894,2,0,P|242:166|208:168,1,67.3333333333333,0|8,0:0|0:0,0:0:0:0:
385,221,63170,2,0,P|418:229|452:227,1,67.3333333333333,0|0,0:0|0:0,0:0:0:0:
399,77,63446,5,2,0:0:0:0:
399,77,63584,2,0,P|366:87|338:105,1,67.3333333333333,0|0,0:0|0:0,0:0:0:0:
233,220,63860,2,0,P|200:227|166:225,1,67.3333333333333,8|0,0:0|0:0,0:0:0:0:
70,204,64136,1,0,0:0:0:0:
229,80,64274,6,0,P|261:90|289:108,1,67.3333333333333,2|0,0:0|0:0,0:0:0:0:
144,288,64550,2,0,P|151:255|166:225,1,67.3333333333333,0|8,0:0|0:0,0:0:0:0:
317,227,64825,2,0,P|349:234|383:232,1,67.3333333333333,0|0,0:0|0:0,0:0:0:0:
464,111,65101,5,2,0:0:0:0:
352,131,65239,2,0,P|319:123|289:108,1,67.3333333333333,0|0,0:0|0:0,0:0:0:0:
441,89,65515,1,8,0:0:0:0:
491,206,65653,2,0,P|492:239|485:272,1,67.3333333333333,0|0,0:0|0:0,0:0:0:0:
420,353,65929,5,2,0:0:0:0:
330,298,66067,2,0,P|296:296|263:303,1,67.3333333333333,0|0,0:0|0:0,0:0:0:0:
397,375,66343,1,8,0:0:0:0:
392,240,66481,2,0,P|381:207|363:179,1,67.3333333333333,0|0,0:0|0:0,0:0:0:0:
290,88,66756,6,0,P|257:95|223:93,1,67.3333333333333,6|0,0:0|0:0,0:0:0:0:
78,163,67032,2,0,L|145:154,1,67.3333333333333,0|8,0:0|0:0,0:0:0:0:
233,198,67308,1,0,0:0:0:0:
179,280,67446,1,0,0:0:0:0:
84,254,67584,6,0,L|17:263,1,67.3333333333333,2|0,0:0|0:0,0:0:0:0:
84,254,67860,1,0,0:0:0:0:
199,294,67998,1,8,0:0:0:0:
199,294,68136,2,0,L|265:284,1,67.3333333333333,0|0,0:0|0:0,0:0:0:0:
380,325,68412,6,0,L|525:304,1,134.666666666667,2|0,0:0|0:0,0:0:0:0:
401,227,68825,1,8,0:0:0:0:
401,227,68963,2,0,L|385:137,1,67.3333333333333,0|0,0:0|0:0,0:0:0:0:
487,121,69239,6,0,L|353:101,1,134.666666666667,2|0,0:0|0:0,0:0:0:0:
244,174,69653,1,8,0:0:0:0:
244,174,69791,2,0,L|232:240,1,67.3333333333333,0|0,0:0|0:0,0:0:0:0:
74,144,70067,6,0,L|286:123,1,202,2|8,0:0|0:0,0:0:0:0:
372,114,70618,1,0,0:0:0:0:
372,114,70756,1,0,0:0:0:0:
290,38,70894,6,0,L|219:44,1,67.3333333333333,2|0,0:0|0:0,0:0:0:0:
157,136,71170,2,0,L|150:206,1,67.3333333333333,0|8,0:0|0:0,0:0:0:0:
137,301,71446,1,4,0:0:0:0:
59,240,71584,1,0,0:0:0:0:
228,264,71722,6,0,B|267:237|267:237|276:126,1,134.666666666667,2|0,0:0|0:0,0:0:0:0:
328,67,72136,1,8,0:0:0:0:
328,67,72274,2,0,L|394:54,1,67.3333333333333,0|0,0:0|0:0,0:0:0:0:
501,151,72550,6,0,L|366:151,1,134.666666666667,2|0,0:0|0:0,0:0:0:0:
228,264,72963,6,0,B|267:237|267:237|274:150,1,134.666666666667,8|0,0:0|0:0,0:0:0:0:
370,242,73377,6,0,L|358:382,1,134.666666666667,2|0,0:0|0:0,0:0:0:0:
246,346,73791,1,8,0:0:0:0:
246,346,73929,2,0,L|159:333,1,67.3333333333333,0|0,0:0|0:0,0:0:0:0:
92,287,74205,6,0,L|25:296,2,67.3333333333333,2|0|0,0:0|0:0|0:0,0:0:0:0:
186,222,74618,1,8,0:0:0:0:
186,222,74756,2,0,L|176:155,1,67.3333333333333,0|0,0:0|0:0,0:0:0:0:
0,78,75032,6,0,L|132:59,1,134.666666666667,2|0,0:0|0:0,0:0:0:0:
122,223,75445,1,8,0:0:0:0:
122,223,75584,2,0,L|110:153,1,67.3333333333333,0|0,0:0|0:0,0:0:0:0:
199,126,75860,6,0,L|337:105,1,134.666666666667,2|0,0:0|0:0,0:0:0:0:
414,26,76273,1,8,0:0:0:0:
414,26,76412,2,0,L|426:92,1,67.3333333333333,0|0,0:0|0:0,0:0:0:0:
312,208,76687,6,0,L|512:179,1,202,2|8,0:0|0:0,0:0:0:0:
493,275,77238,1,0,0:0:0:0:
493,275,77376,1,0,0:0:0:0:
462,368,77515,6,0,L|391:362,1,67.3333333333333,2|0,0:0|0:0,0:0:0:0:
313,306,77791,2,0,L|320:236,1,67.3333333333333,0|8,0:0|0:0,0:0:0:0:
329,140,78066,1,4,0:0:0:0:
240,182,78204,1,0,0:0:0:0:
133,129,78342,6,0,B|160:90|160:90|247:83,1,134.666666666667,2|0,0:0|0:0,0:0:0:0:
329,140,78756,1,8,0:0:0:0:
329,140,78894,2,0,L|395:153,1,67.3333333333333,0|0,0:0|0:0,0:0:0:0:
269,240,79170,6,0,L|203:253,2,67.3333333333333,2|0|0,0:0|0:0|0:0,0:0:0:0:
106,275,79584,1,8,0:0:0:0:
106,275,79722,2,0,L|83:190,1,67.3333333333333
65,113,79998,6,0,B|105:102|135:122|135:122|161:108|161:108|178:115|192:114,1,134.666666666667
276,166,80412,1,0,0:0:0:0:
364,122,80550,1,0,0:0:0:0:
363,24,80687,1,0,0:0:0:0:
451,77,80825,6,0,P|491:131|495:197,1,134.666666666667
428,270,81239,2,0,P|418:303|415:353,2,67.3333333333333,0|0|0,0:0|0:0|0:0,0:0:0:0:
377,183,81653,6,0,B|374:102|271:107|271:107|238:156|165:153,1,269.333333333333,2|0,0:0|0:0,0:0:0:0:
103,233,82481,6,0,P|74:111|185:55,1,269.333333333333,2|0,0:0|0:0,0:0:0:0:
273,110,83308,6,0,B|306:141|316:206|316:206|390:171|390:171|407:231|441:223,1,269.333333333333,2|0,0:0|0:0,0:0:0:0:
460,321,84136,6,0,B|406:306|334:316|334:316|254:327|220:251,1,269.333333333333,2|0,0:0|0:0,0:0:0:0:
188,156,84963,6,0,B|101:196|127:288|127:288|61:276|28:322,1,269.333333333333,2|0,0:0|0:0,0:0:0:0:
108,381,85791,6,0,B|183:386|214:334|214:334|244:348|244:348|295:324|355:341,1,269.333333333333,2|0,0:0|0:0,0:0:0:0:
453,351,86618,6,0,B|446:292|457:237|457:237|474:161|425:106|348:113,1,269.333333333333,2|0,0:0|0:0,0:0:0:0:
362,210,87446,6,0,P|268:212|218:193,1,107.733333333333,2|0,0:0|0:0,0:0:0:0:
177,145,87860,2,0,P|141:143|88:154,2,53.8666666666667,4|0|0,0:0|0:0|0:0,0:0:0:0:
265,77,88274,6,0,P|329:44|422:68,1,161.6,2|4,0:0|0:0,0:0:0:0:
506,98,88825,2,0,L|493:181,1,53.8666666666667
421,216,89101,6,0,B|342:198|342:198|249:210,1,161.6,2|4,0:0|0:0,0:0:0:0:
228,303,89653,2,0,L|150:292,1,53.8666666666667,0|0,0:0|0:0,0:0:0:0:
101,226,89929,6,0,P|152:145|227:128,1,161.6,2|4,0:0|0:0,0:0:0:0:
304,89,90481,2,0,L|312:154,1,53.8666666666667,0|0,0:0|0:0,0:0:0:0:
245,217,90756,6,0,L|429:279,1,161.6,2|4,0:0|0:0,0:0:0:0:
473,211,91308,2,0,L|469:126,1,53.8666666666667,0|0,0:0|0:0,0:0:0:0:
435,66,91584,6,0,P|372:71|308:154,1,161.6,2|4,0:0|0:0,0:0:0:0:
321,229,92136,2,0,L|374:219,1,53.8666666666667,0|0,0:0|0:0,0:0:0:0:
327,329,92412,6,0,P|252:301|172:293,1,161.6,2|4,0:0|0:0,0:0:0:0:
73,301,92963,2,0,L|80:354,1,53.8666666666667,0|0,0:0|0:0,0:0:0:0:
105,206,93239,6,0,B|107:180|111:159|111:159|97:126|88:56,1,134.666666666667,2|0,0:0|0:0,0:0:0:0:
174,17,93653,5,8,0:0:0:0:
201,111,93791,1,0,0:0:0:0:
228,205,93929,1,0,0:0:0:0:
290,129,94067,5,2,0:0:0:0:
290,129,94205,2,0,L|374:129,1,67.3333333333333,0|0,0:0|0:0,0:0:0:0:
448,53,94481,6,0,P|453:120|450:187,1,134.666666666667,2|0,0:0|0:0,0:0:0:0:
376,292,94894,5,2,0:0:0:0:
376,292,95032,2,0,P|342:288|310:279,1,67.3333333333333,0|0,0:0|0:0,0:0:0:0:
156,289,95308,1,8,0:0:0:0:
156,289,95446,2,0,P|175:261|199:238,1,67.3333333333333,0|0,0:0|0:0,0:0:0:0:
331,161,95722,6,0,P|329:127|320:94,1,67.3333333333333,2|0,0:0|0:0,0:0:0:0:
176,62,95998,2,0,P|177:95|186:128,1,67.3333333333333,0|8,0:0|0:0,0:0:0:0:
87,219,96274,2,0,P|53:215|20:217,1,67.3333333333333,0|0,0:0|0:0,0:0:0:0:
20,95,96550,5,2,0:0:0:0:
20,95,96687,2,0,P|52:103|86:105,1,67.3333333333333,0|0,0:0|0:0,0:0:0:0:
193,222,96963,1,8,0:0:0:0:
193,222,97101,2,0,P|189:255|180:287,1,67.3333333333333,0|0,0:0|0:0,0:0:0:0:
325,230,97377,6,0,P|358:227|391:231,1,67.3333333333333,2|0,0:0|0:0,0:0:0:0:
512,177,97653,1,0,0:0:0:0:
512,177,97791,1,8,0:0:0:0:
452,72,97929,2,0,P|418:69|385:73,1,67.3333333333333,0|0,0:0|0:0,0:0:0:0:
267,87,98205,5,2,0:0:0:0:
267,87,98343,2,0,P|266:53|272:20,1,67.3333333333333,0|0,0:0|0:0,0:0:0:0:
92,67,98618,1,8,0:0:0:0:
92,67,98756,2,0,P|125:64|157:55,1,67.3333333333333,0|0,0:0|0:0,0:0:0:0:
255,175,99032,6,0,P|221:166|172:164,1,67.3333333333333,2|0,0:0|0:0,0:0:0:0:
57,261,99308,2,0,P|91:264|125:261,1,67.3333333333333,0|8,0:0|0:0,0:0:0:0:
84,94,99584,2,0,P|82:128|84:162,1,67.3333333333333,0|0,0:0|0:0,0:0:0:0:
197,325,99860,6,0,P|212:295|221:263,1,67.3333333333333,2|0,0:0|0:0,0:0:0:0:
197,325,100136,1,0,0:0:0:0:
190,163,100274,6,0,P|223:167|255:175,1,67.3333333333333,8|0,0:0|0:0,0:0:0:0:
190,163,100549,1,0,0:0:0:0:
272,17,100687,6,0,P|258:48|249:80,1,67.3333333333333,2|0,0:0|0:0,0:0:0:0:
272,17,100963,1,0,0:0:0:0:
347,115,101101,5,8,0:0:0:0:
376,205,101239,2,0,P|378:238|375:272,1,67.3333333333333,0|0,0:0|0:0,0:0:0:0:
206,189,101515,5,2,0:0:0:0:
206,189,101653,2,0,P|240:186|274:189,1,67.3333333333333,0|0,0:0|0:0,0:0:0:0:
405,81,101929,1,8,0:0:0:0:
405,81,102067,2,0,P|374:95|346:115,1,67.3333333333333,0|0,0:0|0:0,0:0:0:0:
492,210,102343,6,0,P|459:202|425:204,1,67.3333333333333,2|0,0:0|0:0,0:0:0:0:
237,210,102618,2,0,P|270:218|304:216,1,67.3333333333333,0|8,0:0|0:0,0:0:0:0:
127,163,102894,2,0,P|94:155|60:157,1,67.3333333333333,0|0,0:0|0:0,0:0:0:0:
113,307,103170,5,2,0:0:0:0:
113,307,103308,2,0,P|146:297|174:279,1,67.3333333333333,0|0,0:0|0:0,0:0:0:0:
279,164,103584,2,0,P|312:157|346:159,1,67.3333333333333,8|0,0:0|0:0,0:0:0:0:
442,180,103860,1,0,0:0:0:0:
283,304,103998,6,0,P|251:294|223:276,1,67.3333333333333,2|0,0:0|0:0,0:0:0:0:
368,96,104274,2,0,P|361:129|346:159,1,67.3333333333333,0|8,0:0|0:0,0:0:0:0:
195,157,104549,2,0,P|163:150|129:152,1,67.3333333333333,0|0,0:0|0:0,0:0:0:0:
48,273,104825,5,2,0:0:0:0:
160,253,104963,2,0,P|193:261|223:276,1,67.3333333333333,0|0,0:0|0:0,0:0:0:0:
71,295,105239,1,8,0:0:0:0:
21,178,105377,2,0,P|20:145|27:112,1,67.3333333333333,0|0,0:0|0:0,0:0:0:0:
92,31,105653,5,2,0:0:0:0:
182,86,105791,2,0,P|216:88|249:81,1,67.3333333333333,0|0,0:0|0:0,0:0:0:0:
115,9,106067,1,8,0:0:0:0:
120,144,106205,2,0,P|131:177|149:205,1,67.3333333333333,0|0,0:0|0:0,0:0:0:0:
222,296,106480,6,0,P|255:289|289:291,1,67.3333333333333,6|0,0:0|0:0,0:0:0:0:
434,221,106756,2,0,L|367:230,1,67.3333333333333,0|8,0:0|0:0,0:0:0:0:
279,186,107032,1,0,0:0:0:0:
333,104,107170,1,0,0:0:0:0:
428,130,107308,6,0,L|495:121,1,67.3333333333333,2|0,0:0|0:0,0:0:0:0:
428,130,107584,1,0,0:0:0:0:
313,90,107722,1,8,0:0:0:0:
313,90,107860,2,0,L|247:100,1,67.3333333333333,0|0,0:0|0:0,0:0:0:0:
166,39,108136,6,0,B|105:50|105:50|65:72,1,107.733333333333,4|0,2:1|0:0,0:0:0:0:
13,142,108550,1,0,0:0:0:0:
30,225,108687,1,0,0:0:0:0:
47,308,108825,1,0,0:0:0:0:
130,286,108963,6,0,B|155:296|155:296|196:291|234:281,1,107.733333333333,0|0,0:0|0:0,0:0:0:0:
309,237,109377,1,0,0:0:0:0:
394,245,109515,1,0,0:0:0:0:
479,253,109653,1,0,0:0:0:0:
470,167,109791,6,0,B|465:123|475:91|475:91|461:30,1,107.733333333333,0|0,0:0|0:0,0:0:0:0:
388,25,110205,1,0,0:0:0:0:
377,111,110343,1,0,0:0:0:0:
365,197,110481,1,0,0:0:0:0:
434,246,110618,6,0,P|374:248|323:286,1,107.733333333333,0|0,0:0|0:0,0:0:0:0:
262,320,111032,1,0,0:0:0:0:
197,262,111170,1,0,0:0:0:0:
121,303,111308,1,0,0:0:0:0:
45,344,111446,6,0,B|39:298|39:298|43:231,1,107.733333333333,4|0,2:1|0:0,0:0:0:0:
4,157,111854,1,0,0:0:0:0:
41,79,111990,1,0,0:0:0:0:
78,1,112126,1,0,0:0:0:0:
144,55,112262,6,0,B|173:44|173:44|272:48,1,107.733333333333,0|0,0:0|0:0,0:0:0:0:
332,70,112670,2,0,L|385:64,2,53.8666666666667,0|0|0,0:0|0:0|0:0,0:0:0:0:
461,103,113078,5,0,0:0:0:0:
256,192,113181,12,0,114319,0:0:0:0:
213,64,114707,6,0,P|175:65|132:75,1,67.3333333333333,2|0,0:0|0:0,0:0:0:0:
34,150,114982,2,0,P|70:162|113:167,1,67.3333333333333
175,229,115258,1,0,0:0:0:0:
245,160,115396,1,0,0:0:0:0:
336,274,115534,6,0,P|336:241|330:208,1,67.3333333333333,8|0,0:0|0:0,0:0:0:0:
397,101,115810,2,0,P|431:95|464:95,1,67.3333333333333,0|0,0:0|0:0,0:0:0:0:
287,71,116086,1,0,0:0:0:0:
245,160,116224,1,0,0:0:0:0:
98,127,116362,6,0,P|128:112|162:107,1,67.3333333333333,2|0,0:0|0:0,0:0:0:0:
245,160,116638,1,0,0:0:0:0:
245,160,116775,1,0,0:0:0:0:
385,199,116913,2,0,P|355:214|322:220,1,67.3333333333333,0|0,0:0|0:0,0:0:0:0:
204,320,117189,6,0,P|210:287|225:257,1,67.3333333333333,8|0,0:0|0:0,0:0:0:0:
322,220,117465,1,0,0:0:0:0:
322,220,117603,1,0,0:0:0:0:
276,60,117741,2,0,P|291:90|297:124,1,67.3333333333333,0|0,0:0|0:0,0:0:0:0:
193,168,118017,6,0,P|159:173|126:173,1,67.3333333333333,2|0,0:0|0:0,0:0:0:0:
49,274,118293,2,0,P|83:269|116:269,1,67.3333333333333,0|0,0:0|0:0,0:0:0:0:
204,320,118569,1,0,0:0:0:0:
286,266,118707,1,0,0:0:0:0:
370,314,118844,6,0,P|404:319|437:319,1,67.3333333333333,8|0,0:0|0:0,0:0:0:0:
461,166,119120,2,0,P|439:192|423:221,1,67.3333333333333,0|0,0:0|0:0,0:0:0:0:
269,182,119396,2,0,P|303:187|336:187,1,67.3333333333333,0|0,0:0|0:0,0:0:0:0:
193,130,119672,1,6,0:0:0:0:
256,192,119775,12,0,121377,0:0:0:0:
137,180,121790,6,0,L|16:168,2,121.19999630127,0|0|0,0:0|0:0|0:0,0:0:0:0:
256,192,123032,5,0,0:0:0:0:
256,192,123135,12,0,125514,0:0:0:0:
141,116,126342,6,0,P|118:112|95:107,2,47.1333318949382,2|0|0,0:0|0:0|0:0,0:0:0:0:
172,159,126756,2,0,P|217:145|264:149,1,94.2666637898764,4|0,0:0|0:0,0:0:0:0:
401,265,127169,6,0,P|424:273|446:280,2,47.1333318949382,4|0|0,0:0|0:0|0:0,0:0:0:0:
375,220,127583,2,0,P|342:254|300:274,1,94.2666637898764,4|0,0:0|0:0,0:0:0:0:
136,278,127997,6,0,P|128:301|121:323,2,47.1333318949382
179,251,128411,2,0,P|184:204|173:158,1,94.2666637898764,4|0,0:0|0:0,0:0:0:0:
301,72,128825,6,0,P|324:76|347:81,2,47.1333318949382
270,29,129238,2,0,P|225:43|178:39,1,94.2666637898764,4|0,0:0|0:0,0:0:0:0:
50,126,129652,6,0,P|27:122|4:117,2,47.1333318949382,2|0|0,0:0|0:0|0:0,0:0:0:0:
81,169,130066,2,0,P|126:155|173:159,1,94.2666637898764,4|0,0:0|0:0,0:0:0:0:
269,237,130480,6,0,P|265:260|260:283,2,47.1333318949382,0|0|0,0:0|0:0|0:0,0:0:0:0:
312,206,130894,2,0,P|298:161|302:114,1,94.2666637898764,4|0,0:0|0:0,0:0:0:0:
425,57,131307,6,0,P|448:61|471:66,2,47.1333318949382,0|0|0,0:0|0:0|0:0,0:0:0:0:
394,14,131721,2,0,P|349:28|302:24,1,94.2666637898764,4|0,0:0|0:0,0:0:0:0:
194,93,132135,6,0,P|190:115|185:139,2,47.1333318949382,0|0|0,0:0|0:0|0:0,0:0:0:0:
158,54,132549,2,0,P|113:40|66:44,1,94.2666637898764,4|0,0:0|0:0,0:0:0:0:
99,177,132963,6,0,P|78:185|55:192,2,47.1333318949382,2|0|0,0:0|0:0|0:0,0:0:0:0:
147,206,133376,2,0,P|194:200|239:211,1,94.2666637898764,4|0,0:0|0:0,0:0:0:0:
157,325,133790,6,0,L|63:328,1,94.2666637898764,4|0,0:0|0:0,0:0:0:0:
206,343,134204,2,0,P|252:354|298:348,1,94.2666637898764,4|0,0:0|0:0,0:0:0:0:
416,295,134618,6,0,P|434:309|452:325,2,47.1333318949382,0|0|0,0:0|0:0|0:0,0:0:0:0:
405,244,135032,2,0,P|419:199|415:151,1,94.2666637898764,4|0,0:0|0:0,0:0:0:0:
323,44,135445,5,0,0:0:0:0:
238,184,135721,1,0,0:0:0:0:
106,93,135997,1,0,0:0:0:0:
44,273,136273,6,0,L|138:270,1,94.2666637898764,2|0,0:0|0:0,0:0:0:0:
172,310,136687,2,0,P|223:302|264:314,1,94.2666637898764,4|0,0:0|0:0,0:0:0:0:
408,299,137101,6,0,L|314:302,1,94.2666637898764,0|0,0:0|0:0,0:0:0:0:
420,248,137515,2,0,P|466:259|513:252,1,94.2666637898764,4|0,0:0|0:0,0:0:0:0:
470,145,137928,1,0,0:0:0:0:
256,192,138031,12,0,139169,0:0:0:0:
98,220,139308,5,0,0:0:0:0:
76,316,139445,1,0,0:0:0:0:
169,288,139583,6,0,P|236:287|296:317,1,134.666666666667,2|0,0:0|0:0,0:0:0:0:
382,366,139997,1,4,0:0:0:0:
454,299,140135,1,0,0:0:0:0:
413,210,140273,1,0,0:0:0:0:
502,97,140411,6,0,B|438:118|438:118|371:119,1,134.666666666667,2|0,0:0|0:0,0:0:0:0:
275,92,140825,1,4,0:0:0:0:
347,23,140963,1,0,0:0:0:0:
300,187,141101,1,0,0:0:0:0:
181,63,141239,6,0,P|114:53|49:66,1,134.666666666667,2|0,0:0|0:0,0:0:0:0:
3,154,141653,1,4,0:0:0:0:
117,292,141928,1,0,0:0:0:0:
166,206,142066,6,0,L|299:186,1,134.666666666667,2|0,0:0|0:0,0:0:0:0:
388,291,142480,2,0,L|322:282,2,67.3333333333333,4|4|0,0:0|0:0|0:0,0:0:0:0:
166,206,142894,6,0,L|299:186,1,134.666666666667,2|0,0:0|0:0,0:0:0:0:
397,172,143308,1,4,0:0:0:0:
436,82,143445,1,0,0:0:0:0:
436,82,143583,1,0,0:0:0:0:
473,232,143721,6,0,L|489:298,1,67.3333333333333,2|0,0:0|0:0,0:0:0:0:
322,307,143997,2,0,L|388:291,1,67.3333333333333,4|4,0:0|0:0,0:0:0:0:
254,234,144273,2,0,L|188:250,1,67.3333333333333,0|0,0:0|0:0,0:0:0:0:
80,333,144549,6,0,P|88:267|102:201,1,134.666666666667,2|0,0:0|0:0,0:0:0:0:
169,128,144963,2,0,P|202:130|235:137,2,67.3333333333333,4|4|0,0:0|0:0|0:0,0:0:0:0:
33,128,145377,6,0,P|14:192|1:258,1,134.666666666667,2|0,0:0|0:0,0:0:0:0:
8,356,145790,1,4,0:0:0:0:
95,318,145928,1,4,0:0:0:0:
87,221,146066,1,4,0:0:0:0:
185,287,146204,6,0,B|232:293|232:293|264:292|264:292|318:298,1,134.666666666667,2|0,0:0|0:0,0:0:0:0:
390,230,146618,1,4,0:0:0:0:
485,259,146756,1,0,0:0:0:0:
413,327,146894,1,0,0:0:0:0:
339,143,147032,6,0,P|280:111|216:124,1,134.666666666667,2|0,0:0|0:0,0:0:0:0:
128,169,147445,1,4,0:0:0:0:
131,69,147583,1,0,0:0:0:0:
40,214,147721,1,0,0:0:0:0:
211,221,147859,6,0,B|259:228|259:228|291:227|291:227|345:233,1,134.666666666667,2|0,0:0|0:0,0:0:0:0:
438,266,148273,1,4,0:0:0:0:
309,140,148411,1,0,0:0:0:0:
265,315,148549,1,0,0:0:0:0:
416,85,148687,6,0,P|418:119|417:153,1,67.3333333333333,2|0,0:0|0:0,0:0:0:0:
345,233,148963,1,4,0:0:0:0:
345,233,149101,1,4,0:0:0:0:
178,188,149239,2,0,P|212:188|246:190,1,67.3333333333333
69,87,149514,6,0,P|59:152|83:215,1,134.666666666667,2|0,0:0|0:0,0:0:0:0:
196,96,149928,2,0,P|262:85|321:115,1,134.666666666667,4|0,0:0|0:0,0:0:0:0:
390,335,150342,6,0,P|399:268|376:206,1,134.666666666667,2|0,0:0|0:0,0:0:0:0:
296,333,150756,2,0,B|249:334|249:334|195:330,2,101,4|0|2,0:0|0:0|0:0,0:0:0:0:
256,192,151273,12,0,152825,0:0:0:0:
45,127,154066,5,0,0:0:0:0:
45,127,154204,1,0,0:0:0:0:
113,198,154342,1,0,0:0:0:0:
253,129,154480,6,0,P|220:125|187:131,2,67.3333333333333,2|0|0,0:0|0:0|0:0,0:0:0:0:
370,236,154894,6,0,P|404:239|437:233,2,67.3333333333333,2|0|0,0:0|0:0|0:0,0:0:0:0:
220,221,155307,6,0,P|190:234|164:256,2,67.3333333333333,2|0|0,0:0|0:0|0:0,0:0:0:0:
403,144,155721,6,0,P|434:130|460:108,2,67.3333333333333,2|0|0,0:0|0:0|0:0,0:0:0:0:
253,129,156135,6,0,P|220:125|187:131,2,67.3333333333333,2|0|0,0:0|0:0|0:0,0:0:0:0:
370,236,156548,5,2,0:0:0:0:
275,265,156686,1,0,0:0:0:0:
275,265,156824,1,0,0:0:0:0:
254,129,156963,6,0,P|220:125|187:131,2,67.3333333333333,2|0|0,0:0|0:0|0:0,0:0:0:0:
275,265,157376,5,2,0:0:0:0:
275,265,157514,1,0,0:0:0:0:
180,294,157652,1,0,0:0:0:0:
94,194,157790,6,0,P|61:189|28:195,2,67.3333333333333,2|0|0,0:0|0:0|0:0,0:0:0:0:
180,294,158204,5,2,0:0:0:0:
275,265,158342,1,0,0:0:0:0:
275,265,158480,1,0,0:0:0:0:
361,365,158618,6,0,P|395:369|428:363,2,67.3333333333333,2|0|0,0:0|0:0|0:0,0:0:0:0:
275,265,159031,5,2,0:0:0:0:
275,265,159169,1,0,0:0:0:0:
302,170,159307,1,0,0:0:0:0:
172,239,159445,6,0,P|138:242|105:236,2,67.3333333333333,2|0|0,0:0|0:0|0:0,0:0:0:0:
302,170,159859,5,2,0:0:0:0:
370,241,159997,1,0,0:0:0:0:
370,241,160135,1,0,0:0:0:0:
172,239,160273,6,0,P|138:242|105:236,2,67.3333333333333,2|0|0,0:0|0:0|0:0,0:0:0:0:
302,170,160686,5,2,0:0:0:0:
302,170,160824,1,0,0:0:0:0:
397,147,160962,1,0,0:0:0:0:
248,88,161101,6,0,P|215:84|182:90,2,67.3333333333333,2|0|0,0:0|0:0|0:0,0:0:0:0:
365,195,161514,6,0,P|399:198|432:192,2,67.3333333333333,2|0|0,0:0|0:0|0:0,0:0:0:0:
215,180,161928,6,0,P|185:193|159:215,2,67.3333333333333,2|0|0,0:0|0:0|0:0,0:0:0:0:
398,103,162342,6,0,P|429:89|455:67,2,67.3333333333333,2|0|0,0:0|0:0|0:0,0:0:0:0:
291,220,162756,6,0,P|287:253|293:286,2,67.3333333333333,2|0|0,0:0|0:0|0:0,0:0:0:0:
398,103,163169,5,2,0:0:0:0:
307,68,163307,1,0,0:0:0:0:
307,68,163445,1,0,0:0:0:0:
291,219,163583,6,0,P|287:253|293:286,2,67.3333333333333,2|0|0,0:0|0:0|0:0,0:0:0:0:
307,68,163997,5,2,0:0:0:0:
307,68,164135,1,0,0:0:0:0:
216,33,164273,1,0,0:0:0:0:
132,137,164411,6,0,P|98:141|65:135,2,67.3333333333333,2|0|0,0:0|0:0|0:0,0:0:0:0:
216,33,164824,5,2,0:0:0:0:
307,68,164962,1,0,0:0:0:0:
307,68,165100,1,0,0:0:0:0:
361,180,165238,6,0,P|365:214|359:247,2,67.3333333333333,2|0|0,0:0|0:0|0:0,0:0:0:0:
307,68,165652,5,2,0:0:0:0:
231,130,165790,1,0,0:0:0:0:
231,130,165928,1,0,0:0:0:0:
116,55,166066,6,0,P|83:49|50:53,2,67.3333333333333,2|0|0,0:0|0:0|0:0,0:0:0:0:
231,130,166479,5,2,0:0:0:0:
231,130,166617,1,0,0:0:0:0:
155,192,166756,1,0,0:0:0:0:
250,282,166894,6,0,P|255:315|249:348,2,67.3333333333333,2|0|0,0:0|0:0|0:0,0:0:0:0:
155,192,167308,5,2,0:0:0:0:
155,192,167445,1,0,0:0:0:0:
70,143,167583,1,0,0:0:0:0:
44,294,167721,6,0,P|107:311|169:288,1,134.666666666667,2|0,0:0|0:0,0:0:0:0:
245,227,168135,1,8,0:0:0:0:
155,192,168273,1,0,0:0:0:0:
155,94,168411,1,0,0:0:0:0:
293,41,168549,6,0,P|327:98|321:164,1,134.666666666667,2|0,0:0|0:0,0:0:0:0:
411,204,168963,1,8,0:0:0:0:
335,266,169101,1,0,0:0:0:0:
245,227,169239,1,0,0:0:0:0:
77,304,169377,6,0,P|137:331|201:315,1,134.666666666667,2|0,0:0|0:0,0:0:0:0:
245,227,169790,1,8,0:0:0:0:
335,266,169928,1,0,0:0:0:0:
296,356,170066,1,0,0:0:0:0:
146,234,170204,6,0,P|157:168|206:125,1,134.666666666667,2|0,0:0|0:0,0:0:0:0:
302,150,170618,1,8,0:0:0:0:
368,77,170756,1,0,0:0:0:0:
272,53,170894,1,0,0:0:0:0:
357,244,171032,6,0,P|264:229|207:252,1,134.666666666667,2|0,0:0|0:0,0:0:0:0:
148,181,171445,1,8,0:0:0:0:
193,93,171583,1,0,0:0:0:0:
127,20,171721,1,0,0:0:0:0:
15,125,171860,6,0,P|5:191|27:255,1,134.666666666667,2|0,0:0|0:0,0:0:0:0:
108,182,172274,1,8,0:0:0:0:
197,223,172411,1,0,0:0:0:0:
238,133,172549,1,0,0:0:0:0:
108,182,172687,6,0,P|111:248|128:321,1,134.666666666667,2|0,0:0|0:0,0:0:0:0:
237,306,173101,1,8,0:0:0:0:
314,244,173239,1,0,0:0:0:0:
371,326,173377,1,0,0:0:0:0:
268,307,173514,5,2,0:0:0:0:
326,227,173652,1,0,0:0:0:0:
402,291,173790,1,2,0:0:0:0:
297,300,173928,5,8,0:0:0:0:
333,208,174066,1,0,0:0:0:0:
423,250,174204,1,0,0:0:0:0:
408,127,174342,6,0,L|238:115,1,134.666666666667,2|0,0:0|0:0,0:0:0:0:
74,98,174756,1,8,0:0:0:0:
128,181,174894,2,0,P|161:173|195:173,1,67.3333333333333,0|0,0:0|0:0,0:0:0:0:
311,292,175170,6,0,P|212:274|144:279,1,134.666666666667,2|0,0:0|0:0,0:0:0:0:
485,147,175583,1,8,0:0:0:0:
421,221,175721,2,0,P|388:213|354:213,1,67.3333333333333,0|0,0:0|0:0,0:0:0:0:
267,39,175997,6,0,P|261:105|268:172,1,134.666666666667,2|0,0:0|0:0,0:0:0:0:
294,347,176411,1,8,0:0:0:0:
384,307,176549,1,0,0:0:0:0:
354,212,176687,1,0,0:0:0:0:
234,263,176825,6,0,P|202:254|169:250,2,67.3333333333333,2|0|0,0:0|0:0|0:0,0:0:0:0:
50,203,177239,1,8,0:0:0:0:
86,111,177377,1,0,0:0:0:0:
163,169,177514,1,0,0:0:0:0:
300,80,177652,6,0,P|304:45|317:-2,2,67.3333333333333,2|0|0,0:0|0:0|0:0,0:0:0:0:
343,192,178066,1,8,0:0:0:0:
434,228,178204,1,0,0:0:0:0:
420,130,178342,1,0,0:0:0:0:
251,224,178480,6,0,P|217:221|184:222,2,67.3333333333333,2|0|0,0:0|0:0|0:0,0:0:0:0:
206,130,178894,1,8,0:0:0:0:
304,125,179032,1,0,0:0:0:0:
250,42,179170,1,0,0:0:0:0:
316,213,179308,6,0,B|291:220|271:228|271:228|236:219|166:223,1,134.666666666667,2|0,0:0|0:0,0:0:0:0:
61,131,179722,5,8,0:0:0:0:
86,226,179860,1,0,0:0:0:0:
111,321,179998,1,0,0:0:0:0:
160,127,180135,6,0,B|207:110|248:134|294:123,1,134.666666666667,2|0,0:0|0:0,0:0:0:0:
407,221,180549,6,0,P|409:298|399:359,1,134.666666666667,2|0,0:0|0:0,0:0:0:0:
451,102,180963,5,2,0:0:0:0:
451,102,181101,2,0,P|419:86|372:76,1,67.3333333333333,0|0,0:0|0:0,0:0:0:0:
233,56,181377,1,8,0:0:0:0:
233,56,181515,2,0,P|218:88|207:135,1,67.3333333333333,0|0,0:0|0:0,0:0:0:0:
309,218,181791,6,0,P|279:232|247:242,1,67.3333333333333,2|0,0:0|0:0,0:0:0:0:
246,243,182066,1,0,0:0:0:0:
141,193,182204,1,8,0:0:0:0:
76,280,182343,2,0,P|80:315|74:363,1,67.3333333333333,0|0,0:0|0:0,0:0:0:0:
24,180,182618,5,2,0:0:0:0:
24,180,182756,2,0,P|29:144|47:99,1,67.3333333333333,0|0,0:0|0:0,0:0:0:0:
196,113,183032,1,8,0:0:0:0:
196,113,183170,2,0,P|232:110|280:116,1,67.3333333333333
377,214,183446,6,0,P|341:217|293:211,1,67.3333333333333,2|0,0:0|0:0,0:0:0:0:
309,214,183722,1,0,0:0:0:0:
205,279,183860,1,8,0:0:0:0:
288,349,183998,2,0,P|324:346|372:352,1,67.3333333333333,0|0,0:0|0:0,0:0:0:0:
479,251,184274,5,2,0:0:0:0:
479,251,184412,2,0,P|481:218|479:184,1,67.3333333333333,0|0,0:0|0:0,0:0:0:0:
418,72,184687,1,8,0:0:0:0:
418,72,184825,2,0,P|384:74|352:83,1,67.3333333333333,0|0,0:0|0:0,0:0:0:0:
274,189,185101,6,0,P|240:189|207:185,1,67.3333333333333,2|0,0:0|0:0,0:0:0:0:
206,184,185377,1,0,0:0:0:0:
93,141,185514,1,8,0:0:0:0:
81,250,185653,2,0,P|79:283|81:317,1,67.3333333333333,0|0,0:0|0:0,0:0:0:0:
227,347,185928,6,0,P|234:314|236:281,1,67.3333333333333,2|0,0:0|0:0,0:0:0:0:
227,347,186205,1,0,0:0:0:0:
207,185,186342,6,0,P|239:189|272:189,1,67.3333333333333,8|0,0:0|0:0,0:0:0:0:
207,185,186618,1,0,0:0:0:0:
253,29,186756,6,0,P|246:62|244:95,1,67.3333333333333,2|0,0:0|0:0,0:0:0:0:
253,29,187032,1,0,0:0:0:0:
347,115,187170,5,8,0:0:0:0:
379,210,187308,2,0,P|381:243|378:277,1,67.3333333333333,0|0,0:0|0:0,0:0:0:0:
206,189,187583,5,2,0:0:0:0:
206,189,187722,2,0,P|240:186|274:189,1,67.3333333333333,0|0,0:0|0:0,0:0:0:0:
405,81,187998,1,8,0:0:0:0:
405,81,188136,2,0,P|374:95|346:115,1,67.3333333333333,0|0,0:0|0:0,0:0:0:0:
492,210,188412,6,0,P|459:202|425:204,1,67.3333333333333,2|0,0:0|0:0,0:0:0:0:
237,210,188687,2,0,P|270:218|304:216,1,67.3333333333333,0|8,0:0|0:0,0:0:0:0:
127,163,188963,2,0,P|94:155|60:157,1,67.3333333333333
113,307,189239,5,2,0:0:0:0:
113,307,189377,2,0,P|146:297|174:279,1,67.3333333333333,0|0,0:0|0:0,0:0:0:0:
279,164,189653,2,0,P|312:157|346:159,1,67.3333333333333,8|0,0:0|0:0,0:0:0:0:
442,180,189929,1,0,0:0:0:0:
328,329,190067,6,0,P|316:297|312:264,1,67.3333333333333,2|0,0:0|0:0,0:0:0:0:
313,265,190342,1,0,0:0:0:0:
195,204,190480,1,8,0:0:0:0:
285,86,190618,2,0,P|252:93|222:108,1,67.3333333333333,0|0,0:0|0:0,0:0:0:0:
48,111,190894,5,2,0:0:0:0:
160,131,191032,2,0,P|193:123|223:108,1,67.3333333333333,0|0,0:0|0:0,0:0:0:0:
71,89,191308,1,8,0:0:0:0:
21,206,191446,2,0,P|20:239|27:272,1,67.3333333333333,0|0,0:0|0:0,0:0:0:0:
108,337,191722,5,2,0:0:0:0:
198,282,191860,2,0,P|232:280|265:287,1,67.3333333333333,0|0,0:0|0:0,0:0:0:0:
131,359,192136,1,8,0:0:0:0:
136,224,192274,2,0,P|147:191|165:163,1,67.3333333333333,0|0,0:0|0:0,0:0:0:0:
424,346,192549,5,2,0:0:0:0:
313,316,192687,2,0,P|277:321|243:336,1,74.066668927002,0|0,0:0|0:0,0:0:0:0:
399,365,192963,1,8,0:0:0:0:
459,252,193101,2,0,P|461:216|457:179,1,74.066668927002,0|0,0:0|0:0,0:0:0:0:
442,29,193377,5,2,0:0:0:0:
351,84,193515,2,0,P|315:85|278:78,1,74.066668927002,0|0,0:0|0:0,0:0:0:0:
419,7,193791,1,8,0:0:0:0:
414,142,193929,2,0,P|402:176|382:207,1,74.066668927002,0|0,0:0|0:0,0:0:0:0:
179,151,194204,5,2,0:0:0:0:
179,151,194342,2,0,P|218:156|255:173,1,74.066668927002,0|0,0:0|0:0,0:0:0:0:
374,280,194618,1,2,0:0:0:0:
374,280,194756,2,0,P|382:244|381:207,1,74.066668927002,0|0,0:0|0:0,0:0:0:0:
143,232,195032,6,0,P|134:268|136:304,1,74.066668927002,6|0,0:0|0:0,0:0:0:0:
299,269,195308,1,0,0:0:0:0:
232,134,195445,1,8,0:0:0:0:
218,263,195583,2,0,P|216:299|223:335,1,74.066668927002,0|0,0:0|0:0,0:0:0:0:
152,148,195859,5,2,0:0:0:0:
152,148,195997,2,0,P|115:155|82:172,1,74.066668927002,0|0,0:0|0:0,0:0:0:0:
256,38,196273,1,2,0:0:0:0:
256,38,196411,2,0,P|290:52|326:55,1,74.066668927002,0|0,0:0|0:0,0:0:0:0:
426,146,196687,6,0,P|427:182|418:218,1,74.066668927002,2|0,0:0|0:0,0:0:0:0:
366,336,196963,1,0,0:0:0:0:
338,203,197101,1,8,0:0:0:0:
229,283,197239,2,0,P|265:276|302:277,1,74.066668927002,0|0,0:0|0:0,0:0:0:0:
300,131,197514,5,2,0:0:0:0:
300,131,197652,2,0,P|265:117|229:113,1,74.066668927002,0|0,0:0|0:0,0:0:0:0:
60,135,197928,1,2,0:0:0:0:
60,135,198066,2,0,P|67:98|84:65,1,74.066668927002,0|0,0:0|0:0,0:0:0:0:
182,213,198342,6,0,P|145:215|109:208,1,74.066668927002,2|0,0:0|0:0,0:0:0:0:
30,233,198618,1,0,0:0:0:0:
149,130,198756,1,8,0:0:0:0:
194,292,198894,2,0,P|200:328|195:365,1,74.066668927002,0|0,0:0|0:0,0:0:0:0:
382,346,199170,6,0,P|372:309|374:271,1,74.066668927002,2|0,0:0|0:0,0:0:0:0:
382,346,199446,1,0,0:0:0:0:
416,192,199583,6,0,P|378:182|341:184,1,74.066668927002,8|0,0:0|0:0,0:0:0:0:
416,192,199859,1,0,0:0:0:0:
379,20,199997,6,0,P|388:55|385:93,1,74.066668927002,2|0,0:0|0:0,0:0:0:0:
379,20,200273,1,0,0:0:0:0:
501,160,200411,5,8,0:0:0:0:
385,92,200549,2,0,L|313:108,1,74.066668927002,0|0,0:0|0:0,0:0:0:0:
129,153,200825,5,2,0:0:0:0:
129,153,200963,2,0,P|168:158|205:175,1,74.066668927002,0|0,0:0|0:0,0:0:0:0:
311,291,201239,1,2,0:0:0:0:
311,291,201377,2,0,P|319:255|318:218,1,74.066668927002,0|0,0:0|0:0,0:0:0:0:
142,239,201653,6,0,P|133:275|135:311,1,74.066668927002,2|0,0:0|0:0,0:0:0:0:
158,384,201928,1,4,0:0:0:0:
226,245,202066,1,8,0:0:0:0:
98,159,202204,2,0,P|71:185|55:217,1,74.066668927002,0|0,0:0|0:0,0:0:0:0:
229,332,202480,5,2,0:0:0:0:
229,332,202618,2,0,P|265:341|301:339,1,74.066668927002,0|0,0:0|0:0,0:0:0:0:
435,150,202894,2,0,P|400:142|363:143,1,74.066668927002,2|0,0:0|0:0,0:0:0:0:
278,177,203170,1,0,0:0:0:0:
372,334,203308,6,0,P|381:298|379:261,1,74.066668927002,2|0,0:0|0:0,0:0:0:0:
379,261,203583,1,0,0:0:0:0:
278,177,203721,1,8,0:0:0:0:
193,246,203859,2,0,L|120:240,1,74.066668927002
67,353,204135,5,2,0:0:0:0:
178,323,204273,2,0,P|214:328|248:343,1,74.066668927002,0|0,0:0|0:0,0:0:0:0:
92,372,204549,1,8,0:0:0:0:
32,259,204687,2,0,P|30:223|34:186,1,74.066668927002,0|0,0:0|0:0,0:0:0:0:
49,36,204963,5,2,0:0:0:0:
140,91,205101,2,0,P|176:92|213:85,1,74.066668927002,0|0,0:0|0:0,0:0:0:0:
72,14,205377,1,8,0:0:0:0:
77,149,205515,2,0,P|89:183|109:214,1,74.066668927002,0|0,0:0|0:0,0:0:0:0:
199,314,205790,6,0,P|232:307|275:308,1,74.066668927002,2|0,0:0|0:0,0:0:0:0:
251,195,206066,1,0,0:0:0:0:
420,236,206204,2,0,L|346:246,1,74.066668927002,2|0,0:0|0:0,0:0:0:0:
310,122,206480,1,0,0:0:0:0:
419,142,206618,6,0,L|492:130,1,74.066668927002,2|0,0:0|0:0,0:0:0:0:
419,142,206894,1,0,0:0:0:0:
442,37,207032,1,8,0:0:0:0:
369,49,207170,2,0,L|442:37,1,74.066668927002,0|0,0:0|0:0,0:0:0:0:
420,236,207445,6,0,L|414:332,1,80.7999975341798,2|0,0:0|0:0,0:0:0:0:
414,316,207721,1,0,0:0:0:0:
238,113,207859,2,0,L|244:209,1,80.7999975341798,2|0,0:0|0:0,0:0:0:0:
243,193,208135,1,0,0:0:0:0:
372,154,208273,6,0,P|411:141|451:146,1,80.7999975341798,6|0,0:0|0:0,0:0:0:0:
272,286,208549,2,0,P|232:290|194:278,1,80.7999975341798,0|8,0:0|0:0,0:0:0:0:
147,130,208825,1,0,0:0:0:0:
147,130,208963,1,0,0:0:0:0:
336,54,209101,6,0,L|330:134,1,80.7999975341798,2|0,0:0|0:0,0:0:0:0:
329,134,209377,1,0,0:0:0:0:
200,358,209514,2,0,L|194:278,1,80.7999975341798,2|0,0:0|0:0,0:0:0:0:
193,277,209790,1,0,0:0:0:0:
347,263,209928,6,0,P|387:259|426:272,1,80.7999975341798,6|0,0:0|0:0,0:0:0:0:
329,134,210204,1,0,0:0:0:0:
329,134,210342,1,8,0:0:0:0:
231,193,210480,2,0,P|191:189|153:202,1,80.7999975341798,0|0,0:0|0:0,0:0:0:0:
177,51,210756,6,0,L|256:63,1,80.7999975341798,2|0,0:0|0:0,0:0:0:0:
256,63,211032,1,0,0:0:0:0:
73,214,211170,2,0,L|152:201,1,80.7999975341798,2|0,0:0|0:0,0:0:0:0:
153,202,211445,1,0,0:0:0:0:
101,8,211583,6,0,P|90:46|95:86,1,80.7999975341798,6|0,0:0|0:0,0:0:0:0:
276,185,211859,2,0,P|248:156|210:141,1,80.7999975341798,0|8,0:0|0:0,0:0:0:0:
73,214,212135,2,0,P|72:254|88:291,1,80.7999975341798,0|0,0:0|0:0,0:0:0:0:
260,361,212411,6,0,P|247:322|245:279,1,80.7999975341798,2|0,0:0|0:0,0:0:0:0:
260,361,212687,1,0,0:0:0:0:
196,192,212825,6,0,P|235:182|278:185,1,80.7999975341798,2|0,0:0|0:0,0:0:0:0:
196,192,213101,1,0,0:0:0:0:
215,6,213239,6,0,P|228:44|230:85,1,80.7999975341798,2|0,0:0|0:0,0:0:0:0:
230,85,213514,1,0,0:0:0:0:
114,125,213652,5,8,0:0:0:0:
230,85,213790,2,0,L|328:90,1,80.7999975341798,0|0,0:0|0:0,0:0:0:0:
454,74,214066,6,0,L|445:154,1,80.7999975341798,2|0,0:0|0:0,0:0:0:0:
444,154,214342,1,0,0:0:0:0:
275,184,214480,2,0,L|284:264,1,80.7999975341798,2|0,0:0|0:0,0:0:0:0:
284,264,214756,1,0,0:0:0:0:
468,261,214894,6,0,P|429:248|389:252,1,80.7999975341798,6|0,0:0|0:0,0:0:0:0:
227,110,215170,2,0,P|265:97|305:101,1,80.7999975341798,0|8,0:0|0:0,0:0:0:0:
177,239,215445,2,0,P|138:251|98:247,1,80.7999975341798,0|0,0:0|0:0,0:0:0:0:
31,168,215721,6,0,L|46:77,1,80.7999975341798,2|0,0:0|0:0,0:0:0:0:
36,2,215997,1,0,0:0:0:0:
205,31,216135,2,0,L|227:110,1,80.7999975341798,2|0,0:0|0:0,0:0:0:0:
275,184,216411,1,0,0:0:0:0:
433,107,216549,6,0,P|393:102|354:115,1,80.7999975341798,6|0,0:0|0:0,0:0:0:0:
355,114,216825,1,0,0:0:0:0:
275,184,216963,1,8,0:0:0:0:
347,324,217101,2,0,L|354:231,1,80.7999975341798,0|0,0:0|0:0,0:0:0:0:
160,291,217377,6,0,P|200:296|237:312,1,80.7999975341798,2|0,0:0|0:0,0:0:0:0:
59,322,217652,1,0,0:0:0:0:
24,228,217790,2,0,P|22:187|27:147,1,80.7999975341798,2|0,0:0|0:0,0:0:0:0:
58,53,218066,1,0,0:0:0:0:
228,63,218205,6,0,P|189:72|149:72,2,80.7999975341798,6|0|0,0:0|0:0|0:0,0:0:0:0:
74,142,218619,2,0,P|87:180|109:214,1,80.7999975341798,8|0,0:0|0:0,0:0:0:0:
211,182,218894,1,0,0:0:0:0:
295,246,219032,6,0,P|354:237|413:250,1,107.733333333333
383,334,219583,1,0,0:0:0:0:
197,375,219859,2,0,P|183:323|185:269,1,107.733333333333
211,182,220411,1,0,0:0:0:0:
356,232,220687,6,0,P|428:238|486:221,2,107.733333333333
312,82,221514,1,0,0:0:0:0:
217,74,221790,2,0,P|213:127|210:181,1,107.733333333333
454,114,222342,6,0,P|450:167|447:221,1,107.733333333333
419,319,222894,1,0,0:0:0:0:
219,312,223170,2,0,P|268:290|322:287,1,107.733333333333
322,287,223721,1,0,0:0:0:0:
294,127,223997,6,0,P|293:73|309:22,2,107.733333333333
211,58,224825,2,0,P|184:59|157:64,1,53.8666666666667
75,61,225101,1,0,0:0:0:0:
109,185,225377,2,0,P|110:158|105:131,1,53.8666666666667
53,297,225652,6,0,P|106:269|166:265,1,121.19999630127
269,319,226204,1,0,0:0:0:0:
410,264,226480,1,0,0:0:0:0:
349,317,226756,1,0,0:0:0:0:
322,189,227032,1,0,0:0:0:0:
510,145,227308,6,0,P|451:116|385:122,1,134.666666666667
246,198,227859,1,0,0:0:0:0:
332,51,228135,1,0,0:0:0:0:
322,189,228411,1,0,0:0:0:0:
186,152,228687,1,0,0:0:0:0:
384,123,228963,6,0,P|412:183|383:256,1,134.666666666667
225,259,229514,1,0,0:0:0:0:
322,189,229790,1,0,0:0:0:0:
286,311,230066,2,0,P|228:283|180:324,1,134.666666666667
322,189,230618,6,0,P|220:156|103:177,1,202
419,285,231445,2,0,B|435:227|435:227|426:85,1,202
61,154,232273,6,0,P|94:156|126:166,1,67.3333333333333
75,244,232549,2,0,P|65:276|62:309,1,67.3333333333333
176,319,232825,2,0,P|173:285|163:253,1,67.3333333333333
203,102,233101,6,0,P|235:92|268:89,1,67.3333333333333
265,173,233377,2,0,P|297:182|330:185,1,67.3333333333333
356,99,233652,2,0,P|365:66|368:33,1,67.3333333333333
312,274,233928,6,0,P|302:306|299:339,1,67.3333333333333
389,319,234204,2,0,P|411:343|439:362,1,67.3333333333333
471,272,234480,2,0,P|480:239|483:206,1,67.3333333333333
330,185,234756,6,0,P|297:175|264:172,1,67.3333333333333
196,292,235032,2,0,L|189:226,1,67.3333333333333
39,230,235308,2,0,P|71:239|104:242,1,67.3333333333333
283,90,235583,6,0,P|249:88|216:94,1,67.3333333333333
264,172,235859,2,0,P|275:203|293:232,1,67.3333333333333
351,158,236135,2,0,P|383:148|416:145,1,67.3333333333333
177,168,236411,6,0,P|143:165|111:155,1,67.3333333333333
35,111,236687,2,0,P|25:143|22:176,1,67.3333333333333
113,69,236963,2,0,P|145:59|178:56,1,67.3333333333333
255,221,237239,6,0,P|254:259|267:307,1,67.3333333333333
342,324,237514,2,0,P|375:317|408:319,1,67.3333333333333
410,237,237790,2,0,P|376:230|343:232,1,67.3333333333333
185,336,238066,6,0,P|151:342|118:340,1,67.3333333333333
152,250,238342,1,0,0:0:0:0:
36,309,238480,1,0,0:0:0:0:
22,176,238618,2,0,P|55:174|88:180,1,67.3333333333333
259,287,238894,6,0,P|265:253|263:220,1,67.3333333333333
337,170,239170,2,0,P|369:174|401:186,1,67.3333333333333
414,279,239445,2,0,P|380:274|349:262,1,67.3333333333333
194,99,239721,6,0,P|188:133|190:166,1,67.3333333333333
107,77,239997,2,0,L|41:90,1,67.3333333333333
278,34,240273,2,0,P|284:68|282:101,1,67.3333333333333
358,233,240549,6,0,P|343:201|336:169,1,67.3333333333333
420,103,240825,2,0,P|426:137|424:170,1,67.3333333333333
440,255,241101,2,0,P|474:261|507:259,1,67.3333333333333
299,299,241377,6,0,L|232:311,1,67.3333333333333
49,192,241652,2,0,L|116:199,1,67.3333333333333
87,348,241928,1,0,0:0:0:0:
173,258,242066,1,0,0:0:0:0:
298,298,242204,6,0,P|329:298|358:292,1,60.5999981506348
307,215,242480,2,0,P|276:215|246:221,1,60.5999981506348
167,133,242756,2,0,P|197:133|227:139,1,60.5999981506348
312,120,243032,6,0,P|317:90|320:62,1,53.8666666666667
396,34,243308,2,0,P|398:60|403:87,1,53.8666666666667
490,59,243583,2,0,P|487:85|482:112,1,53.8666666666667
452,213,243859,6,0,B|402:213|374:184|374:184|342:210|278:206|278:206|240:231|225:319|319:325,1,343.399989520264
292,181,246086,1,0,0:0:0:0:
319,156,246718,1,0,0:0:0:0:
383,237,247477,1,0,0:0:0:0:
277,215,248097,1,0,0:0:0:0:
368,188,248856,1,0,0:0:0:0:
