osu file format v14

[General]
AudioFilename: audio.mp3
AudioLeadIn: 0
PreviewTime: 202850
Countdown: 0
SampleSet: Normal
StackLeniency: 0.7
Mode: 0
LetterboxInBreaks: 0
WidescreenStoryboard: 1

[Editor]
Bookmarks: 353
DistanceSpacing: 0.3
BeatDivisor: 8
GridSize: 32
TimelineZoom: 1.5

[Metadata]
Title:flow
TitleUnicode:flow
Artist:School Food Punishment
ArtistUnicode:School Food Punishment
Creator:Fixxis
Version:inundation
Source:
Tags:Kalibe Black Man Senseabel ImpurePug sfp japanese yumi uchimura Rock J-Rock Riff-rain Riff rain Masayuki Hasuo Osamu Hidai Ueda Atsushi
BeatmapID:2425231
BeatmapSetID:1105170

[Difficulty]
HPDrainRate:6.2
CircleSize:4.2
OverallDifficulty:8.7
ApproachRate:9.2
SliderMultiplier:1.4
SliderTickRate:1

[Events]
//Background and Video events
0,0,"d1fd1c7d-c369-4f7c-99b9-d07568f51e8f.jpg",0,0
//Break Periods
//Storyboard Layer 0 (Background)
//Storyboard Layer 1 (Fail)
//Storyboard Layer 2 (Pass)
//Storyboard Layer 3 (Foreground)
//Storyboard Layer 4 (Overlay)
//Storyboard Sound Samples

[TimingPoints]
440,344.827586206897,4,1,1,30,1,0
11474,344.827586206897,5,2,1,55,1,0
11474,-83.3333333333333,4,2,1,55,0,0
23456,-100,5,2,1,5,0,0
23542,-83.3333333333333,5,2,1,55,0,0
26991,-100,4,2,1,50,0,0
28025,-100,4,2,2,50,0,0
28198,-100,4,2,1,50,0,0
28715,-76.9230769230769,4,2,1,50,0,0
29233,-100,4,2,1,50,0,0
31819,-66.6666666666667,4,2,1,50,0,0
32077,-66.6666666666667,4,2,1,5,0,0
32164,-76.9230769230769,4,2,1,50,0,0
32508,-100,4,2,1,50,0,0
37336,-76.9230769230769,4,2,8,50,0,0
37422,-76.9230769230769,4,2,1,50,0,0
37681,-100,4,2,1,50,0,0
39060,-76.9230769230769,4,2,8,55,0,0
39146,-76.9230769230769,4,2,1,55,0,0
39405,-100,4,2,1,55,0,0
41474,-125,4,2,1,55,0,0
41818,-125,4,2,2,55,0,0
41905,-125,4,2,1,55,0,0
42164,-90.9090909090909,4,2,1,55,0,0
42422,-90.9090909090909,4,2,1,5,0,0
42508,-71.4285714285714,4,2,1,55,0,0
42853,-100,4,2,1,55,0,0
44146,-100,4,2,1,5,0,0
44233,-83.3333333333333,4,2,1,55,0,0
44405,-100,4,2,1,55,0,0
45267,-100,4,2,2,55,0,0
45439,-100,4,2,1,55,0,0
45612,-83.3333333333333,4,2,1,55,0,0
45870,-83.3333333333333,4,2,1,5,0,0
45957,-76.9230769230769,4,2,1,55,0,0
46302,-100,4,2,1,55,0,0
47680,-100,4,2,8,55,0,0
47767,-100,4,2,1,55,0,0
49577,-100,4,2,2,55,0,0
49749,-100,4,2,1,55,0,0
51474,-76.9230769230769,4,2,1,55,0,0
52767,-76.9230769230769,4,2,1,5,0,0
52853,-76.9230769230769,4,2,1,55,0,0
56301,-76.9230769230769,4,2,8,55,0,0
56387,-76.9230769230769,4,2,1,55,0,0
57681,-100,4,2,1,55,0,0
59060,-83.3333333333333,4,2,1,55,0,0
59405,-76.9230769230769,4,2,1,55,0,0
59663,-76.9230769230769,4,2,1,5,0,0
59750,-100,4,2,1,55,0,0
63198,-100,4,2,8,55,0,0
63284,-100,4,2,1,55,0,0
66646,-76.9230769230769,4,2,1,60,0,0
70094,-76.9230769230769,4,2,8,60,0,0
70180,-76.9230769230769,4,2,1,60,0,0
73543,-100,4,2,1,55,0,0
76991,-80,4,2,1,60,0,0
78887,-80,4,2,2,25,0,0
80095,-153.846153846153,4,2,2,30,0,0
80267,-105.263157894737,4,2,2,30,0,0
80439,344.827586206897,6,2,2,65,1,0
80440,-117.647058823529,4,2,3,45,0,0
80525,-117.647058823529,4,2,2,65,0,0
81819,-95.2380952380952,4,2,2,65,0,0
82164,-74.0740740740741,4,2,2,65,0,0
82508,-66.6666666666667,4,2,2,65,0,0
82853,-117.647058823529,4,2,2,65,0,0
84577,-66.6666666666667,4,2,2,65,0,0
84836,-117.647058823529,4,2,2,65,0,0
85095,-100,4,2,2,65,0,0
85440,-117.647058823529,4,2,2,65,0,0
85957,-95.2380952380951,4,2,2,65,0,0
86302,-79.9999999999999,4,2,2,65,0,0
86646,-66.6666666666667,4,2,2,65,0,0
87164,-100,4,2,2,65,0,0
88715,-66.6666666666667,4,2,2,65,0,0
89233,-117.647058823529,4,2,2,65,0,0
90612,-66.6666666666667,4,2,2,65,0,0
91043,-117.647058823529,4,2,2,65,0,0
91819,-100,4,2,2,65,0,0
92164,-90.9090909090909,4,2,2,65,0,0
92508,-76.9230769230769,4,2,2,65,0,0
92853,-66.6666666666667,4,2,2,65,0,0
93371,-100,4,2,2,65,0,0
94922,-117.647058823529,4,2,2,65,0,0
95440,-83.3333333333333,4,2,2,65,0,0
95957,-71.4285714285714,4,2,2,65,0,0
96646,-55.5555555555556,4,2,2,70,0,0
96991,-83.3333333333333,4,2,3,75,0,0
97076,-83.3333333333333,4,2,2,75,0,0
99060,-62.5,4,2,2,75,0,0
99319,-83.3333333333333,4,2,2,75,0,0
101129,-62.5,4,2,2,75,0,0
101646,-83.3333333333333,4,2,2,75,0,0
102853,-66.6666666666667,4,2,2,75,0,0
103198,-100,4,2,2,75,0,0
103371,-83.3333333333333,4,2,2,75,0,0
105266,-83.3333333333333,4,2,3,75,0,0
105352,-83.3333333333333,4,2,2,75,0,0
105784,-71.4285714285714,4,2,2,75,0,0
106302,-100,4,2,2,75,0,0
107336,-66.6666666666667,4,2,2,75,0,0
108026,-83.3333333333333,4,2,2,75,0,0
109060,-111.111111111111,4,2,2,75,0,0
109405,-83.3333333333333,4,2,2,75,0,0
110784,-125,4,2,2,75,0,0
111129,-66.6666666666667,4,2,2,75,0,0
111474,-76.9230769230769,4,2,2,75,0,0
112852,-76.9230769230769,4,2,2,65,0,0
113197,-76.9230769230769,4,2,2,85,0,0
113542,344.827586206897,5,1,1,80,1,0
115610,344.827586206897,5,1,1,30,1,0
115612,-100,4,2,1,55,0,0
118368,-74.0740740740741,4,2,1,55,0,0
118627,-74.0740740740741,4,2,1,5,0,0
118713,-74.0740740740741,4,2,1,55,0,0
118972,-74.0740740740741,4,2,1,5,0,0
119058,-74.0740740740741,4,2,1,55,0,0
119747,-86.9565217391304,4,2,1,55,0,0
125610,-68.9655172413793,4,2,1,55,0,0
125868,-68.9655172413793,4,2,1,5,0,0
125954,-74.0740740740741,4,2,1,55,0,0
128196,-83.3333333333333,4,2,1,55,0,0
136816,-200,4,2,1,55,0,0
137334,-83.3333333333333,4,2,1,55,0,0
138541,-200,4,2,1,55,0,0
139058,-83.3333333333333,4,2,1,55,0,0
142161,-71.4285714285714,4,2,2,55,0,0
146644,-83.3333333333333,4,2,4,55,0,0
158713,-76.9230769230769,4,2,4,60,0,0
160437,-71.4285714285714,4,2,4,60,0,0
160782,-111.111111111111,4,2,4,60,0,0
163885,-76.9230769230769,4,2,4,60,0,0
164233,-111.111111111111,4,2,4,60,0,0
167334,-76.9230769230769,4,2,4,60,0,0
167678,-111.111111111111,4,2,4,60,0,0
172161,-90.9090909090908,4,2,4,60,0,0
173885,-90.9090909090908,4,2,4,80,0,0
174230,-100,4,2,4,60,0,0
186472,-166.666666666667,4,2,4,60,0,0
188023,-90.9090909090909,4,2,4,60,0,0
198713,-90.9090909090909,4,2,1,63,0,0
199058,-90.9090909090909,4,2,1,66,0,0
199403,-90.9090909090909,4,2,1,69,0,0
199747,-90.9090909090909,4,2,1,72,0,0
200092,-90.9090909090909,4,2,1,75,0,0
200437,-90.9090909090909,4,2,1,78,0,0
200782,-90.9090909090909,4,2,1,81,0,0
201127,-90.9090909090909,4,2,1,84,0,0
201472,-66.6666666666667,4,1,1,75,0,0
201816,344.827586206897,6,3,2,90,1,0
202850,-200,4,2,1,60,0,0
203109,-200,4,1,1,5,0,0
203195,-133.333333333333,4,2,1,60,0,0
203454,-133.333333333333,4,1,1,5,0,0
203540,-100,4,2,1,60,0,0
203799,-80,4,1,1,5,0,0
203884,-76.9230769230769,4,2,2,75,0,0
205264,-95.2380952380952,4,2,2,75,0,0
205609,-74.0740740740741,4,2,2,75,0,0
205953,-66.6666666666667,4,2,2,75,0,0
206298,-117.647058823529,4,2,2,75,0,0
206471,-79.9999999999998,4,2,2,75,0,0
208022,-66.6666666666667,4,2,2,75,0,0
208281,-117.647058823529,4,2,2,75,0,0
208540,-100,4,2,2,75,0,0
208885,-117.647058823529,4,2,2,75,0,0
209402,-95.2380952380951,4,2,2,75,0,0
209747,-79.9999999999999,4,2,2,75,0,0
210091,-66.6666666666667,4,2,2,75,0,0
210609,-83.3333333333333,4,2,2,75,0,0
211988,-66.6666666666667,4,2,2,75,0,0
212160,-66.6666666666667,4,2,2,75,0,0
212678,-117.647058823529,4,2,2,75,0,0
214057,-66.6666666666667,4,2,2,75,0,0
214488,-117.647058823529,4,2,2,75,0,0
215264,-100,4,2,2,75,0,0
215609,-90.9090909090909,4,2,2,75,0,0
215953,-76.9230769230769,4,2,2,75,0,0
216298,-66.6666666666667,4,2,2,75,0,0
216816,-100,4,2,2,75,0,0
218367,-79.9999999999998,4,2,2,85,0,0
218884,-83.3333333333333,4,2,2,85,0,0
219402,-71.4285714285714,4,2,2,85,0,0
220091,-55.5555555555556,4,2,2,85,0,0
220436,-83.3333333333333,4,2,2,85,0,0
222333,-66.6666666666667,4,2,2,85,0,0
222505,-62.5,4,2,2,85,0,0
222764,-83.3333333333333,4,2,2,85,0,0
224229,-62.5,4,2,2,85,0,0
224574,-62.5,4,2,2,85,0,0
225091,-83.3333333333333,4,2,2,85,0,0
226298,-66.6666666666667,4,2,2,85,0,0
226643,-100,4,2,2,85,0,0
226816,-83.3333333333333,4,2,2,85,0,0
229229,-71.4285714285714,4,2,2,85,0,0
229747,-100,4,2,2,85,0,0
230781,-66.6666666666667,4,2,2,85,0,0
231471,-83.3333333333333,4,2,2,85,0,0
232505,-111.111111111111,4,1,1,85,0,0
232850,-62.5,4,1,1,85,0,0
234229,-76.9230769230769,4,1,1,85,0,0
234574,-62.5,4,1,1,85,0,0
234919,-76.9230769230769,4,1,1,85,0,0
235436,-58.8235294117647,4,1,1,85,0,0
235781,-76.9230769230769,4,1,1,85,0,0
236988,-58.8235294117647,4,1,1,85,0,0
237161,-66.6666666666667,4,1,1,85,0,0
237505,-76.9230769230769,4,1,1,85,0,0
238022,-66.6666666666667,4,1,1,85,0,0
238367,-76.9230769230769,4,1,1,85,0,0
238712,-55.5555555555556,4,1,1,85,0,0
239057,-76.9230769230769,4,1,1,85,0,0
240781,-55.5555555555556,4,1,1,85,0,0
241126,-76.9230769230769,4,1,1,85,0,0
242850,-166.666666666667,4,1,1,85,0,0
243195,-58.8235294117647,4,1,1,85,0,0
243540,-76.9230769230769,4,1,1,85,0,0
244919,-66.6666666666667,4,1,1,85,0,0
245264,-62.5,4,1,1,85,0,0
245523,-76.9230769230769,4,1,1,85,0,0
246816,-62.5,4,1,1,85,0,0
246988,-66.6666666666667,4,1,1,85,0,0
247333,-76.9230769230769,4,1,1,85,0,0
251471,-58.8235294117647,4,1,1,85,0,0
251816,-76.9230769230769,4,1,1,85,0,0
255609,-66.6666666666667,4,1,1,85,0,0
267678,-90.9090909090909,4,1,1,85,0,0
267850,-133.333333333333,4,1,1,85,0,0
268022,-54.054054054054,4,1,1,85,0,0
268712,-74.0740740740741,4,1,1,85,0,0
269402,-60.6060606060606,4,1,1,85,0,0
271471,-54.054054054054,4,1,1,85,0,0
271816,-60.6060606060606,4,1,1,85,0,0
272850,-57.1428571428571,4,1,1,85,0,0
273195,-68.9655172413793,4,1,1,85,0,0
277678,-48.780487804878,4,1,1,85,0,0
278022,-68.9655172413793,4,1,1,85,0,0
278712,-68.9655172413793,4,1,1,85,0,0
292850,-68.9655172413793,4,1,1,5,0,0

[Colours]
Combo1 : 115,169,41
Combo2 : 0,198,198
Combo3 : 255,165,74
Combo4 : 0,128,192

[HitObjects]
208,201,11474,6,0,P|248:197|298:188,1,83.9999974365235,6|0,0:0|0:0,0:0:0:0:
369,150,11733,2,0,L|419:167,1,41.9999987182618,2|8,0:0|0:0,0:0:0:0:
212,208,11991,6,0,P|179:229|192:297,1,83.9999974365235,2|0,0:0|3:0,0:0:0:0:
184,292,12250,1,2,0:0:0:0:
248,337,12336,2,0,L|262:270,1,41.9999987182618,8|0,0:0|0:0,0:0:0:0:
384,231,12508,5,2,0:0:0:0:
362,343,12681,1,0,3:0:0:0:
262,278,12853,1,8,0:0:0:0:
268,273,13026,1,2,0:0:0:0:
51,380,13198,6,0,B|31:347|54:313|54:313|66:356|88:373,1,125.999996154785,4|0,0:3|0:0,0:0:0:0:
148,307,13543,1,8,0:0:0:0:
248,181,13715,5,2,0:0:0:0:
248,181,13802,1,0,1:3:0:0:
248,181,13888,2,0,L|237:123,1,41.9999987182618,0|2,3:0|2:0,0:0:0:0:
225,62,14060,1,2,3:0:0:0:
273,137,14233,5,2,0:0:0:0:
79,224,14405,2,0,B|118:209|118:209|173:210,1,83.9999974365235,0|8,3:0|0:0,0:0:0:0:
470,157,14922,6,0,L|419:148,1,41.9999987182618,6|0,0:3|0:0,0:0:0:0:
296,327,15181,1,2,0:0:0:0:
297,317,15267,2,0,L|287:256,1,41.9999987182618,8|0,0:0|0:0,0:0:0:0:
341,195,15440,5,2,0:0:0:0:
344,193,15526,1,0,1:0:0:0:
347,191,15612,1,0,3:0:0:0:
499,291,15784,2,0,B|452:238|385:245|349:270|406:302|431:284,1,167.999994873047,12|0,0:0|3:0,0:0:0:0:
419,288,16302,6,0,P|444:256|433:209,1,83.9999974365235,8|0,0:0|0:0,0:0:0:0:
249,345,16646,2,0,L|111:333,1,125.999996154785,4|0,0:3|0:0,0:0:0:0:
109,331,16991,1,8,0:0:0:0:
58,171,17164,6,0,L|70:100,2,41.9999987182618,2|0|0,0:0|1:0|3:0,0:0:0:0:
209,46,17508,1,2,0:0:0:0:
209,46,17595,2,0,L|230:133,1,83.9999974365235,0|2,1:0|2:0,0:0:0:0:
221,147,17853,1,0,3:0:0:0:
97,109,18026,1,8,0:0:0:0:
357,63,18198,6,0,L|432:53,1,41.9999987182618,2|2,1:3|0:0,0:0:0:0:
481,99,18371,6,0,B|411:81|411:81|425:113,1,83.9999974365235,4|0,0:3|0:0,0:0:0:0:
339,165,18629,2,0,L|320:238,1,41.9999987182618,2|8,0:0|0:0,0:0:0:0:
456,356,18888,1,2,0:0:0:0:
456,356,18974,2,0,P|448:308|452:246,1,83.9999974365235,0|2,1:0|2:0,0:0:0:0:
448,272,19233,2,0,P|416:297|342:287,1,83.9999974365235,12|2,0:0|0:0,0:0:0:0:
268,240,19577,1,0,3:0:0:0:
244,322,19750,5,8,0:0:0:0:
357,228,19922,1,2,0:0:0:0:
218,178,20095,1,4,0:3:0:0:
255,244,20267,5,0,0:3:0:0:
268,240,20353,1,2,0:3:0:0:
278,235,20440,1,8,0:0:0:0:
430,54,20612,2,0,P|416:93|423:158,1,83.9999974365235,2|0,0:0|3:0,0:0:0:0:
483,220,20957,1,4,3:0:0:0:
429,137,21129,6,0,P|394:110|334:123,1,83.9999974365235,2|0,0:0|3:0,0:0:0:0:
187,211,21474,2,0,B|125:217|125:217|150:127,1,125.999996154785,8|2,0:0|2:0,0:0:0:0:
169,77,21819,5,4,0:0:0:0:
303,159,21991,2,0,L|381:141,2,41.9999987182618,0|0|8,0:0|1:0|0:0,0:0:0:0:
193,219,22336,1,2,0:0:0:0:
193,219,22422,2,0,P|235:225|290:239,1,83.9999974365235,0|2,1:0|2:0,0:0:0:0:
424,224,22681,6,0,P|407:187|356:182,1,83.9999974365235,12|2,0:0|0:0,0:0:0:0:
260,241,23026,1,0,3:0:0:0:
355,161,23198,6,0,P|414:174|435:231,1,125.999996154785,8|0,0:0|0:0,0:0:0:0:
339,330,23542,6,0,P|297:339|249:354,1,83.9999974365235,4|2,3:3|0:0,0:0:0:0:
211,208,23888,1,8,0:0:0:0:
174,148,24060,1,2,0:0:0:0:
174,148,24146,1,0,1:0:0:0:
174,148,24233,2,0,P|131:138|66:126,1,83.9999974365235,0|2,3:0|0:3,0:0:0:0:
0,208,24577,6,0,B|10:223|10:223|83:208,1,83.9999974365235,2|0,0:0|3:0,0:0:0:0:
328,79,24922,2,0,B|341:61|341:61|464:82|464:82|480:53,1,167.999994873047,12|4,0:0|1:0,0:0:0:0:
475,64,25612,6,0,L|380:49,1,83.9999974365235,8|0,1:0|0:0,0:0:0:0:
392,50,25957,1,0,3:0:0:0:
506,234,26129,6,0,B|422:250|422:250|457:163,1,167.999994873047,8|0,1:0|3:0,0:0:0:0:
452,173,26646,2,0,L|345:189,1,83.9999974365235,8|0,1:0|0:0,0:0:0:0:
79,242,26991,6,0,B|42:235|13:222|13:222|17:262|0:308,1,140,0|8,3:0|1:0,0:0:0:0:
119,368,27595,1,0,1:0:0:0:
119,368,27681,2,0,L|202:354,1,70,0|4,3:0|0:3,0:0:0:0:
258,269,28026,5,2,0:3:0:0:
263,193,28198,2,0,B|272:208|272:208|258:283,1,70,0|8,3:0|1:0,0:0:0:0:
510,351,28629,5,0,1:0:0:0:
510,351,28715,2,0,P|524:314|442:293,1,136.499993751526,6|0,1:2|0:0,0:0:0:0:
442,296,29060,1,8,1:0:0:0:
337,111,29233,6,0,L|322:25,1,70,2|0,0:0|3:0,0:0:0:0:
337,49,29577,2,0,P|280:73|256:13,1,140,8|0,1:0|3:0,0:0:0:0:
262,20,30095,2,0,P|217:59|138:31,1,140,8|2,1:0|3:2,0:0:0:0:
144,39,30612,6,0,P|140:71|162:109,1,70,2|8,0:0|1:0,0:0:0:0:
94,280,30957,2,0,P|113:254|147:246,2,35,2|0|0,0:0|1:0|3:0,0:0:0:0:
66,191,31302,2,0,B|123:200|127:238|202:244,1,140,4|0,0:3|3:0,0:0:0:0:
432,295,31819,6,0,B|480:324|519:293|519:293|485:302|452:278,1,157.500006008148,8|0,1:0|0:0,0:0:0:0:
499,211,32164,6,0,B|478:169|431:132|309:154|385:206,2,181.999991668702,6|8|0,1:2|1:0|3:0,0:0:0:0:
333,257,33026,1,8,1:0:0:0:
243,111,33198,6,0,P|232:122|244:182,1,70,2|0,0:0|3:0,0:0:0:0:
129,298,33543,2,0,B|60:308|60:308|80:228,1,140,8|4,1:0|3:0,0:0:0:0:
136,304,34060,5,0,0:0:0:0:
67,237,34233,1,8,1:0:0:0:
155,180,34405,2,0,P|188:190|222:214,1,70,2|0,0:0|3:0,0:0:0:0:
401,269,34750,6,0,B|404:206|352:189|352:189|374:216|363:246,1,140,4|0,3:3|3:0,0:0:0:0:
277,332,35267,2,0,B|241:330|197:346|197:346|212:292|261:320,1,140,8|2,1:0|3:2,0:0:0:0:
277,332,35957,5,8,1:0:0:0:
106,285,36129,2,0,L|48:274,2,35,2|0|0,0:0|1:0|3:0,0:0:0:0:
282,337,36474,2,0,L|364:328,1,70,8|2,1:0|0:0,0:0:0:0:
196,384,36819,5,0,3:0:0:0:
353,292,36991,2,0,P|372:269|357:217,1,70,8|2,1:0|0:0,0:0:0:0:
245,120,37336,6,0,B|220:77|307:26|237:-32|157:4|191:56|232:59,1,181.999991668702,2|8,0:0|1:0,0:0:0:0:
335,96,37853,1,2,0:0:0:0:
335,96,37940,1,0,1:0:0:0:
335,96,38026,2,0,L|427:61,1,70,4|0,3:0|3:0,0:0:0:0:
329,177,38371,2,0,L|376:252,1,70,2|0,0:0|3:0,0:0:0:0:
236,145,38715,2,0,L|164:209,1,70,8|2,1:0|2:0,0:0:0:0:
19,170,39060,6,0,B|60:180|96:151|96:151|62:211|109:254,1,181.999991668702,2|8,0:0|1:0,0:0:0:0:
38,89,39577,1,2,0:0:0:0:
99,243,39750,5,0,3:0:0:0:
222,120,39922,2,0,P|250:101|307:102,1,70,8|2,1:0|0:0,0:0:0:0:
170,45,40267,5,0,3:0:0:0:
285,96,40440,2,0,P|304:124|303:181,1,70,8|0,1:0|0:0,0:0:0:0:
381,266,40784,6,0,B|449:282|449:282|430:197,1,140,2|8,1:2|1:0,0:0:0:0:
273,303,41302,1,0,0:0:0:0:
273,303,41388,1,0,1:0:0:0:
273,303,41474,1,0,3:0:0:0:
457,305,41646,6,0,L|516:298,2,56,4|2|0,0:3|0:3|3:0,0:0:0:0:
193,251,42164,2,0,B|145:259|145:259|126:276|126:276|74:287,1,115.50000352478,8|0,1:0|0:0,0:0:0:0:
0,296,42508,6,0,L|171:323,1,146.999995513916,6|0,1:2|0:0,0:0:0:0:
152,317,42853,1,8,1:0:0:0:
339,220,43026,2,0,L|414:206,1,70,2|0,0:0|3:0,0:0:0:0:
407,207,43371,6,0,P|329:194|253:166,1,140,8|0,1:0|3:0,0:0:0:0:
339,220,43888,2,0,P|317:286|311:343,1,105,8|0,1:0|0:0,0:0:0:0:
366,375,44233,6,0,P|394:351|380:302,1,83.9999974365235,2|0,3:2|0:0,0:0:0:0:
156,214,44577,2,0,L|133:288,1,70,8|0,1:0|0:0,0:0:0:0:
135,280,44836,1,0,1:0:0:0:
135,280,44922,1,0,3:0:0:0:
243,147,45095,2,0,L|324:137,1,70,4|2,0:3|0:3,0:0:0:0:
484,118,45440,5,0,3:0:0:0:
484,118,45612,2,0,B|517:127|517:127|481:72|426:96,1,125.999996154785,8|0,1:0|0:0,0:0:0:0:
322,162,45957,6,0,B|308:177|308:177|425:160,1,136.499993751526,6|0,1:2|0:0,0:0:0:0:
491,124,46302,1,8,1:0:0:0:
491,124,46474,1,2,0:0:0:0:
425,185,46646,2,0,L|352:172,1,70,0|8,3:0|1:0,0:0:0:0:
69,310,47077,5,0,1:0:0:0:
64,314,47164,2,0,P|51:297|54:236,1,70,0|8,3:0|1:0,0:0:0:0:
148,317,47508,1,2,0:0:0:0:
204,167,47681,6,0,B|137:135|137:135|115:164|91:185,1,140,2|8,0:0|1:0,0:0:0:0:
109,137,48198,1,2,0:0:0:0:
142,62,48371,2,0,L|218:46,1,70,0|4,3:0|3:3,0:0:0:0:
354,138,48715,2,0,P|371:108|370:73,1,70,2|0,0:0|3:0,0:0:0:0:
193,199,49060,6,0,P|251:207|342:234,1,140,8|4,1:0|1:2,0:0:0:0:
275,131,49577,1,2,0:0:0:0:
275,131,49664,1,2,0:0:0:0:
275,131,49750,1,8,1:0:0:0:
227,278,49922,5,2,0:0:0:0:
167,328,50095,2,0,P|148:305|163:253,1,70,0|8,3:0|1:0,0:0:0:0:
310,238,50439,5,2,0:0:0:0:
378,258,50611,2,0,L|300:236,1,70,0|10,3:0|1:2,0:0:0:0:
72,122,51129,6,0,L|-18:139,1,70,2|0,1:2|0:0,0:0:0:0:
6,148,51474,1,8,1:0:0:0:
209,107,51646,2,0,L|237:6,1,90.9999958343508,2|0,0:0|3:0,0:0:0:0:
209,107,51991,5,4,3:0:0:0:
128,247,52164,2,0,P|145:308|160:361,1,90.9999958343508,2|0,0:1|3:0,0:0:0:0:
340,360,52508,2,0,P|321:333|203:323,1,136.499993751526,12|0,1:2|2:0,0:0:0:0:
226,343,52853,6,0,P|270:376|334:362,1,90.9999958343508,4|0,1:0|0:0,0:0:0:0:
331,251,53198,1,8,1:0:0:0:
296,147,53371,1,2,0:0:0:0:
331,251,53715,5,8,1:0:0:0:
422,224,53888,1,2,0:0:0:0:
331,251,54060,2,0,L|233:236,1,90.9999958343508,0|8,3:0|1:0,0:0:0:0:
395,122,54405,5,2,0:0:0:0:
294,15,54577,2,0,B|321:37|321:37|328:73|328:73|290:125|340:192,1,181.999991668702,4|8,1:2|1:0,0:0:0:0:
471,80,55095,1,2,0:0:0:0:
121,19,55440,5,0,3:0:0:0:
121,19,55525,1,2,1:3:0:0:
121,19,55612,1,2,0:0:0:0:
204,26,55784,1,0,3:0:0:0:
149,92,55957,2,0,P|114:52|123:14,1,90.9999958343508,8|2,1:0|0:0,0:0:0:0:
370,131,56302,2,0,L|186:164,1,181.999991668702,2|8,0:0|1:0,0:0:0:0:
286,222,56819,6,0,B|343:234|343:234|301:272,1,90.9999958343508,2|0,1:2|3:0,0:0:0:0:
286,222,57164,1,8,1:0:0:0:
159,317,57336,2,0,L|263:296,1,90.9999958343508,2|0,0:0|3:0,0:0:0:0:
410,361,57681,2,0,P|373:340|380:232,1,140,10|2,1:2|3:0,0:0:0:0:
493,327,58198,5,2,0:0:0:0:
493,327,58371,1,8,1:0:0:0:
373,250,58543,2,0,L|293:263,2,70,2|0|4,0:0|3:0|0:3,0:0:0:0:
470,168,59060,6,0,B|499:161|499:161|476:221,1,83.9999974365235,2|0,0:2|3:0,0:0:0:0:
304,280,59405,2,0,L|133:262,1,136.499993751526,10|0,1:2|0:0,0:0:0:0:
94,295,59750,6,0,P|163:237|141:171,1,140,6|8,1:2|1:0,0:0:0:0:
216,129,60267,1,2,0:0:0:0:
152,24,60440,2,0,B|138:40|138:40|151:100,1,70,0|8,3:0|1:0,0:0:0:0:
86,150,60784,6,0,L|2:139,1,70,2|0,0:0|3:0,0:0:0:0:
196,283,61129,2,0,L|224:370,1,70,8|0,1:0|0:0,0:0:0:0:
328,173,61474,2,0,B|355:188|425:168|474:199,1,140,2|8,1:2|1:0,0:0:0:0:
465,194,61991,1,2,0:1:0:0:
386,102,62164,2,0,L|404:35,1,70,0|4,3:0|0:3,0:0:0:0:
374,258,62508,6,0,L|389:352,1,70,2|0,0:0|3:0,0:0:0:0:
280,174,62853,2,0,B|205:191,1,70,10|0,1:2|0:0,0:0:0:0:
37,227,63198,6,0,B|76:255|76:255|106:244|106:244|166:247,1,140,2|8,0:0|1:0,0:0:0:0:
282,295,63715,1,2,0:0:0:0:
345,338,63888,2,0,B|377:349|377:349|386:356|386:356|423:365,1,70,2|8,3:2|1:0,0:0:0:0:
173,257,64233,2,0,P|161:290|179:331,1,70,2|0,0:0|3:0,0:0:0:0:
377,226,64577,2,0,P|388:190|369:149,1,70,8|2,1:0|0:0,0:0:0:0:
291,26,64922,5,2,3:0:0:0:
223,129,65095,1,2,0:0:0:0:
226,134,65181,1,0,1:0:0:0:
229,139,65267,1,8,1:0:0:0:
284,205,65440,5,2,1:3:0:0:
309,327,65612,1,0,3:0:0:0:
309,327,65698,1,0,1:0:0:0:
309,327,65784,1,4,0:3:0:0:
161,352,65957,6,0,L|87:333,1,70,2|0,0:0|3:0,0:0:0:0:
91,257,66302,2,0,L|169:277,1,70,8|2,1:0|0:0,0:0:0:0:
367,164,66646,6,0,B|406:127|454:142|454:142|503:102|451:44,1,181.999991668702,6|8,1:0|1:0,0:0:0:0:
301,122,67164,1,2,0:0:0:0:
301,122,67508,5,8,1:0:0:0:
331,266,67681,1,2,0:0:0:0:
301,122,67853,2,0,L|314:24,1,90.9999958343508,0|8,3:0|1:0,0:0:0:0:
429,217,68198,5,2,0:3:0:0:
222,188,68371,2,0,B|179:163|128:250|70:180|106:100|158:134|161:179,1,181.999991668702,6|8,1:2|1:0,0:0:0:0:
211,353,68888,1,2,1:2:0:0:
211,353,69233,5,0,1:0:0:0:
211,353,69319,1,0,1:0:0:0:
211,353,69405,1,2,0:0:0:0:
251,269,69577,1,0,3:0:0:0:
222,188,69750,6,0,P|232:142|237:93,1,90.9999958343508,8|0,1:0|2:0,0:0:0:0:
326,187,70095,2,0,P|281:193|142:220,1,181.999991668702,2|8,0:0|1:0,0:0:0:0:
25,110,70612,6,0,P|37:73|87:57,1,90.9999958343508,2|0,0:1|3:0,0:0:0:0:
154,88,70957,1,8,1:0:0:0:
138,230,71129,2,0,B|111:241|111:241|43:220,1,90.9999958343508,2|2,0:1|3:2,0:0:0:0:
77,356,71474,6,0,P|179:358|216:284,1,181.999991668702,10|0,1:2|3:2,0:0:0:0:
273,154,71991,1,2,0:0:0:0:
347,168,72164,1,10,1:2:0:0:
420,186,72336,2,0,B|461:190|461:190|468:184|468:184|524:194,2,90.9999958343508,2|2|4,0:0|3:2|0:3,0:0:0:0:
249,10,72853,2,0,P|223:48|232:106,1,90.9999958343508,2|0,0:2|3:0,0:0:0:0:
438,90,73198,5,10,1:0:0:0:
360,10,73371,1,2,0:0:0:0:
280,198,73543,2,0,P|356:186|442:181,1,140,6|8,1:2|1:0,0:0:0:0:
320,99,74060,5,2,0:0:0:0:
191,258,74233,2,0,B|155:259|159:250|103:249,2,70,0|8|2,3:0|1:0|0:0,0:0:0:0:
313,368,74750,5,0,3:0:0:0:
396,207,74922,2,0,P|438:189|517:254,1,140,8|4,1:0|3:0,0:0:0:0:
494,320,75440,5,2,0:3:0:0:
417,317,75612,1,10,1:0:0:0:
350,289,75784,1,2,1:2:0:0:
300,231,75957,1,0,3:0:0:0:
253,176,76129,1,2,3:2:0:0:
185,145,76302,1,2,0:0:0:0:
114,163,76474,1,2,3:2:0:0:
90,258,76646,5,8,1:0:0:0:
175,319,76819,1,2,0:0:0:0:
400,137,76991,5,4,1:3:0:0:
306,75,77164,1,2,0:0:0:0:
306,75,77250,1,2,0:0:0:0:
306,75,77336,1,10,1:2:0:0:
116,176,77508,5,2,1:3:0:0:
255,199,77681,1,4,1:3:0:0:
398,222,77853,1,2,1:2:0:0:
247,367,78026,5,8,1:3:0:0:
206,327,78112,1,0,1:3:0:0:
198,277,78198,1,0,1:3:0:0:
214,236,78284,1,8,1:3:0:0:
255,199,78371,5,8,3:0:0:0:
301,164,78457,1,8,3:0:0:0:
316,108,78543,1,8,3:0:0:0:
290,54,78629,1,8,3:0:0:0:
246,28,78715,5,12,1:0:0:0:
140,215,79233,5,2,0:0:0:0:
378,316,79750,5,2,0:0:0:0:
460,362,80095,6,0,L|455:339,1,22.7499989585877,2|0,0:0|0:0,0:0:0:0:
378,316,80267,2,0,P|379:297|387:274,1,33.2499991121292,2|0,0:0|0:0,0:0:0:0:
474,213,80440,6,0,L|460:139,1,59.5000011348725,4|0,1:0|0:0,0:0:0:0:
462,154,80698,1,2,0:0:0:0:
462,154,80784,1,0,1:0:0:0:
339,58,80957,1,2,0:0:0:0:
234,27,81129,6,0,B|218:37|218:37|199:135,1,119.000002269745,0|0,3:0|3:0,0:0:0:0:
198,135,81646,1,2,0:0:0:0:
104,251,81819,2,0,P|88:210|13:219,1,110.249996635437,2|0,3:1|0:0,0:0:0:0:
95,259,82164,6,0,P|142:256|183:221,1,94.5000003604889,2|0,3:1|0:0,0:0:0:0:
186,220,82422,1,2,0:0:0:0:
90,252,82508,6,0,B|52:279|36:336|80:421|186:378|131:323|80:338,1,210.000008010865,4|0,1:0|3:0,0:0:0:0:
28,204,83026,6,0,L|47:131,1,59.5000011348725,2|0,0:0|3:0,0:0:0:0:
42,146,83371,1,2,0:0:0:0:
170,262,83543,1,0,3:0:0:0:
170,262,83629,2,0,L|230:279,1,59.5000011348725,2|0,0:0|0:0,0:0:0:0:
240,286,83888,5,0,3:0:0:0:
354,263,84060,1,2,0:0:0:0:
356,261,84146,1,2,0:0:0:0:
358,259,84233,1,2,3:0:0:0:
450,309,84405,1,2,0:0:0:0:
337,162,84577,6,0,B|303:133|308:85|332:77|332:77|328:114|363:142,1,157.500006008148,4|0,1:0|0:0,0:0:0:0:
409,83,84922,1,0,3:0:0:0:
350,129,85095,6,0,B|297:124|297:124|266:136|266:136|197:131,1,140,2|2,0:0|0:0,0:0:0:0:
59,64,85612,1,2,0:3:0:0:
63,67,85698,1,2,0:3:0:0:
66,71,85784,1,2,0:0:0:0:
141,116,85957,2,0,L|228:104,1,73.4999977569581,2|0,1:2|0:0,0:0:0:0:
481,228,86302,6,0,B|451:206|451:206|477:141,1,87.5,2|2,1:3|0:0,0:0:0:0:
479,140,86560,1,2,0:0:0:0:
464,57,86646,6,0,B|417:45|392:88|392:88|411:134|367:168,1,157.500006008148,4|0,1:0|0:0,0:0:0:0:
314,113,86991,1,0,3:0:0:0:
491,250,87164,6,0,B|467:228|467:228|348:243,1,140,2|0,0:0|0:0,0:0:0:0:
360,241,87595,1,2,0:0:0:0:
360,241,87681,1,0,3:0:0:0:
289,248,87853,1,2,0:2:0:0:
224,280,88026,1,2,3:0:0:0:
153,310,88198,1,0,0:0:0:0:
75,299,88371,1,2,0:0:0:0:
224,280,88543,6,0,L|182:292,1,35,2|2,0:3|0:0,0:0:0:0:
0,346,88715,6,0,B|-15:296|44:235|112:273|70:304,1,157.500006008148,4|0,1:0|0:0,0:0:0:0:
70,305,89060,1,2,3:0:0:0:
214,122,89233,2,0,L|202:39,1,59.5000011348725,2|0,0:0|3:0,0:0:0:0:
205,63,89577,5,2,0:0:0:0:
226,147,89750,1,0,3:0:0:0:
140,191,89922,1,2,0:0:0:0:
266,172,90095,5,2,3:1:0:0:
213,278,90267,1,2,0:0:0:0:
318,371,90440,1,2,3:1:0:0:
460,232,90612,5,2,0:3:0:0:
460,221,90698,1,2,0:3:0:0:
465,212,90784,2,0,B|487:183|478:155|478:155|437:116|449:59,1,157.500006008148,6|0,1:0|0:0,0:0:0:0:
481,49,91129,6,0,L|525:59,1,29.7500005674362,0|0,3:0|0:0,0:0:0:0:
364,115,91302,2,0,L|338:181,1,59.5000011348725,2|0,1:2|3:0,0:0:0:0:
342,170,91646,1,2,0:0:0:0:
232,74,91819,2,0,B|230:66|230:66|167:46,1,70,0|0,3:0|0:0,0:0:0:0:
349,176,92164,6,0,P|288:196|303:261,1,115.50000352478,6|0,0:0|0:0,0:0:0:0:
370,306,92508,6,0,B|411:293|411:293|385:279|364:296,1,90.9999958343508,2|0,1:0|0:0,0:0:0:0:
295,321,92767,1,2,1:3:0:0:
233,366,92853,6,0,B|130:342|148:212|219:200|240:282|185:307,1,210.000008010865,6|2,1:0|0:3,0:0:0:0:
210,278,93371,2,0,L|125:301,2,70,2|2|0,0:0|3:2|0:0,0:0:0:0:
404,166,93888,1,2,0:0:0:0:
407,160,93974,1,2,0:0:0:0:
411,154,94060,1,2,0:3:0:0:
414,148,94146,1,0,0:0:0:0:
418,142,94233,5,2,0:0:0:0:
349,176,94405,1,0,0:0:0:0:
405,230,94577,1,2,0:3:0:0:
474,196,94750,1,0,0:0:0:0:
238,122,94922,6,0,L|170:133,1,59.5000011348725,6|0,0:0|0:0,0:0:0:0:
269,97,95267,1,2,3:0:0:0:
65,150,95440,6,0,B|99:153|130:187|130:187|218:170|165:113,1,167.999994873047,2|0,0:0|0:0,0:0:0:0:
178,131,95957,6,0,P|144:158|154:217,1,97.9999970092774,12|0,1:0|3:0,0:0:0:0:
177,279,96215,1,8,3:0:0:0:
184,288,96302,1,8,3:0:0:0:
276,159,96474,5,2,0:0:0:0:
95,32,96646,6,0,B|55:38|-2:15|-2:15|55:38|72:74,1,188.999994232178,12|0,1:0|0:0,0:0:0:0:
166,110,96991,6,0,L|227:101,1,41.9999987182618,14|0,1:0|0:0,0:0:0:0:
396,44,97250,1,2,1:2:0:0:
403,49,97336,2,0,L|343:42,1,41.9999987182618,8|0,3:0|0:0,0:0:0:0:
265,23,97508,6,0,B|251:28|251:28|229:84|229:84|319:117,1,167.999994873047,10|2,1:2|0:0,0:0:0:0:
511,260,98026,2,0,P|453:263|439:179,1,125.999996154785,10|0,1:2|0:0,0:0:0:0:
426,209,98371,2,0,P|421:252|385:284,1,83.9999974365235,2|0,1:2|0:0,0:0:0:0:
211,381,98715,2,0,P|169:376|139:348,1,83.9999974365235,10|0,1:0|0:0,0:0:0:0:
101,279,98974,1,8,1:3:0:0:
99,268,99060,6,0,B|34:253|34:253|-32:304|35:347,1,168,12|0,0:1|0:0,0:0:0:0:
136,364,99405,1,2,1:2:0:0:
315,196,99577,6,0,B|342:135|342:135|357:98|307:63|272:80,1,167.999994873047,12|2,1:2|0:3,0:0:0:0:
265,82,100008,1,2,0:0:0:0:
252,99,100095,1,10,1:2:0:0:
315,196,100267,1,2,0:0:0:0:
390,105,100440,2,0,L|444:88,2,41.9999987182618,2|2|2,0:0|0:3|0:3,0:0:0:0:
224,206,100784,6,0,B|176:200|176:200|150:210|150:210|80:201,1,125.999996154785,10|0,1:0|0:0,0:0:0:0:
0,116,101129,6,0,B|47:100|47:100|25:-1,1,112,12|0,1:0|0:0,0:0:0:0:
33,39,101388,1,2,1:2:0:0:
33,39,101474,1,8,3:0:0:0:
196,1,101646,2,0,B|236:-10|267:23|267:23|272:72|319:95,1,167.999994873047,12|2,1:2|0:0,0:0:0:0:
512,22,102164,6,0,B|503:15|503:15|412:30,1,83.9999974365235,8|0,1:0|0:0,0:0:0:0:
327,103,102508,2,0,B|335:104|335:104|305:237,1,125.999996154785,2|0,3:3|0:0,0:0:0:0:
400,288,102853,6,0,B|489:303|489:303|450:292|393:244,1,157.500006008148,10|0,1:0|0:0,0:0:0:0:
309,219,103198,6,0,L|225:233,1,70,6|0,1:2|0:0,0:0:0:0:
161,245,103457,1,8,1:0:0:0:
151,247,103543,1,8,3:0:0:0:
24,12,103715,6,0,B|29:18|29:18|9:107,1,83.9999974365235,12|2,1:2|0:0,0:0:0:0:
12,92,104060,1,2,0:3:0:0:
132,253,104233,2,0,P|76:234|101:178,1,125.999996154785,12|0,1:2|0:0,0:0:0:0:
112,178,104577,1,6,0:2:0:0:
300,183,104750,5,8,2:1:0:0:
315,177,104836,1,8,2:1:0:0:
354,179,104922,5,8,1:0:0:0:
379,190,105008,1,8,3:0:0:0:
423,207,105095,5,2,3:1:0:0:
455,198,105181,1,10,1:0:0:0:
512,140,105267,6,0,B|518:125|518:125|501:50,1,83.9999974365235,6|0,1:0|0:0,0:0:0:0:
487,34,105526,2,0,L|420:54,1,41.9999987182618,8|0,0:0|3:0,0:0:0:0:
197,164,105784,6,0,B|135:192|52:163|47:79|164:70|127:162,1,195.999994018555,12|2,1:0|0:0,0:0:0:0:
131,120,106302,2,0,B|121:143|121:143|117:164|117:164|104:193,1,70,12|0,1:2|0:0,0:0:0:0:
277,73,106646,2,0,B|300:82|300:82|321:87|321:87|350:100,1,70,2|2,3:2|0:3,0:0:0:0:
93,189,106991,6,0,B|80:195|80:195|51:273,1,70,10|0,1:0|0:0,0:0:0:0:
53,264,107250,1,8,1:0:0:0:
31,342,107336,6,0,B|98:337|98:337|113:340|113:340|191:335,1,157.500006008148,14|0,1:0|0:0,0:0:0:0:
268,325,107681,1,8,3:0:0:0:
370,379,107853,2,0,P|385:360|383:330,1,52.5000020027161,12|0,1:2|0:0,0:0:0:0:
494,212,108026,5,2,1:2:0:0:
382,249,108198,1,2,0:0:0:0:
230,150,108371,5,12,1:2:0:0:
330,181,108543,1,2,0:0:0:0:
422,324,108715,5,2,1:0:0:0:
254,371,108888,1,2,1:0:0:0:
85,210,109060,2,0,L|21:221,1,62.9999980773926,10|0,1:0|0:0,0:0:0:0:
23,221,109319,1,2,0:0:0:0:
23,221,109405,6,0,L|26:273,1,41.9999987182618,6|0,1:0|0:0,0:0:0:0:
198,137,109664,1,8,1:0:0:0:
209,132,109750,2,0,L|192:208,1,41.9999987182618,2|0,0:0|0:0,0:0:0:0:
272,249,109922,6,0,B|307:265|342:242|347:209|347:209|312:183|311:135,1,167.999994873047,10|2,1:2|0:0,0:0:0:0:
431,13,110440,2,0,P|464:1|495:76,1,125.999996154785,8|0,1:0|0:0,0:0:0:0:
448,127,110784,2,0,L|387:137,1,56,2|0,1:2|0:0,0:0:0:0:
99,46,111129,6,0,B|62:47|32:19|32:19|27:25|27:25|-12:56|51:108,1,157.500006008148,12|0,1:0|0:0,0:0:0:0:
111,49,111474,6,0,B|148:45|148:45|159:47|159:47|206:41,1,90.9999958343508,14|0,1:2|0:0,0:0:0:0:
280,24,111733,1,0,1:0:0:0:
292,21,111819,1,10,3:0:0:0:
235,208,111991,5,10,1:0:0:0:
279,122,112164,5,2,0:0:0:0:
145,201,112336,1,2,1:2:0:0:
284,291,112508,2,0,L|438:274,1,136.499993751526,8|0,1:0|0:0,0:0:0:0:
419,276,112853,5,8,1:3:0:0:
284,291,113026,5,8,1:3:0:0:
171,307,113198,5,8,1:0:0:0:
77,321,113371,5,10,1:0:0:0:
419,276,113543,1,4,1:0:0:0:
256,192,113628,12,8,115223,1:0:0:0:
495,49,115610,6,0,P|481:34|425:25,1,70,4|0,0:2|2:0,0:0:0:0:
369,62,115954,1,2,0:0:0:0:
381,135,116127,2,0,B|422:163|475:124|475:124|447:134|433:133,1,140,8|0,1:0|3:0,0:0:0:0:
276,132,116644,2,0,L|199:148,1,70,12|0,0:3|0:0,0:0:0:0:
352,207,116989,5,2,0:0:0:0:
197,160,117161,1,2,0:0:0:0:
197,160,117247,1,0,0:0:0:0:
197,160,117334,2,0,L|123:149,1,70,4|0,3:0|3:0,0:0:0:0:
442,328,117851,6,0,L|528:319,1,70,8|4,1:0|0:3,0:0:0:0:
352,207,118196,1,2,3:0:0:0:
220,330,118368,6,0,B|159:365|113:344|100:294|178:324,1,141.750000540733,12|0,0:0|0:0,0:0:0:0:
227,335,118713,2,0,P|285:345|390:373,1,141.750000540733,6|0,0:3|0:0,0:0:0:0:
465,320,119058,2,0,B|508:300|508:300|511:264|511:264|434:232|400:292,1,189.000000720978,6|2,0:3|0:0,0:0:0:0:
301,365,119575,1,8,0:0:0:0:
128,205,119747,6,0,P|181:195|259:268,1,161.000003070831,4|10,0:3|0:0,0:0:0:0:
104,353,120351,5,2,0:0:0:0:
94,359,120437,2,0,P|53:374|-16:360,1,80.5000015354157,4|0,0:3|3:0,0:0:0:0:
31,199,120782,5,2,3:2:0:0:
31,199,120954,1,0,3:0:0:0:
31,199,121299,6,0,L|130:186,1,80.5000015354157,10|4,1:2|0:3,0:0:0:0:
267,173,121644,1,0,3:0:0:0:
175,60,121816,2,0,B|148:101|210:172|184:225,2,161.000003070831,10|4|4,1:2|0:3|3:2,0:0:0:0:
88,88,122678,5,2,0:0:0:0:
267,173,122851,2,0,P|307:178|357:154,1,80.5000015354157,4|8,0:3|1:2,0:0:0:0:
480,43,123368,5,2,3:2:0:0:
348,173,123540,2,0,P|307:187|255:179,1,80.5000015354157,8|0,1:0|0:0,0:0:0:0:
214,108,123885,6,0,P|234:171|244:274,1,161.000003070831,4|4,0:3|3:0,0:0:0:0:
184,337,124402,1,2,3:2:0:0:
108,232,124574,1,4,0:3:0:0:
259,194,124747,2,0,P|289:209|416:150,1,161.000003070831,10|0,1:2|3:2,0:0:0:0:
199,94,125264,5,10,0:0:0:0:
19,176,125523,1,2,1:3:0:0:
29,173,125610,2,0,B|85:169|85:169|97:162|97:162|181:169,1,152.250004646301,2|0,1:2|0:0,0:0:0:0:
199,94,125954,6,0,P|176:199|169:295,1,189.000000720978,6|4,1:3|0:3,0:0:0:0:
348,198,126472,6,0,P|291:179|247:178,1,94.5000003604889,10|4,1:2|0:3,0:0:0:0:
413,239,126816,1,2,1:2:0:0:
251,161,126988,2,0,P|190:168|162:184,1,94.5000003604889,10|0,0:0|0:0,0:0:0:0:
72,310,127333,6,0,P|28:279|27:167,1,141.750000540733,2|0,1:2|0:0,0:0:0:0:
106,116,127678,2,0,P|147:146|152:200,2,94.5000003604889,4|2|4,3:0|0:3|0:3,0:0:0:0:
12,196,128196,2,0,P|96:211|190:212,1,167.999994873047,10|2,1:2|1:2,0:0:0:0:
410,174,128712,5,8,1:0:0:0:
338,296,128885,1,0,3:0:0:0:
335,143,129057,1,10,3:0:0:0:
414,260,129230,1,0,3:0:0:0:
176,231,129402,6,0,P|283:219|355:220,1,167.999994873047,4|0,1:0|0:0,0:0:0:0:
512,61,129920,2,0,B|421:67|414:30|333:39,1,167.999994873047,10|0,1:2|3:0,0:0:0:0:
176,110,130437,6,0,L|104:131,2,55.9999982910157,10|2|2,1:2|0:0|0:0,0:0:0:0:
237,54,130782,6,0,L|253:-15,2,55.9999982910157,4|2|2,1:3|1:2|1:2,0:0:0:0:
261,131,131126,5,6,3:0:0:0:
261,131,131299,1,0,3:0:0:0:
261,131,131644,6,0,B|326:175|294:228|372:274,1,167.999994873047,10|0,1:2|3:0,0:0:0:0:
480,176,132161,6,0,B|446:179|446:179|430:188|430:188|391:193,1,83.9999974365235,10|0,1:2|0:0,0:0:0:0:
228,207,132505,1,6,0:3:0:0:
45,235,132678,1,2,0:0:0:0:
45,235,132765,1,0,0:0:0:0:
45,235,132851,2,0,P|70:214|158:287,1,167.999994873047,4|4,3:0|0:3,0:0:0:0:
59,135,133368,6,0,P|50:100|70:35,1,83.9999974365235,8|4,1:0|0:3,0:0:0:0:
209,1,133712,2,0,P|218:43|212:102,1,83.9999974365235,0|8,3:0|1:0,0:0:0:0:
196,155,133971,1,0,1:0:0:0:
196,155,134057,1,2,0:2:0:0:
207,233,134230,5,6,0:3:0:0:
267,274,134402,1,2,0:0:0:0:
339,289,134574,1,6,3:0:0:0:
401,256,134747,1,2,3:2:0:0:
432,193,134919,1,6,0:3:0:0:
487,140,135092,1,8,1:0:0:0:
341,20,135264,6,0,P|332:69|334:118,1,83.9999974365235,6|0,0:3|3:0,0:0:0:0:
147,252,135609,6,0,B|197:245|197:245|203:238|203:238|236:231,1,83.9999974365235,10|0,1:2|0:0,0:0:0:0:
482,289,135954,6,0,B|437:279|437:279|428:272|428:272|370:263,1,83.9999974365235,6|0,0:3|0:0,0:0:0:0:
332,197,136299,5,6,3:2:0:0:
254,140,136471,1,2,0:0:0:0:
423,161,136643,1,2,0:3:0:0:
307,289,136816,2,0,P|294:328|284:362,1,70,8|0,1:0|3:0,0:0:0:0:
423,161,137334,2,0,L|504:123,1,83.9999974365235,10|0,1:2|0:0,0:0:0:0:
254,140,137678,2,0,P|211:120|160:104,1,83.9999974365235,4|0,0:3|0:0,0:0:0:0:
338,111,138023,5,6,3:0:0:0:
237,231,138195,1,0,3:0:0:0:
406,260,138368,1,6,0:3:0:0:
338,111,138541,6,0,P|336:77|326:32,1,70,10|2,1:2|3:0,0:0:0:0:
406,260,139058,2,0,P|444:279|497:306,1,83.9999974365235,10|0,1:2|0:0,0:0:0:0:
240,241,139403,2,0,P|202:251|144:264,1,83.9999974365235,4|0,0:3|0:0,0:0:0:0:
30,216,139747,6,0,B|10:176|10:176|38:140,2,83.9999974365235,6|0|4,3:0|0:0|0:3,0:0:0:0:
246,102,140265,6,0,P|189:97|74:68,1,167.999994873047,10|2,1:2|3:2,0:0:0:0:
210,191,140782,2,0,P|169:197|113:213,1,83.9999974365235,8|0,1:0|0:0,0:0:0:0:
299,322,141127,2,0,B|321:282|321:282|284:233,1,83.9999974365235,2|0,0:0|0:0,0:0:0:0:
213,359,141472,2,0,P|170:357|116:344,2,83.9999974365235,2|0|4,3:2|0:0|0:3,0:0:0:0:
378,226,141989,5,8,1:0:0:0:
380,216,142074,1,0,1:0:0:0:
384,206,142161,6,0,L|399:142,1,48.9999985046387,2|0,1:2|0:0,0:0:0:0:
298,242,142333,5,2,0:0:0:0:
220,257,142505,1,8,1:0:0:0:
143,277,142678,1,0,3:0:0:0:
199,113,142850,5,2,0:0:0:0:
108,253,143023,1,0,0:0:0:0:
327,357,143195,6,0,P|364:353|402:305,1,97.9999970092774,4|2,0:1|0:0,0:0:0:0:
357,180,143540,1,0,0:0:0:0:
281,154,143712,1,0,0:0:0:0:
250,219,143885,1,2,0:0:0:0:
277,291,144057,1,2,0:0:0:0:
142,348,144230,5,0,0:0:0:0:
220,355,144402,1,0,0:0:0:0:
264,304,144574,1,2,0:0:0:0:
237,234,144747,1,2,0:0:0:0:
139,177,144919,6,0,P|99:198|95:260,1,97.9999970092774,2|0,0:3|0:0,0:0:0:0:
286,167,145264,5,0,0:0:0:0:
226,98,145437,1,0,0:0:0:0:
294,45,145609,1,2,0:0:0:0:
236,3,145781,1,2,0:0:0:0:
334,109,145954,5,0,0:0:0:0:
206,190,146126,1,0,0:0:0:0:
383,268,146299,1,8,1:0:0:0:
134,269,146644,6,0,P|140:222|215:191,1,125.999996154785,0|0,3:0|0:0,0:0:0:0:
267,225,146988,2,0,B|309:217|309:217|314:210|314:210|370:202,1,83.9999974365235,8|0,0:0|0:0,0:0:0:0:
383,268,147247,1,8,0:0:0:0:
374,287,147334,6,0,L|365:339,1,41.9999987182618
358,160,147678,5,0,3:0:0:0:
397,90,147851,1,0,3:0:0:0:
476,98,148023,1,8,0:0:0:0:
351,22,148196,1,8,0:0:0:0:
348,27,148281,1,8,0:0:0:0:
343,31,148368,2,0,B|303:25|303:25|288:29|288:29|248:19,1,83.9999974365235
148,110,148712,6,0,B|184:138|184:138|199:95,1,83.9999974365235,8|0,0:0|0:0,0:0:0:0:
130,191,148971,1,8,0:0:0:0:
123,201,149057,2,0,L|42:228,1,83.9999974365235,0|2,3:0|0:0,0:0:0:0:
225,309,149402,5,0,3:0:0:0:
153,280,149574,1,0,3:0:0:0:
225,309,149747,2,0,P|248:269|235:216,1,83.9999974365235,8|0,0:0|0:0,0:0:0:0:
308,150,150092,6,0,B|335:165|346:194|346:194|342:159|360:115,1,125.999996154785,4|0,3:2|0:0,0:0:0:0:
376,129,150437,2,0,L|276:106,1,83.9999974365235,8|0,0:0|0:0,0:0:0:0:
230,174,150695,1,8,0:0:0:0:
223,173,150782,6,0,L|210:237,1,41.9999987182618,0|0,3:0|0:0,0:0:0:0:
9,83,151127,5,0,3:0:0:0:
62,57,151299,1,0,3:0:0:0:
130,85,151471,1,8,0:0:0:0:
130,171,151643,1,8,0:0:0:0:
130,171,151730,1,8,0:0:0:0:
130,171,151816,2,0,P|141:214|147:259,1,83.9999974365235,0|0,3:0|0:0,0:0:0:0:
10,364,152161,6,0,B|54:354|54:354|67:347|67:347|118:336,1,83.9999974365235,8|0,0:0|0:0,0:0:0:0:
183,352,152419,1,8,0:0:0:0:
194,354,152506,6,0,L|209:307,1,41.9999987182618,0|0,3:0|0:0,0:0:0:0:
271,126,152850,6,0,P|263:146|311:202,1,83.9999974365235,0|0,0:0|3:0,0:0:0:0:
409,160,153196,2,0,P|415:119|389:88,1,83.9999974365235,8|0,0:0|0:0,0:0:0:0:
336,26,153454,5,8,0:0:0:0:
342,10,153540,2,0,B|336:165,1,125.999996154785,0|0,3:0|0:0,0:0:0:0:
361,236,153885,2,0,P|407:244|461:258,1,83.9999974365235,8|0,0:0|0:0,0:0:0:0:
290,197,154143,1,8,0:0:0:0:
264,205,154230,2,0,L|194:218,1,41.9999987182618,0|0,3:0|0:0,0:0:0:0:
13,135,154575,5,0,3:0:0:0:
129,106,154747,1,0,3:0:0:0:
279,110,154920,6,0,B|263:122|263:122|203:102,1,83.9999974365235,8|0,0:0|0:0,0:0:0:0:
110,25,155178,1,8,0:0:0:0:
103,26,155264,2,0,L|-4:45,1,83.9999974365235,0|0,3:0|0:0,0:0:0:0:
115,201,155609,6,0,P|143:205|202:159,1,83.9999974365235,8|0,0:0|0:0,0:0:0:0:
205,71,155868,1,8,0:0:0:0:
216,72,155954,6,0,L|205:11,1,41.9999987182618,0|0,3:0|0:0,0:0:0:0:
377,182,156299,6,0,B|415:188|415:188|428:195|428:195|469:203,1,83.9999974365235,0|0,3:0|3:0,0:0:0:0:
451,282,156643,2,0,B|416:273|416:273|406:278|406:278|359:267,1,83.9999974365235,8|0,0:0|0:0,0:0:0:0:
316,318,156902,1,8,0:0:0:0:
304,329,156989,6,0,P|241:311|264:254,1,125.999996154785,4|0,3:2|0:0,0:0:0:0:
175,235,157333,2,0,P|194:204|240:189,1,83.9999974365235,8|0,0:0|0:0,0:0:0:0:
307,153,157592,5,8,0:0:0:0:
320,164,157678,2,0,L|313:224,1,41.9999987182618,0|0,3:0|0:0,0:0:0:0:
45,243,158023,5,2,0:0:0:0:
180,313,158195,1,0,3:0:0:0:
114,356,158368,1,8,0:0:0:0:
110,191,158540,1,8,0:0:0:0:
69,96,158713,6,0,B|50:107|47:140|47:140|78:104|147:102,1,136.499993751526,0|0,3:0|0:0,0:0:0:0:
196,0,159058,6,0,P|223:26|217:98,1,90.9999958343508,8|0,0:0|0:0,0:0:0:0:
173,248,159402,2,0,P|207:219|218:165,1,90.9999958343508,0|8,3:0|0:0,0:0:0:0:
364,145,159747,2,0,B|288:126|288:126|335:112,1,90.9999958343508,0|0,3:0|3:0,0:0:0:0:
365,220,160092,5,8,0:0:0:0:
467,108,160264,2,0,L|527:96,1,45.4999979171754,10|8,0:2|0:0,0:0:0:0:
512,100,160437,6,0,B|408:76|408:76|459:132,1,146.999995513916,0|0,3:0|0:0,0:0:0:0:
316,152,160782,6,0,L|239:168,1,62.9999980773926,8|0,0:0|0:0,0:0:0:0:
224,163,161040,1,8,0:0:0:0:
206,156,161126,1,0,3:0:0:0:
312,241,161299,2,0,B|298:255|298:255|181:240,1,125.999996154785,2|0,3:2|3:0,0:0:0:0:
62,163,161816,6,0,L|40:227,1,62.9999980773926,8|0,0:0|0:0,0:0:0:0:
41,222,162074,2,0,L|81:234,1,31.4999990386963,8|0,0:0|3:0,0:0:0:0:
185,138,162333,1,8,0:0:0:0:
314,216,162505,6,0,L|298:142,1,62.9999980773926,8|0,0:0|0:0,0:0:0:0:
300,154,162764,2,0,L|257:164,1,31.4999990386963,8|0,0:0|3:0,0:0:0:0:
349,41,163023,2,0,B|361:81|361:81|384:106|384:106|395:161,1,125.999996154785,8|0,0:0|3:0,0:0:0:0:
448,368,163540,6,0,P|470:352|462:306,1,62.9999980773926,8|0,0:0|0:0,0:0:0:0:
456,276,163799,1,8,0:0:0:0:
424,248,163885,6,0,B|412:288|412:288|460:300|508:248|508:204,1,181.999991668702,4|8,3:2|0:0,0:0:0:0:
336,56,164488,1,8,0:0:0:0:
336,56,164574,2,0,L|264:72,1,62.9999980773926,0|8,3:0|0:0,0:0:0:0:
360,132,164919,5,8,0:0:0:0:
264,60,165092,2,0,L|172:44,1,62.9999980773926,0|8,3:0|0:0,0:0:0:0:
201,49,165437,1,8,0:0:0:0:
124,132,165609,2,0,L|-16:156,1,125.999996154785,0|8,3:0|0:0,0:0:0:0:
252,256,166212,5,8,0:0:0:0:
252,256,166299,2,0,L|268:332,1,62.9999980773926,0|8,3:0|0:0,0:0:0:0:
164,264,166643,1,2,0:0:0:0:
188,336,166816,1,0,3:0:0:0:
336,256,166988,1,8,0:0:0:0:
312,332,167161,1,8,0:0:0:0:
308,340,167247,1,8,0:0:0:0:
306,349,167334,6,0,B|350:378|398:357|405:324|405:324|394:292,1,136.499993751526,2|0,3:2|0:0,0:0:0:0:
496,219,167678,6,0,B|483:209|483:209|395:225,1,94.499997116089,8|8,0:0|0:0,0:0:0:0:
396,226,168023,1,0,3:0:0:0:
297,98,168196,6,0,B|298:64|292:30|292:30|305:56|323:93,1,125.999996154785,10|0,0:0|3:0,0:0:0:0:
317,81,168713,2,0,B|253:70|260:100|178:79,2,125.999996154785,8|8|8,0:0|3:2|0:0,0:0:0:0:
189,162,169574,1,0,3:0:0:0:
183,165,169661,1,8,0:0:0:0:
177,168,169747,2,0,P|151:187|126:220,1,62.9999980773926,0|8,3:0|0:0,0:0:0:0:
352,110,170092,2,0,P|378:129|403:162,1,62.9999980773926,0|8,3:0|0:0,0:0:0:0:
397,152,170437,6,0,P|426:126|427:34,2,125.999996154785,8|10|8,0:0|3:2|0:0,0:0:0:0:
184,279,171385,1,8,0:0:0:0:
184,279,171471,1,0,3:0:0:0:
132,193,171643,2,0,L|149:124,1,62.9999980773926,0|2,3:0|0:0,0:0:0:0:
20,210,171988,5,0,3:0:0:0:
158,131,172161,2,0,P|151:106|102:77,1,77.0000023498536,10|0,0:0|0:0,0:0:0:0:
200,308,172505,2,0,P|193:333|144:362,1,77.0000023498536,10|0,0:0|0:0,0:0:0:0:
145,360,172851,2,0,P|216:340|307:343,1,154.000004699707,0|8,3:0|0:0,0:0:0:0:
374,377,173368,1,8,0:0:0:0:
374,377,173454,1,8,0:0:0:0:
374,377,173540,1,0,3:0:0:0:
356,182,173712,6,0,P|358:165|376:135,1,38.5000011749268,0|8,0:0|0:0,0:0:0:0:
492,48,173885,5,12,0:0:0:0:
492,48,174230,2,0,B|470:25|426:31|426:31|463:55|465:105,1,140,0|0,3:0|0:0,0:0:0:0:
331,165,174747,2,0,L|249:187,1,70,2|0,0:0|3:0,0:0:0:0:
345,143,175092,5,2,0:0:0:0:
239,209,175264,2,0,P|205:205|172:176,1,70,0|0,3:0|0:0,0:0:0:0:
305,314,175609,2,0,P|309:280|338:247,1,70,0|0,3:0|0:0,0:0:0:0:
402,215,175868,1,8,0:0:0:0:
402,215,175954,1,2,3:2:0:0:
160,170,176299,5,0,3:0:0:0:
68,363,176471,2,0,P|47:309|91:339,1,140,2|10,0:0|0:0,0:0:0:0:
218,371,176988,6,0,L|299:361,1,70,0|0,3:0|0:0,0:0:0:0:
407,301,177333,2,0,L|476:292,1,70,0|0,3:0|0:0,0:0:0:0:
476,292,177592,1,8,0:0:0:0:
476,292,177678,1,0,3:0:0:0:
221,189,177850,5,0,3:0:0:0:
254,123,178023,1,10,0:2:0:0:
177,194,178195,1,0,0:2:0:0:
295,127,178368,1,2,3:2:0:0:
198,232,178540,1,0,0:0:0:0:
277,92,178712,2,0,P|286:76|292:9,1,70,0|8,3:0|0:0,0:0:0:0:
300,212,179057,6,0,L|385:234,1,70,0|8,3:0|0:0,0:0:0:0:
191,120,179402,2,0,L|40:144,1,140,2|8,3:2|0:0,0:0:0:0:
56,147,179919,2,0,L|66:203,1,35,0|8,0:0|0:0,0:0:0:0:
79,320,180092,5,0,3:0:0:0:
214,252,180264,1,8,0:0:0:0:
141,225,180437,1,0,3:0:0:0:
155,302,180609,1,2,0:0:0:0:
286,372,180781,2,0,L|301:298,1,70,8|0,0:0|0:0,0:0:0:0:
299,303,181040,1,8,0:0:0:0:
299,303,181126,1,2,3:2:0:0:
427,7,181471,6,0,B|440:19|440:19|422:123,1,105,8|8,0:0|0:0,0:0:0:0:
423,113,181816,1,0,3:0:0:0:
393,301,181988,6,0,L|388:257,1,35,8|0,0:0|0:0,0:0:0:0:
386,245,182161,1,0,3:0:0:0:
284,289,182333,1,2,0:0:0:0:
154,249,182506,2,0,P|82:237|6:237,1,140,10|0,0:0|3:0,0:0:0:0:
22,241,183023,6,0,P|53:234|87:192,1,70,2|0,0:0|3:0,0:0:0:0:
292,94,183454,1,8,0:0:0:0:
292,94,183540,2,0,P|285:63|243:29,1,70,0|0,3:0|0:0,0:0:0:0:
248,40,183885,2,0,P|298:62|397:72,1,140,0|8,3:0|0:0,0:0:0:0:
499,150,184402,1,2,0:0:0:0:
505,152,184488,1,8,0:0:0:0:
511,153,184574,1,2,3:2:0:0:
437,109,184747,5,2,0:2:0:0:
315,146,184919,1,0,3:0:0:0:
204,92,185092,5,2,0:0:0:0:
199,89,185178,1,8,0:0:0:0:
194,86,185264,1,0,3:3:0:0:
54,157,185437,1,10,0:0:0:0:
184,252,185609,1,0,3:0:0:0:
184,252,185695,1,8,0:0:0:0:
148,180,185868,1,8,0:0:0:0:
144,171,185954,5,0,3:0:0:0:
331,35,186126,1,2,0:0:0:0:
456,136,186299,1,2,3:2:0:0:
331,35,186472,6,0,L|320:93,1,41.9999987182618,2|8,3:2|0:0,0:0:0:0:
341,183,186816,1,2,0:0:0:0:
342,186,186902,1,8,0:0:0:0:
344,189,186988,1,0,3:0:0:0:
342,29,187161,5,2,0:0:0:0:
308,176,187333,1,0,3:0:0:0:
342,29,187505,1,2,0:0:0:0:
310,277,187678,5,12,0:2:0:0:
161,357,187937,5,8,0:0:0:0:
161,357,188023,2,0,B|86:399|24:358|77:296|88:340,1,154.000004699707,0|8,3:0|0:0,0:0:0:0:
218,247,188540,2,0,B|194:214|225:169|225:169|217:127|165:127,1,154.000004699707,2|2,0:0|0:0,0:0:0:0:
218,247,189057,1,2,0:0:0:0:
175,127,189402,6,0,B|164:119|164:119|180:37,1,77.0000023498536,10|0,0:0|0:0,0:0:0:0:
179,46,189661,1,8,0:0:0:0:
196,148,189747,6,0,B|175:178|175:178|103:206|66:150,1,154.000004699707,2|2,3:2|0:0,0:0:0:0:
214,272,190264,2,0,L|268:290,2,38.5000011749268,2|8|0,0:0|0:0|3:0,0:0:0:0:
214,272,190609,2,0,B|202:327|195:309|184:357,1,77.0000023498536,0|0,0:0|0:0,0:0:0:0:
342,111,191126,2,0,B|360:95|351:61|351:61|323:27|283:38,1,115.50000352478,2|0,0:0|0:0,0:0:0:0:
323,117,191471,6,0,B|412:133|473:78|473:78,1,154.000004699707,2|0,3:2|3:0,0:0:0:0:
254,207,191988,1,2,0:0:0:0:
336,237,192161,6,0,P|310:211|250:214,1,77.0000023498536,0|8,3:0|0:0,0:0:0:0:
105,126,192505,2,0,P|67:131|40:157,1,77.0000023498536,0|2,3:0|0:0,0:0:0:0:
40,157,192764,1,8,0:0:0:0:
40,157,192850,1,0,3:0:0:0:
201,290,193023,5,2,0:0:0:0:
172,218,193195,1,0,3:0:0:0:
201,290,193368,1,2,0:0:0:0:
244,171,193540,5,8,0:0:0:0:
341,138,193712,1,2,0:0:0:0:
244,171,193885,1,2,0:0:0:0:
209,297,194057,5,2,0:0:0:0:
37,258,194230,1,2,0:0:0:0:
209,297,194402,1,2,0:0:0:0:
236,372,194574,5,8,3:2:0:0:
240,380,194747,1,2,0:0:0:0:
256,128,194919,5,6,3:2:0:0:
380,192,195092,2,0,P|364:224|324:240,1,77.0000023498536,2|0,0:0|0:0,0:0:0:0:
450,225,195437,6,0,B|423:198|380:193|380:193|423:183|458:214,1,154.000004699707,2|0,0:1|0:0,0:0:0:0:
305,375,195954,2,0,B|282:343|310:303|310:303|348:286|382:275,2,154.000004699707,2|2|2,0:1|0:1|0:1,0:0:0:0:
91,80,196988,6,0,L|-3:66,1,77.0000023498536,2|0,3:2|0:0,0:0:0:0:
4,59,197247,1,8,0:0:0:0:
12,50,197333,1,0,3:0:0:0:
162,134,197505,5,2,0:0:0:0:
79,164,197678,1,0,3:0:0:0:
221,79,197850,5,2,0:0:0:0:
360,192,198023,2,2,P|423:190|451:124,1,115.50000352478,2|2,3:2|0:2,3:2:0:0:
472,64,198368,5,4,0:0:0:0:
452,52,198540,1,2,0:0:0:0:
384,88,198712,5,4,0:0:0:0:
344,68,198885,1,2,0:0:0:0:
272,104,199057,5,4,0:0:0:0:
220,94,199230,1,2,0:0:0:0:
144,164,199402,5,4,0:0:0:0:
68,160,199574,1,2,0:0:0:0:
104,240,199747,5,4,0:0:0:0:
16,272,199919,1,2,0:0:0:0:
192,284,200092,5,4,0:0:0:0:
120,376,200264,1,2,0:0:0:0:
304,248,200437,5,4,0:0:0:0:
272,384,200609,1,2,0:0:0:0:
384,156,200781,5,4,0:0:0:0:
440,324,200954,1,2,0:0:0:0:
376,8,201126,5,4,0:0:0:0:
508,176,201299,1,2,0:0:0:0:
250,227,201472,6,0,B|186:177|218:41|302:113|326:177|206:145,1,210.000008010865,14|4,0:0|2:3,0:0:0:0:
323,331,202850,6,0,P|323:304|315:279,1,52.5,2|0,0:0|0:0,0:0:0:0:
267,223,203195,6,0,P|266:261|240:289,1,78.7500030040742,2|0,0:0|0:0,0:0:0:0:
192,224,203540,6,0,P|242:195|251:139,1,105,2|0,0:0|0:0,0:0:0:0:
179,67,203884,6,0,B|120:44|120:44|56:36|56:36|72:64|126:64,1,181.999991668702,4|8,1:0|0:0,0:0:0:0:
241,17,204401,1,2,0:0:0:0:
335,119,204574,6,0,B|379:108|379:108|391:111|391:111|440:93,1,90.9999958343508,2|0,3:0|0:0,0:0:0:0:
319,42,204833,1,2,0:3:0:0:
319,42,204919,1,0,3:0:0:0:
198,190,205091,6,0,P|207:233|212:257,1,45.4999979171754,8|0,0:0|0:0,0:0:0:0:
157,99,205264,2,0,P|161:60|160:20,1,73.4999977569581
131,251,205522,5,2,0:3:0:0:
127,255,205609,2,0,B|79:250|79:250|133:213,1,94.5000003604889,8|0,0:0|0:0,0:0:0:0:
208,235,205866,1,10,3:0:0:0:
261,295,205953,6,0,B|313:340|413:347|427:278|366:228|332:300,1,210.000008010865,4|8,1:0|0:0,0:0:0:0:
180,319,206471,2,0,L|159:382,1,43.75,2|0,0:0|0:0,0:0:0:0:
208,235,206643,2,0,L|226:180,1,43.75,8|0,1:0|0:0,0:0:0:0:
133,253,206816,2,0,L|72:236,1,43.75,2|0,3:2|0:0,0:0:0:0:
261,295,206987,1,0,3:0:0:0:
261,295,207074,2,0,L|358:323,1,87.5,2|0,0:0|0:0,0:0:0:0:
208,198,207332,5,0,3:0:0:0:
173,118,207504,1,2,0:3:0:0:
175,113,207590,1,2,0:3:0:0:
178,107,207677,1,8,0:0:0:0:
220,41,207849,1,2,0:0:0:0:
137,3,208022,6,0,P|97:12|107:127,1,157.500006008148,4|2,1:0|0:3,0:0:0:0:
292,184,208366,1,8,0:0:0:0:
171,272,208540,6,0,B|156:277|156:277|99:253,1,70,2|8,0:0|0:0,0:0:0:0:
97,256,208798,1,2,0:3:0:0:
89,258,208884,1,0,3:0:0:0:
292,184,209056,1,2,3:0:0:0:
299,183,209142,1,2,0:3:0:0:
307,181,209229,2,0,L|361:168,1,29.7500005674362,8|0,0:0|0:0,0:0:0:0:
335,24,209401,5,0,3:0:0:0:
298,17,209487,1,0,3:0:0:0:
250,38,209573,1,8,3:0:0:0:
227,89,209660,1,8,3:0:0:0:
252,147,209746,1,8,1:0:0:0:
299,183,209832,1,8,1:0:0:0:
323,242,209918,1,8,1:0:0:0:
304,307,210004,1,8,3:0:0:0:
273,353,210091,6,0,B|236:371|196:359|196:359|218:310|262:319,1,157.500006008148,4|0,1:0|0:0,0:0:0:0:
360,357,210436,1,8,0:0:0:0:
133,271,210609,6,0,B|183:253|234:370|282:350,1,167.999994873047,2|2,0:0|0:3,0:0:0:0:
383,273,211039,1,2,0:3:0:0:
383,273,211125,1,8,3:0:0:0:
272,352,211297,5,8,0:0:0:0:
294,184,211470,1,0,3:0:0:0:
155,313,211642,1,2,0:0:0:0:
157,124,211815,1,8,0:0:0:0:
22,297,211988,2,0,B|39:283|39:283|84:278,1,52.5000020027161,2|0,0:0|0:0,0:0:0:0:
294,370,212160,6,0,B|290:326|225:285|225:285|241:311|220:365,1,157.500006008148,4|0,1:0|0:0,0:0:0:0:
155,313,212504,1,8,0:0:0:0:
300,215,212678,2,0,B|318:214|318:214|338:231|338:231|374:237,1,59.5000011348725,2|0,0:0|0:0,0:0:0:0:
471,85,213021,5,2,0:0:0:0:
407,127,213194,1,0,3:0:0:0:
438,198,213366,1,8,0:0:0:0:
291,141,213539,5,0,3:0:0:0:
202,268,213711,1,2,0:0:0:0:
362,358,213884,1,8,0:0:0:0:
174,185,214056,5,2,0:3:0:0:
167,190,214142,1,2,0:3:0:0:
159,195,214229,2,0,B|56:242|47:118|119:172,1,157.500006008148,4|0,1:0|0:0,0:0:0:0:
219,122,214573,6,0,L|263:137,1,29.7500005674362,8|2,0:0|0:3,0:0:0:0:
100,149,214746,2,0,L|38:172,1,59.5000011348725,2|8,0:0|0:0,0:0:0:0:
211,18,215090,1,0,3:0:0:0:
25,128,215264,6,0,L|112:144,1,70,0|8,3:0|0:0,0:0:0:0:
372,222,215609,6,0,P|435:219|428:169,1,115.50000352478,2|0,0:1|0:0,0:0:0:0:
382,120,215953,2,0,P|339:120|326:164,1,90.9999958343508,10|0,0:1|0:0,0:0:0:0:
295,228,216212,1,8,3:0:0:0:
253,299,216298,6,0,B|167:303|167:303|249:276,1,157.500006008148,4|0,1:0|0:0,0:0:0:0:
253,299,216643,1,8,0:0:0:0:
163,226,216815,1,2,0:0:0:0:
212,151,216987,5,8,0:0:0:0:
206,369,217160,1,2,3:2:0:0:
321,210,217332,5,0,0:0:0:0:
105,322,217504,1,8,0:0:0:0:
321,316,217677,5,0,0:0:0:0:
106,216,217849,1,8,2:1:0:0:
78,170,217936,1,8,2:1:0:0:
94,113,218022,1,8,3:1:0:0:
142,89,218108,1,8,3:0:0:0:
228,64,218194,5,0,3:1:0:0:
270,77,218280,1,8,3:1:0:0:
357,128,218367,6,0,B|414:179|393:228|341:217|354:162,1,131.25,14|0,1:0|0:0,0:0:0:0:
250,186,218712,2,0,P|263:166|297:159,1,43.75,8|0,0:0|0:3,0:0:0:0:
280,158,218884,2,0,B|235:145|235:145|232:141|232:141|180:128,1,83.9999974365235,2|2,0:0|0:0,0:0:0:0:
511,116,219229,5,2,3:2:0:0:
434,95,219402,2,0,P|427:143|495:177,1,97.9999970092774,0|8,3:0|0:0,0:0:0:0:
469,182,219660,1,2,0:3:0:0:
478,187,219746,1,2,0:1:0:0:
334,10,219918,5,2,3:2:0:0:
197,96,220091,2,0,B|125:50|125:50|248:81,1,188.999994232178,10|0,1:0|0:0,0:0:0:0:
350,187,220436,6,0,L|356:237,1,41.9999987182618,6|2,1:0|0:3,0:0:0:0:
473,81,220608,5,2,0:3:0:0:
473,81,220694,1,2,0:3:0:0:
473,81,220780,2,0,L|526:64,1,41.9999987182618,8|0,0:0|0:0,0:0:0:0:
330,1,220953,5,2,0:0:0:0:
234,134,221125,2,0,L|145:162,1,83.9999974365235,2|0,1:0|3:0,0:0:0:0:
96,206,221384,1,2,0:3:0:0:
91,203,221470,2,0,P|75:184|107:119,1,83.9999974365235,2|8,3:1|0:0,0:0:0:0:
340,218,221816,5,2,0:3:0:0:
373,209,221902,1,2,0:3:0:0:
184,344,222074,5,2,0:3:0:0:
152,337,222160,2,0,L|85:323,1,41.9999987182618,8|2,0:0|0:3,0:0:0:0:
241,222,222333,6,0,B|247:199|247:199|246:187|246:187|253:148,1,52.5000020027161,0|2,0:0|0:3,0:0:0:0:
405,275,222505,6,0,P|427:323|333:343,1,168,4|0,1:0|0:0,0:0:0:0:
329,331,222850,1,8,0:0:0:0:
94,215,223022,6,0,P|124:248|163:243,1,83.9999974365235,2|8,0:0|0:0,0:0:0:0:
172,237,223280,1,2,0:3:0:0:
384,131,223452,1,2,0:3:0:0:
376,129,223540,2,0,L|312:118,1,41.9999987182618,0|0,3:0|0:0,0:0:0:0:
241,156,223712,5,10,0:0:0:0:
237,161,223798,1,2,0:3:0:0:
233,166,223884,2,0,P|192:102|218:74,1,125.999996154785,2|0,0:1|0:0,0:0:0:0:
248,0,224229,6,0,B|231:193,1,168,10|0,0:1|0:0,0:0:0:0:
245,275,224574,6,0,B|264:288|264:288|366:249,1,112,4|2,1:0|0:3,0:0:0:0:
350,179,224832,1,2,0:3:0:0:
342,183,224918,1,8,0:0:0:0:
243,197,225091,1,0,0:0:0:0:
325,79,225264,5,8,0:0:0:0:
243,197,225436,1,0,3:0:0:0:
219,41,225609,5,0,3:0:0:0:
248,200,225781,1,8,0:0:0:0:
113,65,225953,5,0,3:0:0:0:
238,275,226125,5,8,1:0:0:0:
190,307,226211,1,8,1:0:0:0:
132,309,226298,1,8,3:1:0:0:
88,276,226384,1,8,3:1:0:0:
83,231,226470,1,8,1:0:0:0:
126,211,226556,1,8,1:0:0:0:
187,172,226643,6,0,B|217:181|217:181|227:180|227:180|271:191,1,70,4|0,1:0|0:0,0:0:0:0:
363,255,226902,5,2,0:3:0:0:
371,256,226988,1,10,0:0:0:0:
488,116,227160,6,0,P|473:102|396:131,1,83.9999974365235,2|0,0:0|0:0,0:0:0:0:
304,18,227504,1,0,3:0:0:0:
284,105,227677,1,2,0:3:0:0:
289,112,227763,1,2,0:3:0:0:
293,117,227849,1,8,0:0:0:0:
358,214,228022,5,0,3:0:0:0:
244,313,228194,1,0,3:0:0:0:
404,277,228367,1,8,0:0:0:0:
222,243,228539,1,0,3:0:0:0:
299,366,228711,6,0,P|324:355|322:276,1,83.9999974365235,4|0,1:0|0:0,0:0:0:0:
324,79,228970,2,0,P|306:104|302:134,1,41.9999987182618,2|8,0:0|0:0,0:0:0:0:
320,184,229143,1,2,0:3:0:0:
326,193,229229,6,0,B|390:230|466:263|452:130|384:188,1,195.999994018555,2|0,0:0|0:0,0:0:0:0:
391,245,229660,1,2,0:3:0:0:
390,244,229747,2,0,B|380:267|380:267|376:288|376:288|363:317,1,70,0|8,3:0|0:0,0:0:0:0:
242,155,230091,2,0,B|219:146|219:146|198:141|198:141|169:128,1,70,2|0,3:1|3:0,0:0:0:0:
374,98,230436,6,0,B|456:57,1,70,10|0,0:1|0:0,0:0:0:0:
512,60,230694,1,0,0:0:0:0:
512,47,230781,2,0,B|478:64|461:103|461:103|465:47|398:16,1,157.500006008148,4|0,1:0|0:0,0:0:0:0:
369,102,231126,1,8,0:0:0:0:
289,136,231298,1,2,0:3:0:0:
287,141,231384,1,2,0:3:0:0:
285,147,231471,1,8,0:0:0:0:
209,191,231643,1,0,3:0:0:0:
380,194,231816,5,0,3:0:0:0:
210,98,231987,1,8,0:0:0:0:
297,228,232160,5,0,3:0:0:0:
294,51,232333,1,0,3:0:0:0:
297,228,232505,2,0,P|263:274|213:261,1,94.499997116089,10|0,0:1|0:0,0:0:0:0:
53,203,232850,2,0,P|93:149|142:163,1,112,4|0,1:0|0:0,0:0:0:0:
191,205,233109,1,8,0:0:0:0:
191,205,233195,5,8,3:0:0:0:
165,328,233367,1,2,3:2:0:0:
314,229,233539,1,8,0:0:0:0:
205,85,233711,1,2,3:2:0:0:
60,188,233884,1,0,3:0:0:0:
271,354,234056,1,8,1:0:0:0:
401,96,234229,2,0,B|359:104|359:104|340:112|340:112|293:121,1,90.9999958343508,4|0,1:0|0:0,0:0:0:0:
4,120,234574,6,0,B|51:108|76:151|76:151|57:197|103:232,1,168,4|8,1:0|0:0,0:0:0:0:
149,174,234919,6,0,B|117:171|117:171|93:174|93:174|44:168,1,90.9999958343508,4|0,1:0|0:0,0:0:0:0:
195,239,235178,2,0,L|210:294,1,45.4999979171754,8|0,0:0|3:0,0:0:0:0:
511,358,235436,6,0,B|498:328|465:330|465:330|412:360|412:360|371:350|371:350|334:378|270:367,1,238.00000453949,8|0,0:0|0:0,0:0:0:0:
20,255,235953,6,0,P|49:222|96:231,1,90.9999958343508,8|0,0:0|0:0,0:0:0:0:
157,161,236211,1,8,0:0:0:0:
164,165,236298,2,0,P|179:183|191:229,1,45.4999979171754,8|8,0:0|0:0,0:0:0:0:
249,308,236470,2,0,P|262:289|273:242,1,45.4999979171754,8|8,3:0|3:0,0:0:0:0:
388,91,236643,6,0,B|409:76|409:76|490:89,1,90.9999958343508,10|0,0:1|0:0,0:0:0:0:
512,163,236902,1,2,0:2:0:0:
512,163,236988,2,0,B|457:174|457:174|449:178|449:178|354:198,1,119.000002269745,4|0,1:0|0:0,0:0:0:0:
270,237,237247,2,0,B|249:206|280:174|280:174|268:230|311:263,1,157.500006008148,0|8,3:0|0:0,0:0:0:0:
487,67,237677,5,0,3:0:0:0:
361,195,237849,2,0,B|371:176|371:176|367:133,1,45.4999979171754,8|8,0:0|0:0,0:0:0:0:
248,32,238022,6,0,B|217:1|141:11|141:11|170:21|189:76,1,157.500006008148,8|0,0:0|0:0,0:0:0:0:
102,84,238367,2,0,P|78:101|6:102,1,90.9999958343508,2|0,3:1|0:0,0:0:0:0:
410,138,238712,6,0,B|432:130|432:130|485:146|485:146|542:199|471:251,1,188.999994232178,10|0,0:1|0:0,0:0:0:0:
409,330,239057,6,0,L|432:395,1,45.4999979171754,0|8,3:0|3:1,0:0:0:0:
202,220,239316,2,0,B|195:213|195:213|101:197,1,90.9999958343508,8|0,0:0|0:0,0:0:0:0:
10,271,239573,6,0,L|76:259,1,45.4999979171754,8|0,0:0|0:0,0:0:0:0:
202,220,239746,5,0,3:0:0:0:
330,318,239918,1,0,3:0:0:0:
450,193,240091,1,8,0:0:0:0:
450,193,240178,2,0,B|470:197|470:197|454:119,1,90.9999958343508,2|0,0:2|0:0,0:0:0:0:
479,29,240436,6,0,P|436:17|393:45,1,90.9999958343508,2|0,3:1|0:0,0:0:0:0:
39,107,240781,2,0,B|87:133|178:112|189:46|128:18|111:86,1,188.999994232178,10|0,0:1|0:0,0:0:0:0:
230,113,241126,6,0,L|356:135,1,90.9999958343508,4|0,1:0|0:0,0:0:0:0:
319,128,241384,1,8,0:0:0:0:
319,128,241470,1,8,0:0:0:0:
113,60,241642,1,8,0:0:0:0:
343,107,241815,6,0,B|275:94|279:152|198:132,1,136.499993751526,2|0,3:1|0:0,0:0:0:0:
82,217,242160,6,0,B|-13:230|-13:230|79:191,1,181.999991668702,10|0,0:1|0:0,0:0:0:0:
450,276,242677,5,8,0:0:0:0:
450,276,242763,1,8,0:0:0:0:
450,276,242850,2,0,L|520:287,1,62.9999980773926,0|0,3:0|0:0,0:0:0:0:
395,350,243195,6,0,B|370:307|421:230|474:288|525:168|457:149,1,238.00000453949,4|0,1:0|3:0,0:0:0:0:
164,14,243712,6,0,B|147:2|147:2|68:13,1,90.9999958343508,8|0,0:0|0:0,0:0:0:0:
181,200,244057,2,0,L|162:265,2,45.4999979171754,0|0|8,0:0|0:0|0:0,0:0:0:0:
302,149,244401,1,0,3:0:0:0:
3,167,244573,5,0,3:0:0:0:
3,167,244660,2,0,P|34:138|93:158,1,90.9999958343508,2|0,0:2|0:0,0:0:0:0:
159,212,244919,2,0,B|196:221|196:221|213:233|213:233|260:246,1,105.000004005432,10|0,0:1|0:0,0:0:0:0:
493,376,245264,6,0,B|446:383|435:345|435:345|470:240,1,168,4|0,1:0|0:0,0:0:0:0:
471,240,245608,1,0,3:0:0:0:
235,39,245780,2,0,L|246:109,1,45.4999979171754,8|0,0:0|0:0,0:0:0:0:
262,189,245953,5,0,3:0:0:0:
317,48,246125,1,0,3:0:0:0:
149,99,246298,5,8,0:0:0:0:
131,103,246384,1,8,0:0:0:0:
384,183,246556,1,8,0:0:0:0:
406,188,246642,2,0,L|468:200,1,45.4999979171754,8|0,0:0|0:0,0:0:0:0:
255,222,246816,6,0,B|249:245|249:245|250:257|250:257|242:294,1,56,8|8,3:0|3:0,0:0:0:0:
53,151,246988,6,0,P|-11:121|36:71,1,157.500006008148,10|0,0:1|0:0,0:0:0:0:
147,8,247333,6,0,B|187:13|187:13|195:17|195:17|248:24,1,90.9999958343508,4|0,1:0|0:0,0:0:0:0:
236,22,247591,1,8,0:0:0:0:
236,22,247678,1,8,0:0:0:0:
476,192,247849,5,10,0:2:0:0:
328,148,248022,1,2,3:2:0:0:
200,264,248194,1,0,3:0:0:0:
328,148,248367,5,10,0:2:0:0:
240,192,248539,1,2,3:2:0:0:
200,264,248711,1,0,3:0:0:0:
216,336,248884,1,0,3:0:0:0:
453,312,249056,5,8,0:0:0:0:
490,304,249142,1,8,0:0:0:0:
200,264,249315,5,8,0:0:0:0:
163,265,249401,2,0,P|119:275|58:277,1,90.9999958343508,4|0,1:0|0:0,0:0:0:0:
73,277,249660,2,0,L|53:336,1,45.4999979171754
296,112,249918,1,8,0:0:0:0:
170,174,250091,1,0,0:0:0:0:
280,261,250263,1,0,0:0:0:0:
512,175,250436,6,0,B|522:162|522:162|503:54,1,90.9999958343508,8|0,0:0|0:0,0:0:0:0:
498,14,250694,1,8,3:0:0:0:
498,14,250780,1,8,3:0:0:0:
474,58,250867,1,8,0:0:0:0:
430,74,250953,1,8,0:0:0:0:
386,55,251039,1,8,0:0:0:0:
338,17,251125,5,8,3:1:0:0:
305,10,251211,1,8,3:1:0:0:
240,1,251298,5,8,3:1:0:0:
205,10,251384,1,8,3:1:0:0:
113,12,251471,6,0,B|77:17|77:17|61:29|61:29|37:31|37:31|-26:86|47:120,1,178.500003404617,0|0,0:0|0:0,0:0:0:0:
149,159,251816,2,0,L|256:146,1,90.9999958343508,8|0,0:0|0:0,0:0:0:0:
501,12,252160,5,0,0:0:0:0:
367,72,252332,1,0,0:0:0:0:
467,100,252504,1,0,0:0:0:0:
165,195,252677,5,8,0:0:0:0:
283,149,252849,1,0,0:0:0:0:
200,110,253022,1,0,0:0:0:0:
243,231,253194,1,8,0:0:0:0:
365,161,253367,5,0,0:0:0:0:
58,224,253539,1,0,0:0:0:0:
146,276,253711,5,0,0:0:0:0:
332,326,253884,1,8,0:0:0:0:
267,370,254056,1,0,0:0:0:0:
172,200,254229,1,0,0:0:0:0:
452,186,254401,5,0,0:0:0:0:
361,238,254573,1,0,0:0:0:0:
164,52,254746,5,8,0:0:0:0:
377,161,254918,1,0,0:0:0:0:
175,294,255091,1,0,0:0:0:0:
271,152,255263,6,0,P|252:138|218:128,1,45.4999979171754,8|0,0:0|0:0,0:0:0:0:
197,200,255436,2,0,P|216:212|237:218,1,45.4999979171754,0|0,0:0|0:0,0:0:0:0:
458,87,255608,5,0,0:0:0:0:
467,76,255953,2,0,P|447:42|385:55,1,105.000004005432,8|0,0:0|0:0,0:0:0:0:
336,256,256298,1,8,0:0:0:0:
382,316,256470,2,0,P|356:338|221:324,1,157.500006008148,0|0,0:0|0:0,0:0:0:0:
150,242,256815,5,8,0:0:0:0:
105,122,256987,1,0,0:0:0:0:
174,151,257160,1,0,0:0:0:0:
73,222,257332,1,8,0:0:0:0:
419,196,257504,5,0,0:0:0:0:
419,196,257677,2,0,B|441:202|441:202|468:241|468:241|321:220,1,210.000008010865,0|8,0:0|0:0,0:0:0:0:
232,188,258194,1,0,0:0:0:0:
190,370,258367,5,8,0:0:0:0:
168,228,258539,1,0,0:0:0:0:
199,123,258711,1,0,0:0:0:0:
169,32,258884,2,0,P|140:44|131:70,1,52.5000020027161,8|0,0:0|0:0,0:0:0:0:
260,220,259056,5,0,0:0:0:0:
272,220,259229,2,0,P|294:206|301:182,1,52.5000020027161,0|0,0:0|0:0,0:0:0:0:
393,126,259401,5,8,0:0:0:0:
401,109,259487,1,8,0:0:0:0:
386,73,259573,5,8,3:0:0:0:
398,25,259660,1,8,0:0:0:0:
393,10,259746,6,0,B|385:-2|385:-2|478:18,1,105.000004005432,2|0,0:0|0:0,0:0:0:0:
401,109,260005,2,0,B|424:119|427:141|427:141|404:219,1,105.000004005432,2|0,0:0|0:0,0:0:0:0:
304,110,260263,2,0,P|282:121|228:109,1,52.5000020027161,2|0,0:0|0:0,0:0:0:0:
0,34,260436,5,8,0:0:0:0:
113,80,260608,1,0,0:0:0:0:
218,30,260780,1,2,0:0:0:0:
113,80,260953,2,0,B|106:98|106:98|113:135|113:135|92:241,1,157.500006008148,8|0,0:0|0:0,0:0:0:0:
90,249,261298,1,0,0:0:0:0:
469,358,261470,6,0,B|506:322|479:272|479:272|482:307|452:341,1,157.500006008148,10|0,0:0|0:0,0:0:0:0:
381,271,261815,6,0,B|363:256|311:278|311:278|283:329|235:328,1,157.500006008148,2|0,0:0|0:0,0:0:0:0:
226,317,262160,1,8,0:0:0:0:
0,150,262332,6,0,P|44:110|92:137,1,105.000004005432,2|8,0:0|0:0,0:0:0:0:
138,174,262677,1,0,0:0:0:0:
58,291,262849,1,2,0:0:0:0:
288,383,263022,2,0,P|398:375|494:320,1,210.000008010865,8|0,0:0|0:0,0:0:0:0:
504,42,263539,6,0,B|498:-1|498:-1|466:122,1,157.500006008148,10|0,0:0|0:0,0:0:0:0:
465,124,263884,1,2,0:0:0:0:
278,305,264056,1,0,0:0:0:0:
278,305,264142,1,0,0:0:0:0:
278,305,264229,1,8,0:0:0:0:
248,76,264401,5,2,0:0:0:0:
360,256,264573,5,8,0:0:0:0:
296,144,264746,1,0,0:0:0:0:
164,100,264918,1,2,0:0:0:0:
244,320,265091,5,8,0:0:0:0:
244,320,265264,2,0,P|195:332|160:284,1,105.000004005432,2|0,0:0|0:0,0:0:0:0:
268,64,265608,2,0,P|317:52|352:100,1,105.000004005432,10|0,0:0|0:0,0:0:0:0:
256,192,265953,6,0,B|219:186|219:186|189:194|189:194|72:180,1,157.500006008148,2|0,0:0|0:0,0:0:0:0:
84,180,266298,2,0,B|71:167|66:137|66:137|72:113|111:91,1,105.000004005432,8|0,0:0|0:0,0:0:0:0:
369,39,266642,5,10,0:0:0:0:
249,80,266815,1,0,0:0:0:0:
207,158,266987,5,2,0:0:0:0:
400,215,267160,1,8,0:0:0:0:
356,301,267332,5,2,0:0:0:0:
132,350,267504,1,0,0:0:0:0:
132,350,267591,1,0,0:0:0:0:
132,350,267678,2,0,L|204:366,1,38.5000011749268,0|0,0:0|0:0,0:0:0:0:
356,301,267850,6,2,L|320:311,1,26.2500010013581,0|0,0:0|0:0,0:0:0:0:
169,358,268022,6,0,B|109:383|75:342|75:342|55:306|55:306|11:287|-16:310|-16:310|-10:327|-10:327|22:318,1,258.999999011993,4|8,0:0|0:0,0:0:0:0:
330,308,268540,6,0,L|407:321,1,64.7499997529984,0|0,0:0|0:0,0:0:0:0:
219,240,268712,2,0,P|205:191|185:140,1,94.5000003604889
490,74,269057,2,0,B|493:122|493:122|453:168,1,94.5000003604889,0|8,0:0|0:0,0:0:0:0:
309,17,269402,6,0,B|205:55|231:-10|98:39,1,173.250001652241,2|0,0:0|0:0,0:0:0:0:
25,130,269747,2,0,B|-23:160|-23:160|37:168,1,115.500001101494,10|0,0:0|0:0,0:0:0:0:
257,217,270091,1,2,0:0:0:0:
143,41,270263,1,0,0:0:0:0:
111,271,270436,1,8,0:0:0:0:
111,271,270522,1,0,0:0:0:0:
111,271,270608,2,0,L|129:356,1,57.7500005507469,2|0,0:0|0:0,0:0:0:0:
153,154,270780,5,8,0:0:0:0:
25,130,270953,1,0,0:0:0:0:
191,262,271125,1,0,0:0:0:0:
241,66,271298,1,8,0:0:0:0:
431,177,271471,6,0,B|384:190|384:190|354:185|354:185|293:141|239:166,1,194.249999258995,2|0,0:0|0:0,0:0:0:0:
339,322,271816,2,0,P|395:336|458:300,1,115.500001101494,10|0,0:0|0:0,0:0:0:0:
473,81,272160,5,2,0:0:0:0:
445,92,272247,2,0,L|360:119,1,57.7500005507469,2|0,0:2|0:0,0:0:0:0:
310,23,272419,5,2,0:2:0:0:
312,45,272505,2,0,L|305:131,1,57.7500005507469,8|0,0:0|0:0,0:0:0:0:
238,192,272677,6,0,L|261:283,1,57.7500005507469,2|0,0:0|0:0,0:0:0:0:
223,344,272850,2,0,B|149:345|159:277|33:308,1,183.750001752377,8|0,0:0|0:0,0:0:0:0:
16,129,273195,2,0,P|39:118|111:130,1,101.500003097534
455,82,273539,6,0,P|388:89|281:47,1,152.250004646301,2|0,0:0|0:0,0:0:0:0:
199,30,273884,6,0,B|192:124|290:134|274:245,1,203.000006195069,10|2,0:0|0:0,0:0:0:0:
255,357,274401,5,0,0:0:0:0:
260,360,274487,1,0,0:0:0:0:
264,364,274573,2,0,L|269:295,1,50.7500015487671,8|0,0:0|0:0,0:0:0:0:
317,102,274746,5,0,0:0:0:0:
162,192,274918,1,8,0:0:0:0:
345,269,275091,1,0,0:0:0:0:
206,105,275263,5,0,0:0:0:0:
375,186,275436,1,8,0:0:0:0:
190,277,275608,1,0,0:0:0:0:
271,194,275780,5,8,0:0:0:0:
297,146,275867,1,8,0:0:0:0:
305,94,275953,1,8,0:0:0:0:
285,48,276039,1,8,3:0:0:0:
278,43,276125,1,8,3:0:0:0:
273,39,276211,1,8,3:0:0:0:
267,34,276298,6,0,B|221:27|221:27|202:30|202:30|178:29|178:29|146:17,1,101.500003097534,6|0,0:0|0:0,0:0:0:0:
69,117,276556,2,0,B|96:102|96:102|127:122|175:122,1,101.500003097534,2|0,0:2|0:0,0:0:0:0:
204,223,276815,2,0,L|277:240,1,50.7500015487671,2|0,0:0|0:0,0:0:0:0:
264,251,276987,2,0,L|336:245,1,50.7500015487671,8|0,0:0|0:0,0:0:0:0:
392,273,277160,6,0,B|434:243|434:243|363:199,1,101.500003097534
145,295,277504,1,8,0:0:0:0:
285,336,277678,6,0,B|310:293|273:210|206:274|172:160|239:137,1,215.250003284454,2|0,0:0|0:0,0:0:0:0:
310,68,278022,2,0,P|360:94|369:166,1,101.500003097534,10|0,0:0|0:0,0:0:0:0:
110,220,278367,6,0,P|74:173|86:113,1,101.500003097534,2|0,0:0|0:0,0:0:0:0:
176,21,278625,1,0,0:0:0:0:
192,41,278712,1,8,0:0:0:0:
208,82,278798,1,8,0:0:0:0:
207,130,278884,1,8,1:0:0:0:
381,244,279056,6,0,P|344:236|282:227,1,101.500003097534,8|0,0:0|0:0,0:0:0:0:
148,276,279402,1,0,0:0:0:0:
288,361,279574,1,8,0:0:0:0:
32,373,279746,6,0,B|81:370|205:347,1,152.250004646301,2|0,0:0|0:0,0:0:0:0:
235,203,280091,2,0,B|188:152|188:152|142:181|86:177,1,152.250004646301,10|0,0:0|0:0,0:0:0:0:
16,262,280436,5,2,0:0:0:0:
186,361,280608,1,0,0:0:0:0:
186,361,280694,1,0,0:0:0:0:
186,361,280781,1,8,0:0:0:0:
323,270,280953,5,2,0:0:0:0:
250,83,281126,1,8,0:0:0:0:
196,276,281298,1,0,0:0:0:0:
355,157,281471,1,0,0:0:0:0:
142,167,281643,1,8,0:0:0:0:
436,318,281815,6,0,B|395:325|395:325|368:340|368:340|330:368|281:351,1,152.250004646301,2|0,0:0|0:0,0:0:0:0:
223,184,282160,2,0,B|275:154|328:189|328:189|367:234|433:230,1,203.000006195069,10|2,0:0|0:0,0:0:0:0:
232,277,282677,5,0,0:0:0:0:
512,123,282850,2,0,P|458:132|396:145,1,101.500003097534,8|2,0:0|0:0,0:0:0:0:
213,65,283194,6,0,L|205:127,1,50.7500015487671,0|8,0:0|0:0,0:0:0:0:
152,163,283367,2,0,L|170:226,1,50.7500015487671,0|8,0:0|0:0,0:0:0:0:
112,271,283539,5,8,3:0:0:0:
142,305,283625,1,0,0:0:0:0:
191,307,283711,1,8,0:0:0:0:
232,277,283798,1,8,0:0:0:0:
260,234,283884,5,8,3:0:0:0:
312,219,283970,1,0,0:0:0:0:
360,249,284056,1,8,0:0:0:0:
364,295,284142,1,8,0:0:0:0:
293,322,284229,5,8,3:0:0:0:
291,313,284315,1,8,3:0:0:0:
290,304,284401,1,8,3:0:0:0:
288,293,284487,1,8,3:0:0:0:
286,282,284573,5,4,1:0:0:0:
256,192,284660,12,0,292850,0:0:0:0:
