osu file format v14

[General]
AudioFilename: audio.mp3
AudioLeadIn: 0
PreviewTime: 202850
Countdown: 0
SampleSet: Normal
StackLeniency: 0.7
Mode: 0
LetterboxInBreaks: 0
WidescreenStoryboard: 1

[Editor]
Bookmarks: 11474,45957,80440,115267,160440,201819,231302,231388,231474,231646,231733,231819,231991,232164,232250,234922,268026,284577
DistanceSpacing: 1.1
BeatDivisor: 8
GridSize: 32
TimelineZoom: 1.5

[Metadata]
Title:flow
TitleUnicode:flow
Artist:School Food Punishment
ArtistUnicode:School Food Punishment
Creator:Fixxis
Version:Insane
Source:
Tags:Kalibe Black Man Senseabel ImpurePug sfp japanese yumi uchimura Rock J-Rock Riff-rain Riff rain Masayuki Hasuo Osamu Hidai Ueda Atsushi
BeatmapID:2345788
BeatmapSetID:1105170

[Difficulty]
HPDrainRate:5
CircleSize:4
OverallDifficulty:8
ApproachRate:9
SliderMultiplier:1.4
SliderTickRate:1

[Events]
//Background and Video events
0,0,"d1fd1c7d-c369-4f7c-99b9-d07568f51e8f.jpg",0,0
//Break Periods
//Storyboard Layer 0 (Background)
//Storyboard Layer 1 (Fail)
//Storyboard Layer 2 (Pass)
//Storyboard Layer 3 (Foreground)
//Storyboard Layer 4 (Overlay)
//Storyboard Sound Samples

[TimingPoints]
440,344.827586206897,4,1,1,30,1,0
11474,344.827586206897,5,2,1,55,1,0
11991,-76.9230769230769,5,2,1,55,0,0
12508,-100,5,2,1,55,0,0
12853,-90.9090909090909,5,2,1,55,0,0
13198,-71.4285714285714,5,2,1,55,0,0
13802,-66.6666666666667,5,2,1,55,0,0
14577,-76.9230769230769,5,2,1,55,0,0
14922,-90.9090909090909,5,2,1,55,0,0
15957,-76.9230769230769,5,2,1,55,0,0
16302,-100,5,2,1,55,0,0
16646,-71.4285714285714,5,2,1,55,0,0
18026,-100,5,2,1,55,0,0
18371,-90.9090909090909,5,2,1,55,0,0
18888,-71.4285714285714,5,2,1,55,0,0
19405,-83.3333333333333,5,2,1,55,0,0
20095,-66.6666666666667,5,2,1,55,0,0
20698,-76.9230769230769,5,2,1,55,0,0
21129,-71.4285714285714,5,2,1,55,0,0
21474,-83.3333333333333,5,2,1,55,0,0
21819,-100,5,2,1,55,0,0
22336,-133.333333333333,5,2,1,55,0,0
22853,-66.6666666666667,5,2,1,55,0,0
23198,-76.9230769230769,5,2,1,55,0,0
23456,-76.9230769230769,5,2,1,5,0,0
23542,-76.9230769230769,5,2,1,55,0,0
23543,-71.4285714285714,5,2,1,55,0,0
24922,-66.6666666666667,5,2,1,55,0,0
25267,-100,5,2,1,55,0,0
26991,-100,5,2,1,50,0,0
28025,-100,5,2,2,50,0,0
28198,-100,5,2,1,50,0,0
32077,-100,5,2,1,5,0,0
32164,-100,5,2,1,50,0,0
37336,-100,5,2,8,50,0,0
37422,-100,5,2,1,50,0,0
39060,-66.6666666666667,5,2,8,55,0,0
39146,-66.6666666666667,5,2,1,55,0,0
39405,-100,5,2,1,55,0,0
39922,-250,5,2,1,55,0,0
40440,-100,5,2,1,55,0,0
40784,-66.6666666666667,5,2,1,55,0,0
41302,-133.333333333333,5,2,1,55,0,0
41818,-133.333333333333,5,2,2,55,0,0
41905,-133.333333333333,5,2,1,55,0,0
42164,-90.9090909090909,5,2,1,55,0,0
42422,-90.9090909090909,5,2,1,5,0,0
42508,-71.4285714285714,5,2,1,55,0,0
42853,-100,5,2,1,55,0,0
43888,-250,5,2,1,55,0,0
44146,-250,5,2,1,55,0,0
44233,-76.9230769230769,5,2,1,55,0,0
44750,-111.111111111111,5,2,1,55,0,0
45095,-100,5,2,1,55,0,0
45267,-100,5,2,2,55,0,0
45439,-100,5,2,1,55,0,0
45612,-66.6666666666667,5,2,1,55,0,0
45870,-66.6666666666667,5,2,1,5,0,0
45957,-109.89010989011,5,2,1,55,0,0
47680,-109.89010989011,5,2,8,55,0,0
47767,-109.89010989011,5,2,1,55,0,0
49577,-109.89010989011,5,2,2,55,0,0
49749,-109.89010989011,5,2,1,55,0,0
52767,-109.89010989011,5,2,1,55,0,0
52853,-109.89010989011,5,2,1,55,0,0
56301,-109.89010989011,5,2,8,55,0,0
56387,-109.89010989011,5,2,1,55,0,0
59663,-109.89010989011,5,2,1,5,0,0
59750,-109.89010989011,5,2,1,55,0,0
63198,-109.89010989011,5,2,8,55,0,0
63284,-109.89010989011,5,2,1,55,0,0
66646,-109.89010989011,5,2,1,60,0,0
70094,-109.89010989011,5,2,8,60,0,0
70180,-109.89010989011,5,2,1,60,0,0
73543,-109.89010989011,5,2,1,55,0,0
76991,-109.89010989011,5,2,1,60,0,0
78887,-109.89010989011,5,2,2,25,0,0
80095,-109.89010989011,5,2,2,30,0,0
80439,344.827586206897,6,2,2,65,1,0
80439,-55.5555555555556,6,2,2,65,0,0
80525,-100,6,2,2,65,0,0
80783,-250,6,2,2,65,0,0
80956,-111.111111111111,6,2,2,65,0,0
81473,-83.3333333333333,6,2,2,65,0,0
82507,-71.4285714285714,6,2,2,65,0,0
83197,-100,6,2,2,65,0,0
83887,-71.4285714285714,6,2,2,65,0,0
84576,-62.5,6,2,2,65,0,0
84921,-83.3333333333333,6,2,2,65,0,0
85697,-62.5,6,2,2,65,0,0
85956,-71.4285714285714,6,2,2,65,0,0
86301,-62.5,6,2,2,65,0,0
86645,-55.5555555555556,6,2,2,65,0,0
87163,-100,6,2,2,65,0,0
88714,-71.4285714285714,6,2,2,65,0,0
89232,-100,6,2,2,65,0,0
89749,-142.857142857143,6,2,2,65,0,0
90094,-83.3333333333333,6,2,2,65,0,0
90783,-62.5,6,2,2,65,0,0
91473,-100,6,2,2,65,0,0
91645,-90.9090909090909,6,2,2,65,0,0
92163,-62.5,6,2,2,65,0,0
92852,-55.5555555555556,6,2,2,65,0,0
93370,-100,6,2,2,65,0,0
93973,-71.4285714285714,6,2,2,65,0,0
94232,-71.4285714285714,6,2,2,65,0,0
94576,-55.5555555555556,6,2,2,65,0,0
94921,-71.4285714285714,6,2,2,65,0,0
96645,-76.9230769230769,6,2,2,65,0,0
96646,-76.9230769230769,6,2,2,70,0,0
96990,-62.5,6,2,2,70,0,0
96991,-62.5,6,2,3,75,0,0
97076,-62.5,6,2,2,75,0,0
98370,-83.3333333333333,6,2,2,75,0,0
98714,-55.5555555555556,6,2,2,75,0,0
99059,-47.6190476190476,6,2,2,75,0,0
99576,-55.5555555555556,6,2,2,75,0,0
99921,-76.9230769230769,6,2,2,75,0,0
101128,-55.5555555555556,6,2,2,75,0,0
101645,-66.6666666666667,6,2,2,75,0,0
102507,-76.9230769230769,6,2,2,75,0,0
102852,-55.5555555555556,6,2,2,75,0,0
103197,-47.6190476190476,6,2,2,75,0,0
103456,-66.6666666666667,6,2,2,75,0,0
103714,-76.9230769230769,6,2,2,75,0,0
105266,-55.5555555555556,6,2,3,75,0,0
105352,-55.5555555555556,6,2,2,75,0,0
105783,-111.111111111111,6,2,2,75,0,0
106301,-66.6666666666667,6,2,2,75,0,0
107335,-55.5555555555556,6,2,2,75,0,0
107852,-76.9230769230769,6,2,2,75,0,0
108370,-66.6666666666667,6,2,2,75,0,0
109059,-166.666666666667,6,2,2,75,0,0
109404,-55.5555555555556,6,2,2,75,0,0
110094,-83.3333333333333,6,2,2,75,0,0
110783,-62.5,6,2,2,75,0,0
111128,-55.5555555555556,6,2,2,75,0,0
112163,-71.4285714285714,6,2,2,75,0,0
112852,-71.4285714285714,6,2,2,65,0,0
113197,-71.4285714285714,6,2,2,85,0,0
113542,344.827586206897,5,1,1,80,1,0
115610,344.827586206897,5,1,1,30,1,0
115610,-76.9230769230769,5,1,1,30,0,0
116127,-109.89010989011,5,2,1,55,0,0
118627,-109.89010989011,5,2,1,5,0,0
118713,-109.89010989011,5,2,1,55,0,0
118972,-109.89010989011,5,2,1,5,0,0
119058,-109.89010989011,5,2,1,55,0,0
125868,-109.89010989011,5,2,1,5,0,0
125957,-109.89010989011,5,2,1,55,0,0
142161,-109.89010989011,5,2,2,55,0,0
146644,-100,5,2,4,55,0,0
158715,-100,5,2,4,60,0,0
173885,-100,5,2,4,80,0,0
174230,-100,5,2,4,60,0,0
198713,-100,5,2,1,63,0,0
199058,-100,5,2,1,66,0,0
199403,-100,5,2,1,69,0,0
199747,-100,5,2,1,72,0,0
200092,-100,5,2,1,75,0,0
200437,-100,5,2,1,78,0,0
200782,-100,5,2,1,81,0,0
201127,-100,5,2,1,84,0,0
201472,-100,5,1,1,75,0,0
201816,344.827586206897,6,3,2,90,1,0
202850,-100,6,2,1,60,0,0
203109,-100,6,1,1,5,0,0
203195,-76.9230769230769,6,2,1,60,0,0
203454,-76.9230769230769,6,1,1,5,0,0
203540,-76.9230769230769,6,2,1,60,0,0
203799,-76.9230769230769,6,1,1,5,0,0
203885,-76.9230769230769,6,2,2,75,0,0
209402,-76.9230769230769,6,2,1,75,0,0
209574,-76.9230769230769,6,2,2,75,0,0
209748,-76.9230769230769,6,2,1,75,0,0
209833,-76.9230769230769,6,2,2,75,0,0
218367,-76.9230769230769,6,2,2,85,0,0
232505,-76.9230769230769,6,1,1,85,0,0
234919,-62.5,6,1,1,85,0,0
235178,-125,6,1,1,85,0,0
235436,-62.5,6,1,1,85,0,0
235953,-71.4285714285714,6,1,1,85,0,0
236643,-55.5555555555556,6,1,1,85,0,0
236988,-100,6,1,1,85,0,0
237505,-76.9230769230769,6,1,1,85,0,0
238022,-55.5555555555556,6,1,1,85,0,0
238367,-83.3333333333333,6,1,1,85,0,0
238712,-71.4285714285714,6,1,1,85,0,0
239057,-50,6,1,1,85,0,0
239574,-100,6,1,1,85,0,0
240436,-71.4285714285714,6,1,1,85,0,0
240781,-55.5555555555556,6,1,1,85,0,0
241384,-83.3333333333333,6,1,1,85,0,0
241816,-62.5,6,1,1,85,0,0
242160,-55.5555555555556,6,1,1,85,0,0
243195,-76.9230769230769,6,1,1,85,0,0
243540,-66.6666666666667,6,1,1,85,0,0
243712,-90.9090909090909,6,1,1,85,0,0
244229,-71.4285714285714,6,1,1,85,0,0
244574,-58.8235294117647,6,1,1,85,0,0
245781,-43.4782608695652,6,1,1,85,0,0
246988,-58.8235294117647,6,1,1,85,0,0
247333,-55.5555555555556,6,1,1,85,0,0
247678,-133.333333333333,6,1,1,85,0,0
249057,-62.5,6,1,1,85,0,0
249402,-52.6315789473684,6,1,1,85,0,0
250436,-47.6190476190476,6,1,1,85,0,0
251471,-71.4285714285714,6,1,1,85,0,0
251816,-66.6666666666667,6,1,1,85,0,0
259057,-55.5555555555556,6,1,1,85,0,0
259747,-47.6190476190476,6,1,1,85,0,0
260091,-55.5555555555556,6,1,1,85,0,0
261298,-71.4285714285714,6,1,1,85,0,0
266988,-55.5555555555556,6,1,1,85,0,0
282160,-50,6,1,1,85,0,0
282505,-45.4545454545455,6,1,1,85,0,0
292850,-45.4545454545455,6,1,1,5,0,0

[Colours]
Combo1 : 115,169,41
Combo2 : 0,198,198
Combo3 : 255,165,74
Combo4 : 0,128,192

[HitObjects]
121,272,11474,6,0,P|85:273|34:280,1,70,6|0,0:0|0:0,0:0:0:0:
43,284,11733,1,2,0:0:0:0:
35,291,11819,1,8,0:0:0:0:
168,187,11991,2,0,B|205:172|242:198|217:215|249:245|290:229,1,136.499993751526,2|2,0:0|0:0,0:0:0:0:
298,226,12336,1,8,0:0:0:0:
174,129,12508,2,0,B|153:147|153:147|176:210,1,70,2|0,0:0|3:0,0:0:0:0:
241,364,12853,2,0,B|250:370|250:370|329:347|329:347|354:361,1,115.50000352478,8|0,0:0|0:0,0:0:0:0:
425,369,13198,6,0,B|430:332|406:309|406:309|462:316|458:364,1,146.999995513916,4|0,0:3|0:0,0:0:0:0:
458,359,13543,1,8,0:0:0:0:
445,184,13715,1,2,0:0:0:0:
430,198,13802,2,0,P|406:153|478:121,1,105.000004005432,0|2,1:3|2:0,0:0:0:0:
449,113,14060,1,2,3:0:0:0:
345,76,14233,1,2,0:0:0:0:
410,0,14405,1,0,3:0:0:0:
270,91,14577,2,0,B|298:107|298:107|315:78|352:74,1,90.9999958343508,8|0,0:0|0:0,0:0:0:0:
134,235,14922,6,0,B|91:306|-19:265|63:197|87:258,1,154.000004699707,6|8,0:3|0:0,0:0:0:0:
155,336,15440,2,0,L|178:382,2,38.5000011749268,2|0|0,0:0|1:0|3:0,0:0:0:0:
185,124,15784,2,0,L|168:180,1,38.5000011749268,12|0,0:0|0:0,0:0:0:0:
75,241,15957,2,0,B|47:257|47:257|30:228|-7:224,1,90.9999958343508,0|0,0:0|3:0,0:0:0:0:
157,92,16302,2,0,L|180:186,1,70,8|0,0:0|0:0,0:0:0:0:
273,360,16646,6,0,B|287:298|214:259|164:306|164:306|151:348,1,195.999994018555,4|8,0:3|0:0,0:0:0:0:
307,196,17164,1,2,0:0:0:0:
317,208,17250,2,0,P|362:239|438:201,1,146.999995513916,0|2,1:0|0:0,0:0:0:0:
496,21,17681,1,0,0:0:0:0:
420,33,17853,1,0,3:0:0:0:
345,51,18026,2,0,P|312:58|266:73,1,70,8|2,0:0|1:3,0:0:0:0:
90,205,18371,6,0,L|104:130,1,77.0000023498536,4|0,0:3|0:0,0:0:0:0:
113,122,18629,1,2,0:0:0:0:
122,115,18715,1,8,0:0:0:0:
22,25,18888,2,0,B|-2:4|-28:59|69:84|101:10,1,146.999995513916,2|2,0:0|2:0,0:0:0:0:
98,15,19233,1,12,0:0:0:0:
280,112,19405,2,0,B|256:93|256:93|193:116,1,83.9999974365235,2|0,0:0|3:0,0:0:0:0:
2,208,19750,2,0,P|64:209|130:220,1,125.999996154785,8|0,0:0|0:0,0:0:0:0:
239,245,20095,6,0,B|245:198|201:188|201:188|229:240|177:292,1,157.500006008148,4|2,0:3|0:3,0:0:0:0:
198,264,20440,1,8,0:0:0:0:
334,372,20612,1,2,0:0:0:0:
352,378,20698,2,0,B|375:382|375:382|360:285,1,90.9999958343508,0|0,0:0|0:0,0:0:0:0:
362,302,20957,1,4,3:0:0:0:
466,117,21129,1,2,0:0:0:0:
326,215,21302,1,0,3:0:0:0:
490,297,21474,2,0,B|477:255|525:270|513:223,1,83.9999974365235,8|0,0:0|0:0,0:0:0:0:
485,32,21819,6,0,P|417:47|383:119,1,140,4|8,0:0|0:0,0:0:0:0:
409,206,22336,2,0,L|444:216,2,26.2500010013581,2|0|0,0:0|1:0|0:0,0:0:0:0:
313,74,22681,2,0,L|275:83,1,26.2500010013581,12|0,0:0|0:0,0:0:0:0:
217,121,22853,2,0,B|181:103|181:103|212:11,1,105.000004005432,2|0,0:0|3:0,0:0:0:0:
343,3,23198,2,0,B|355:29|355:29|367:76|306:110|273:67,1,136.499993751526,8|0,0:0|0:0,0:0:0:0:
201,41,23543,6,0,B|157:16|120:50|120:50|108:93|63:94|63:94|77:79|81:58,1,195.999994018555,4|8,3:3|0:0,0:0:0:0:
13,10,24060,1,2,0:0:0:0:
7,21,24146,1,0,1:0:0:0:
8,36,24233,1,0,3:0:0:0:
172,112,24405,2,0,B|183:125|183:125|171:171,1,48.9999985046387,2|0,0:3|0:0,0:0:0:0:
46,275,24577,2,0,B|75:294|75:294|95:263|156:261,1,97.9999970092774,2|0,0:0|3:0,0:0:0:0:
63,95,24922,6,0,B|0:79|-31:159|63:172|72:126,1,157.500006008148,12|0,0:0|0:0,0:0:0:0:
63,95,25267,6,0,P|58:177|49:254,1,140,4|8,1:0|1:0,0:0:0:0:
183,371,25957,1,0,3:0:0:0:
155,304,26129,1,8,1:0:0:0:
155,304,26474,1,0,3:0:0:0:
127,237,26646,1,8,1:0:0:0:
261,308,26819,6,0,L|304:315,1,35,0|0,0:0|0:0,0:0:0:0:
308,327,26991,2,0,P|386:314|472:303,1,140,0|8,3:0|1:0,0:0:0:0:
506,232,27508,1,0,0:0:0:0:
501,222,27595,1,0,1:0:0:0:
496,212,27681,1,0,3:0:0:0:
370,322,27853,2,0,P|414:342|446:305,1,105,4|0,0:3|0:0,0:0:0:0:
450,292,28198,2,0,P|434:344|464:366,1,70,0|8,3:0|1:0,0:0:0:0:
511,120,28715,6,0,P|464:84|414:5,1,140,6|8,1:2|1:0,0:0:0:0:
325,196,29405,1,0,3:0:0:0:
368,131,29577,1,8,1:0:0:0:
368,131,29922,1,0,3:0:0:0:
308,78,30095,1,8,1:0:0:0:
105,148,30440,6,0,P|88:195|50:192,2,70,2|2|8,3:2|0:0|1:0,0:0:0:0:
39,44,30957,1,2,0:0:0:0:
28,41,31043,1,0,1:0:0:0:
18,46,31129,1,0,3:0:0:0:
29,124,31302,2,0,P|103:112|191:109,1,140,4|0,0:3|3:0,0:0:0:0:
225,52,31819,1,8,1:0:0:0:
326,272,32164,6,0,P|395:275|464:287,1,140,6|8,1:2|1:0,0:0:0:0:
287,332,32853,1,0,3:0:0:0:
327,263,33026,1,8,1:0:0:0:
327,263,33371,1,0,3:0:0:0:
207,358,33543,1,8,1:0:0:0:
2,153,33888,6,0,B|44:123|86:155|86:155|91:188|120:207,1,140,4|8,3:0|1:0,0:0:0:0:
174,248,34405,2,0,L|215:240,2,35,2|0|0,0:0|0:0|3:0,0:0:0:0:
299,174,34750,2,0,P|232:179|207:241,1,140,4|0,3:3|3:0,0:0:0:0:
180,364,35267,2,0,B|161:359|161:359|163:328|134:311,1,70,8|0,1:0|0:0,0:0:0:0:
42,207,35612,6,0,P|30:280|28:368,1,140,2|8,3:2|1:0,0:0:0:0:
110,127,36302,1,0,3:0:0:0:
74,57,36474,1,8,1:0:0:0:
74,57,36819,1,0,3:0:0:0:
181,167,36991,1,8,1:0:0:0:
470,207,37336,6,0,P|482:280|484:368,1,140,2|8,0:0|1:0,0:0:0:0:
402,127,38026,1,4,3:0:0:0:
438,57,38198,1,0,3:0:0:0:
438,57,38543,1,0,3:0:0:0:
331,167,38715,1,8,1:0:0:0:
266,235,38888,1,2,2:0:0:0:
265,241,38974,1,0,0:0:0:0:
264,247,39060,6,0,P|329:263|349:186,1,157.500006008148,2|0,0:0|0:0,0:0:0:0:
331,167,39405,2,0,P|334:198|379:206,1,70,8|2,1:0|0:0,0:0:0:0:
497,221,39750,1,0,3:0:0:0:
381,333,39922,2,0,B|371:333|371:333|412:321,1,42,8|0,1:0|0:0,0:0:0:0:
412,317,40267,1,0,3:0:0:0:
512,370,40440,2,0,P|512:339|478:316,1,70,8|0,1:0|0:0,0:0:0:0:
481,328,40698,1,0,0:0:0:0:
423,244,40784,6,0,B|391:212|313:232|308:315,1,157.500006008148,2|0,1:2|0:0,0:0:0:0:
309,319,41129,1,8,1:0:0:0:
174,353,41302,2,0,L|134:346,2,26.2500010013581,0|0|0,0:0|1:0|3:0,0:0:0:0:
174,353,41646,1,4,0:3:0:0:
83,153,41991,1,0,3:0:0:0:
52,274,42164,2,0,P|19:240|45:190,1,77.0000023498536,8|0,1:0|0:0,0:0:0:0:
13,99,42508,6,0,P|85:136|159:139,1,146.999995513916,6|0,1:2|0:0,0:0:0:0:
163,149,42853,2,0,P|185:130|155:98,1,70,8|2,1:0|0:0,0:0:0:0:
222,218,43198,1,0,3:0:0:0:
173,82,43371,2,0,P|119:71|75:143,1,140,8|0,1:0|3:0,0:0:0:0:
128,278,43888,2,0,L|165:282,1,28,8|0,1:0|0:0,0:0:0:0:
166,286,44146,1,0,0:0:0:0:
166,199,44233,6,0,P|75:216|-27:230,1,181.999991668702,2|8,3:2|1:0,0:0:0:0:
101,371,44750,2,0,P|113:361|139:355,1,31.4999990386963,0|0,0:0|1:0,0:0:0:0:
156,350,44922,1,0,3:0:0:0:
279,210,45095,2,0,P|310:218|349:224,1,70,4|2,0:3|0:3,0:0:0:0:
357,235,45440,1,0,3:0:0:0:
511,382,45612,2,0,B|490:384|490:384|522:344|512:307,1,105.000004005432,8|0,1:0|0:0,0:0:0:0:
438,113,45957,6,0,B|427:86|402:81|374:94|374:94|409:104|421:142,1,127.400004276734,6|8,1:2|1:0,0:0:0:0:
438,113,46646,5,0,3:0:0:0:
390,241,46819,1,8,1:0:0:0:
438,113,47163,5,0,3:0:0:0:
360,163,47336,2,0,B|318:101|397:102|341:19,2,127.400004276734,8|2|8,1:0|0:0|1:0,0:0:0:0:
360,163,48371,5,0,3:0:0:0:
335,240,48543,1,4,3:3:0:0:
251,268,48888,1,0,3:0:0:0:
202,147,49060,2,0,B|163:123|163:123|146:169,1,95.6250036478044,8|0,1:0|0:0,0:0:0:0:
202,147,49405,2,0,L|50:189,1,127.500004863739,4|8,1:2|1:0,0:0:0:0:
26,241,49922,1,2,0:0:0:0:
80,180,50095,1,0,3:0:0:0:
153,292,50267,1,8,1:0:0:0:
194,227,50440,6,0,P|149:193|65:182,1,127.500004863739,2|0,0:0|0:0,0:0:0:0:
44,113,50957,1,0,0:0:0:0:
194,227,51129,2,0,L|178:90,1,127.500004863739,2|8,1:2|1:0,0:0:0:0:
241,50,51646,1,2,0:0:0:0:
283,116,51819,1,0,3:0:0:0:
362,25,51991,1,4,3:0:0:0:
484,196,52164,2,0,B|446:189|404:220|404:220|412:204|400:192|419:180,1,127.500004863739,2|0,0:1|0:0,0:0:0:0:
484,196,52767,5,0,2:0:0:0:
484,196,52853,2,0,B|429:213|426:135|351:173,1,127.500004863739,4|8,1:0|1:0,0:0:0:0:
307,116,53371,5,2,0:0:0:0:
286,204,53543,1,0,0:0:0:0:
211,234,53715,1,8,1:0:0:0:
145,135,53888,2,0,P|130:96|138:52,1,63.7500024318696,2|0,0:0|3:0,0:0:0:0:
235,0,54233,2,0,P|222:28|221:60,1,63.7500024318696,8|2,1:0|0:0,0:0:0:0:
421,88,54577,6,0,P|368:54|305:50,1,127.500004863739,4|8,1:2|1:0,0:0:0:0:
275,139,55095,1,2,0:0:0:0:
221,60,55267,2,0,P|222:28|235:0,1,63.7500024318696,0|0,0:0|3:0,0:0:0:0:
385,38,55612,2,0,P|384:69|371:98,1,63.7500024318696,2|0,0:0|3:0,0:0:0:0:
464,244,55957,5,8,1:0:0:0:
433,172,56129,1,2,0:0:0:0:
452,260,56302,2,0,L|299:280,1,127.500004863739,2|8,0:0|1:0,0:0:0:0:
225,271,56819,2,0,L|231:205,1,63.7500024318696,2|0,1:2|3:0,0:0:0:0:
277,346,57164,1,8,1:0:0:0:
204,298,57336,2,0,L|210:232,1,63.7500024318696,2|0,0:0|3:0,0:0:0:0:
59,316,57681,6,0,P|37:293|6:287,1,63.7500024318696,10|0,1:2|0:0,0:0:0:0:
6,287,58026,2,0,P|113:273|151:286,1,127.500004863739,2|8,3:0|1:0,0:0:0:0:
128,200,58543,1,2,0:0:0:0:
206,309,58715,1,0,3:0:0:0:
269,257,58888,1,4,0:3:0:0:
269,257,59060,1,2,0:2:0:0:
341,366,59233,1,0,3:0:0:0:
446,286,59405,2,0,B|469:272|459:237|459:237|452:259|424:272,1,95.6250036478044,10|0,1:2|0:0,0:0:0:0:
446,286,59750,6,0,P|426:245|353:214,1,127.500004863739,6|8,1:2|1:0,0:0:0:0:
354,213,60440,1,0,3:0:0:0:
257,291,60612,1,8,1:0:0:0:
186,178,60784,2,0,P|185:210|199:238,1,63.7500024318696,2|0,0:0|3:0,0:0:0:0:
296,120,61129,2,0,P|277:144|272:176,1,63.7500024318696,8|0,1:0|0:0,0:0:0:0:
491,98,61474,6,0,B|443:117|404:84|404:84|415:42,1,127.500004863739,2|8,1:2|1:0,0:0:0:0:
413,50,61991,2,0,B|379:44|379:44|336:69,1,63.7500024318696,2|0,0:1|3:0,0:0:0:0:
417,202,62336,2,0,B|392:216|392:216|358:211,1,63.7500024318696,4|2,0:3|0:0,0:0:0:0:
486,32,62681,1,0,3:0:0:0:
466,135,62853,2,0,B|473:112|473:112|499:109|511:120,1,63.7500024318696,10|0,1:2|0:0,0:0:0:0:
511,120,63198,2,0,L|371:130,1,127.500004863739,2|8,0:0|1:0,0:0:0:0:
384,129,63888,1,2,3:2:0:0:
261,159,64060,2,0,B|264:94|338:128|318:33,1,127.500004863739,8|0,1:0|3:0,0:0:0:0:
322,55,64577,5,8,1:0:0:0:
250,92,64750,1,2,0:0:0:0:
162,73,64922,5,2,3:0:0:0:
100,2,65095,1,2,0:0:0:0:
151,88,65267,5,8,1:0:0:0:
148,13,65440,1,2,1:3:0:0:
130,86,65612,5,0,3:0:0:0:
83,111,65784,5,4,0:3:0:0:
52,105,65957,5,2,0:0:0:0:
26,27,66129,5,0,3:0:0:0:
26,27,66302,2,0,L|21:94,1,63.7500024318696,8|2,1:0|0:0,0:0:0:0:
105,257,66646,6,0,L|117:120,1,127.500004863739,6|8,1:0|1:0,0:0:0:0:
89,198,67164,6,0,L|81:286,1,63.7500024318696,2|0,0:0|0:0,0:0:0:0:
157,318,67508,1,8,1:0:0:0:
219,253,67681,2,0,L|227:165,1,63.7500024318696,2|0,0:0|3:0,0:0:0:0:
339,137,68026,6,0,L|332:211,1,63.7000021383668,8|2,1:0|0:3,0:0:0:0:
424,274,68371,6,0,L|431:135,1,127.400004276734,6|8,1:2|1:0,0:0:0:0:
458,203,68887,6,0,L|453:274,1,63.7000021383668,2|0,1:2|0:0,0:0:0:0:
371,330,69233,1,0,1:0:0:0:
308,197,69406,6,0,L|300:285,1,63.7500024318696,2|0,0:0|0:0,0:0:0:0:
200,362,69750,6,0,L|200:272,1,63.7500024318696,8|0,1:0|2:0,0:0:0:0:
410,363,70095,6,0,P|370:328|286:310,1,127.500004863739,2|8,0:0|1:0,0:0:0:0:
371,309,70612,2,0,P|390:271|414:252,1,63.7000021383668,2|0,0:1|3:0,0:0:0:0:
470,312,70957,1,8,1:0:0:0:
400,235,71129,2,0,L|388:166,1,63.7000021383668,2|2,0:1|3:2,0:0:0:0:
465,65,71474,5,10,1:2:0:0:
465,65,71646,1,0,0:0:0:0:
465,65,71819,1,0,3:2:0:0:
446,155,71991,5,2,0:0:0:0:
377,121,72164,1,10,1:2:0:0:
315,130,72336,1,2,0:0:0:0:
280,165,72508,1,2,3:2:0:0:
229,221,72681,1,4,0:3:0:0:
143,240,72853,1,2,0:2:0:0:
70,178,73026,1,0,3:0:0:0:
98,61,73198,5,10,1:0:0:0:
141,162,73371,1,2,0:0:0:0:
216,179,73543,1,6,1:2:0:0:
269,53,73715,1,0,0:0:0:0:
337,116,73888,6,0,P|365:125|401:111,1,63.7500024318696,8|2,1:0|0:0,0:0:0:0:
432,46,74233,1,0,3:0:0:0:
334,121,74405,2,0,P|393:133|463:190,1,127.500004863739,8|0,1:0|3:0,0:0:0:0:
317,249,74922,6,0,P|310:218|286:197,1,63.7500024318696,8|0,1:0|0:0,0:0:0:0:
397,114,75267,2,0,P|368:124|337:115,1,63.7500024318696,4|2,3:0|0:3,0:0:0:0:
417,252,75612,2,0,P|423:221|445:200,1,63.7500024318696,10|2,1:0|1:2,0:0:0:0:
497,262,75957,1,0,3:0:0:0:
468,333,76129,1,2,3:2:0:0:
390,349,76302,1,2,0:0:0:0:
327,295,76474,1,2,3:2:0:0:
252,264,76646,1,8,1:0:0:0:
251,271,76818,1,2,0:0:0:0:
387,365,76991,6,0,L|209:345,1,159.250005345917,4|0,1:3|0:0,0:0:0:0:
250,275,77508,1,2,1:3:0:0:
328,189,77681,2,0,B|345:211|333:236|333:236|321:215|297:198,1,95.5500032075502,4|0,1:3|0:0,0:0:0:0:
250,275,78026,5,8,1:3:0:0:
211,245,78112,1,0,1:3:0:0:
167,234,78198,1,0,1:3:0:0:
125,239,78284,1,8,1:3:0:0:
100,255,78371,1,8,3:0:0:0:
91,278,78457,1,8,3:0:0:0:
87,262,78543,1,8,3:0:0:0:
105,270,78629,1,8,3:0:0:0:
96,269,78715,1,12,1:0:0:0:
435,82,80439,6,0,B|458:55|458:55|339:37|339:37|356:85,1,188.999994232178,4|2,1:0|0:0,0:0:0:0:
356,74,80783,1,0,1:0:0:0:
187,21,80956,1,2,0:0:0:0:
179,29,81042,1,0,0:0:0:0:
171,36,81128,2,0,P|158:72|170:108,1,62.9999980773926,0|0,3:0|0:0,0:0:0:0:
295,243,81473,6,0,B|275:210|237:225|237:225|231:247|187:262,1,125.999996154785,0|0,3:0|0:0,0:0:0:0:
129,312,81818,2,0,B|147:331|151:363|151:363|159:358|158:338,1,83.9999974365235,2|0,3:1|0:0,0:0:0:0:
34,162,82163,2,0,B|13:156|13:156|64:192,1,83.9999974365235,2|0,3:1|0:0,0:0:0:0:
71,198,82421,1,2,0:0:0:0:
77,202,82507,6,0,P|87:122|14:156,1,195.999994018555,4|0,1:0|3:0,0:0:0:0:
252,25,83111,1,0,0:0:0:0:
257,34,83197,2,0,B|275:45|308:31|308:31|290:44|284:65,1,70,0|2,0:0|0:0,0:0:0:0:
383,153,83542,2,0,P|381:119|359:92,1,70,0|0,3:0|0:0,0:0:0:0:
316,275,83887,6,0,P|386:253|459:254,1,146.999995513916,0|2,3:0|0:0,0:0:0:0:
512,306,84232,2,0,P|463:310|471:261,1,97.9999970092774,2|2,3:0|0:0,0:0:0:0:
463,121,84490,5,0,0:0:0:0:
457,114,84576,2,0,B|428:84|375:98|354:183|423:219,1,168,4|0,1:0|0:0,0:0:0:0:
460,271,84921,2,0,P|492:237|489:174,1,83.9999974365235,0|2,3:0|0:0,0:0:0:0:
143,328,85439,5,2,0:0:0:0:
212,364,85611,1,2,0:3:0:0:
216,371,85697,2,0,P|253:338|227:282,1,112,2|0,0:3|0:0,0:0:0:0:
162,243,85956,6,0,L|43:268,1,97.9999970092774,2|0,1:2|0:0,0:0:0:0:
307,88,86301,2,0,B|266:97|266:97|256:108|256:108|241:104|241:104|183:117,1,112,2|2,1:3|0:0,0:0:0:0:
166,235,86559,1,2,0:0:0:0:
162,243,86645,2,0,B|194:277|255:261|279:164|200:123,1,188.999994232178,4|0,1:0|0:0,0:0:0:0:
202,112,86990,1,0,3:0:0:0:
53,54,87163,6,0,L|62:14,2,35,2|0|0,0:0|0:0|0:0,0:0:0:0:
92,122,87507,1,0,0:0:0:0:
225,34,87680,6,0,P|192:22|166:-1,1,70,0|2,3:0|0:2,0:0:0:0:
157,191,88025,2,0,P|184:169|217:156,1,70,2|0,3:0|0:0,0:0:0:0:
53,54,88370,2,0,P|59:88|54:122,1,70,2|2,0:0|0:3,0:0:0:0:
157,191,88714,6,0,B|258:174|258:174|216:156,1,146.999995513916,4|0,1:0|0:0,0:0:0:0:
207,153,89059,1,2,3:0:0:0:
107,283,89232,2,0,B|95:321|128:353|158:352|158:352|150:332|119:327,1,140,2|2,0:0|0:0,0:0:0:0:
33,323,89749,6,0,B|4:331|8:360|8:360|16:347|33:341,1,73.4999977569581,0|0,3:0|0:0,0:0:0:0:
107,283,90094,2,0,B|141:232|118:200|118:200|106:223|116:245,1,125.999996154785,2|0,3:1|0:0,0:0:0:0:
147,357,90439,2,0,P|184:369|227:324,1,83.9999974365235,2|2,3:1|0:3,0:0:0:0:
332,175,90783,6,0,B|374:151|374:151|419:178|419:178|414:243|487:270|516:233,1,224,6|0,1:0|3:0,0:0:0:0:
428,79,91301,1,2,1:2:0:0:
499,170,91473,2,0,P|516:157|489:128,1,70,0|2,0:0|0:0,0:0:0:0:
325,91,91818,6,0,B|330:104|330:104|459:72,1,115.50000352478,0|0,3:0|0:0,0:0:0:0:
490,48,92163,2,0,B|512:16|435:20|432:115|486:158,1,168,6|0,0:0|0:0,0:0:0:0:
499,170,92507,1,2,1:0:0:0:
355,334,92680,5,0,0:0:0:0:
358,345,92766,1,2,1:3:0:0:
359,358,92852,2,0,B|430:322|425:234|381:210|381:210|366:255|398:281,1,251.999992309571,6|2,1:0|0:3,0:0:0:0:
482,354,93370,2,0,L|533:343,2,35,2|0|2,0:0|0:0|3:2,0:0:0:0:
392,276,93714,1,0,0:0:0:0:
188,369,93887,1,2,0:0:0:0:
188,369,93973,2,0,B|195:351|195:351|156:248,1,97.9999970092774,2|0,0:0|0:0,0:0:0:0:
104,212,94232,6,0,B|79:205|55:216|55:216|78:238|108:227,1,97.9999970092774,2|0,0:0|0:0,0:0:0:0:
228,51,94576,2,0,B|259:36|307:103|257:170|181:166,1,188.999994232178,2|0,0:3|0:0,0:0:0:0:
97,107,94921,6,0,B|107:73|157:56|191:89|191:89|146:89|117:130,1,195.999994018555,6|2,0:0|3:0,0:0:0:0:
7,49,95439,2,0,B|-4:47|-4:47|7:3,1,48.9999985046387,2|0,0:0|0:0,0:0:0:0:
11,6,95611,2,0,L|22:132,1,97.9999970092774,0|0,0:0|0:0,0:0:0:0:
23,246,95956,5,12,1:0:0:0:
97,175,96128,5,0,0:0:0:0:
139,161,96214,1,8,3:0:0:0:
180,184,96301,1,8,3:0:0:0:
241,264,96473,1,2,0:0:0:0:
159,338,96645,2,0,B|96:352|96:352|142:319,1,90.9999958343508,12|0,1:0|0:0,0:0:0:0:
410,202,96990,6,0,B|524:225|524:225|451:240,1,168,14|2,1:0|1:2,0:0:0:0:
465,239,97335,1,8,3:0:0:0:
357,8,97507,2,0,B|347:22|347:22|225:38|225:38|214:64,1,168,10|0,1:2|0:0,0:0:0:0:
214,63,97852,1,2,0:0:0:0:
336,253,98025,6,0,B|319:226|319:226|345:142,1,112,10|0,1:2|0:0,0:0:0:0:
263,347,98370,2,0,P|223:358|166:369,1,83.9999974365235,2|0,1:2|0:0,0:0:0:0:
429,184,98714,2,0,P|503:220|443:313,1,188.999994232178,10|8,1:0|1:3,0:0:0:0:
444,304,99059,6,0,P|399:286|418:199,1,146.999995513916,12|0,0:1|0:0,0:0:0:0:
464,112,99318,1,0,0:0:0:0:
483,118,99404,1,2,1:2:0:0:
456,11,99576,2,0,P|369:35|232:58,1,188.999994232178,12|0,1:2|0:0,0:0:0:0:
185,69,99921,2,0,B|174:33|201:18|201:18|187:42|199:73,1,90.9999958343508,2|10,0:3|1:2,0:0:0:0:
231,130,100266,1,2,0:0:0:0:
14,83,100439,5,2,0:0:0:0:
86,48,100611,1,0,0:0:0:0:
196,201,100783,5,10,1:0:0:0:
98,142,100956,1,0,0:0:0:0:
0,368,101128,6,0,B|2:380|2:380|165:351,1,125.999996154785,12|0,1:0|0:0,0:0:0:0:
190,297,101387,1,2,1:2:0:0:
209,304,101473,1,8,3:0:0:0:
445,374,101645,2,0,B|480:364|483:334|483:334|290:383,1,210.000008010865,12|2,1:2|0:0,0:0:0:0:
195,384,102163,5,8,1:0:0:0:
334,283,102335,1,0,0:0:0:0:
273,153,102507,2,0,B|263:195|263:195|267:198|267:198|258:247,1,90.9999958343508,2|0,3:3|0:0,0:0:0:0:
493,96,102852,6,0,P|457:21|344:68,1,188.999994232178,10|0,1:0|0:0,0:0:0:0:
305,111,103197,2,0,B|275:111|274:74|373:78|356:183,1,146.999995513916,6|0,1:2|0:0,0:0:0:0:
367,254,103456,1,8,1:0:0:0:
367,254,103542,2,0,B|392:265|392:265|380:225,1,52.5000020027161,8|0,3:0|0:0,0:0:0:0:
226,210,103714,2,0,B|274:153|355:174|355:174|319:182|290:218,1,181.999991668702,12|2,1:2|0:3,0:0:0:0:
313,196,104232,5,12,1:2:0:0:
482,371,104404,1,0,0:0:0:0:
511,244,104576,5,6,0:2:0:0:
361,331,104749,1,8,2:1:0:0:
320,353,104835,1,8,2:1:0:0:
277,343,104921,1,8,1:0:0:0:
240,313,105007,1,8,3:0:0:0:
203,302,105094,1,2,3:1:0:0:
161,316,105180,1,10,1:0:0:0:
161,353,105266,6,0,L|139:200,1,125.999996154785,6|0,1:0|0:0,0:0:0:0:
175,141,105525,1,8,0:0:0:0:
180,123,105611,1,0,0:0:0:0:
34,17,105783,2,0,B|18:0|-2:15|-2:15|3:41|41:61|68:46,1,125.999996154785,12|2,1:0|0:0,0:0:0:0:
191,39,106301,6,0,P|130:51|112:169,1,157.500006008148,12|0,1:2|0:0,0:0:0:0:
59,231,106645,2,0,B|68:211|68:211|23:193|22:148,1,105.000004005432,2|2,3:2|0:3,0:0:0:0:
257,290,106990,2,0,P|263:333|184:325,1,105.000004005432,10|0,1:0|0:0,0:0:0:0:
160,306,107249,5,8,1:0:0:0:
151,311,107335,2,0,P|224:372|265:255,1,251.999992309571,14|8,1:0|3:0,0:0:0:0:
228,140,107852,2,0,L|243:78,1,45.4999979171754,12|0,1:2|0:0,0:0:0:0:
260,18,108025,1,2,1:2:0:0:
274,13,108197,1,2,0:0:0:0:
387,201,108370,6,0,B|343:231|343:231|331:204|295:202,1,105.000004005432,12|2,1:2|0:0,0:0:0:0:
461,7,108714,2,0,B|469:62|469:62|466:63|466:63|477:130,1,105.000004005432,2|2,1:0|1:0,0:0:0:0:
502,185,108973,1,0,0:0:0:0:
492,204,109059,2,0,B|478:221|478:221|469:175,1,62.9999980773926,10|2,1:0|0:0,0:0:0:0:
492,204,109404,6,0,B|453:177|369:215|403:315,1,188.999994232178,6|8,1:0|1:0,0:0:0:0:
445,378,109749,1,2,0:0:0:0:
381,144,109921,1,10,1:2:0:0:
304,108,110094,2,0,L|284:199,1,83.9999974365235,0|2,0:0|0:0,0:0:0:0:
142,347,110439,6,0,B|214:338|214:338|240:313|207:297,1,125.999996154785,8|0,1:0|0:0,0:0:0:0:
192,298,110783,2,0,B|207:363|263:365|263:365|252:334|226:318,1,168,2|0,1:2|0:0,0:0:0:0:
188,219,111128,2,0,B|152:197|119:219|119:219|144:236|170:225,1,125.999996154785,12|0,1:0|0:0,0:0:0:0:
267,233,111387,1,0,0:0:0:0:
308,152,111473,6,0,B|430:113|320:76|462:45,1,188.999994232178,14|0,1:2|1:0,0:0:0:0:
452,47,111818,1,10,3:0:0:0:
209,12,111990,1,10,1:0:0:0:
110,44,112163,2,0,L|245:14,1,97.9999970092774,2|2,0:0|1:2,0:0:0:0:
29,219,112507,2,0,B|9:232|9:232|51:147,1,97.9999970092774,8|0,1:0|0:0,0:0:0:0:
205,22,112852,5,8,1:3:0:0:
26,87,113025,1,8,1:3:0:0:
247,108,113197,5,8,1:0:0:0:
94,11,113370,1,10,1:0:0:0:
189,207,113542,5,4,1:0:0:0:
256,192,113628,12,8,115223,1:0:0:0:
254,74,115610,6,0,B|296:99|292:164|253:178|253:178|228:157|190:164,1,181.999991668702,4|2,0:2|0:0,0:0:0:0:
254,74,116127,1,8,1:0:0:0:
193,235,116300,2,0,B|269:205|250:265|334:231,1,127.500004863739,0|0,0:0|0:0,0:0:0:0:
384,334,116817,5,0,0:0:0:0:
384,334,116989,1,2,0:0:0:0:
459,281,117161,1,0,0:0:0:0:
459,281,117247,1,0,0:0:0:0:
459,281,117334,1,0,0:0:0:0:
477,189,117506,1,0,3:0:0:0:
401,47,117851,6,0,P|444:54|465:81,1,63.7500024318696,8|4,1:0|0:3,0:0:0:0:
342,0,118196,1,2,3:0:0:0:
457,67,118369,2,0,P|414:79|364:135,1,95.6250036478044,12|0,0:0|0:0,0:0:0:0:
323,202,118713,2,0,B|295:184|309:150|309:150|315:172|342:185,1,95.6250036478044,6|0,0:3|0:0,0:0:0:0:
376,112,119058,2,0,L|235:99,1,127.500004863739,6|2,0:3|0:0,0:0:0:0:
135,134,119575,6,0,B|114:68|192:99|163:13,1,127.500004863739,8|0,0:0|0:0,0:0:0:0:
63,162,120093,2,0,P|50:133|53:101,1,63.7500024318696,10|0,0:0|0:0,0:0:0:0:
127,211,120438,2,0,L|206:218,1,63.7500024318696,4|0,0:3|3:0,0:0:0:0:
240,151,120782,5,2,3:2:0:0:
282,273,120955,1,0,3:0:0:0:
357,236,121300,2,0,P|373:204|360:168,1,63.7500024318696,10|4,1:2|0:3,0:0:0:0:
304,109,121644,1,0,3:0:0:0:
368,178,121817,2,0,B|375:254|432:214|436:287,1,127.500004863739,10|0,1:2|0:0,0:0:0:0:
219,358,122506,5,4,3:2:0:0:
297,341,122679,1,2,0:0:0:0:
320,267,122851,1,4,0:3:0:0:
198,234,123024,1,8,1:2:0:0:
218,150,123369,5,2,3:2:0:0:
296,133,123542,1,8,1:0:0:0:
324,62,123713,1,0,0:0:0:0:
203,27,123886,2,0,L|71:48,1,127.500004863739,4|0,0:3|0:0,0:0:0:0:
77,47,124403,5,2,3:2:0:0:
151,70,124575,1,4,0:3:0:0:
217,90,124748,1,10,1:2:0:0:
237,44,124920,5,0,0:0:0:0:
151,70,125093,1,0,3:2:0:0:
65,94,125265,1,10,0:0:0:0:
22,34,125438,5,0,0:0:0:0:
151,70,125610,1,2,1:2:0:0:
151,70,125955,6,0,P|219:27|281:33,1,127.500004863739,6|0,1:3|0:0,0:0:0:0:
337,0,126472,2,0,B|353:22|353:22|337:87,1,63.7500024318696,10|4,1:2|0:3,0:0:0:0:
263,27,126817,1,2,1:2:0:0:
268,172,126989,2,0,B|284:150|284:150|268:85,1,63.7500024318696,10|0,0:0|0:0,0:0:0:0:
258,177,127334,2,0,L|392:184,1,127.500004863739,2|0,1:2|0:0,0:0:0:0:
453,236,127851,1,2,0:3:0:0:
453,236,128024,1,4,0:3:0:0:
363,335,128196,1,10,1:2:0:0:
254,255,128369,1,0,0:0:0:0:
204,320,128541,5,2,1:2:0:0:
114,221,128713,1,8,1:0:0:0:
5,301,128886,1,0,3:0:0:0:
254,255,129058,5,10,3:0:0:0:
254,255,129231,1,0,3:0:0:0:
254,255,129403,2,0,L|406:283,1,127.500004863739,4|0,1:0|0:0,0:0:0:0:
447,236,129920,1,10,1:2:0:0:
379,278,130093,2,0,B|363:248|363:248|379:194|372:195,1,63.7500024318696,0|0,0:0|3:0,0:0:0:0:
431,103,130437,6,0,L|440:57,2,42.4666680922445,10|2|2,1:2|0:0|0:0,0:0:0:0:
348,137,130782,6,0,L|303:153,2,42.4666680922445,4|2|2,1:3|1:2|1:2,0:0:0:0:
431,187,131127,1,6,3:0:0:0:
431,187,131644,6,0,P|369:166|302:180,1,127.500004863739,10|0,1:2|3:0,0:0:0:0:
266,65,132162,6,0,P|228:51|208:32,1,63.7500024318696,10|0,1:2|0:0,0:0:0:0:
153,160,132506,2,0,P|122:169|98:189,1,63.7500024318696,6|2,0:3|0:0,0:0:0:0:
38,241,132851,1,0,0:0:0:0:
103,196,133369,6,0,B|121:228|115:260|115:260|139:234|188:229,1,127.500004863739,8|0,1:0|0:0,0:0:0:0:
58,353,133886,5,8,1:0:0:0:
83,365,134058,5,2,0:2:0:0:
102,363,134231,5,6,0:3:0:0:
137,348,134403,5,2,0:0:0:0:
209,288,134575,5,6,3:0:0:0:
233,209,134747,1,2,3:2:0:0:
202,118,134920,1,6,0:3:0:0:
141,62,135092,1,8,1:0:0:0:
63,67,135265,1,6,0:3:0:0:
9,125,135438,1,0,3:0:0:0:
12,205,135610,5,10,1:2:0:0:
71,259,135782,1,0,0:0:0:0:
150,255,135955,1,6,0:3:0:0:
204,197,136127,1,0,0:0:0:0:
311,264,136300,5,6,3:2:0:0:
370,210,136472,1,2,0:0:0:0:
449,214,136645,1,0,0:0:0:0:
503,272,136817,1,8,1:0:0:0:
503,272,137162,5,0,3:0:0:0:
471,141,137334,2,0,P|449:79|457:46,1,95.6250036478044,10|0,1:2|0:0,0:0:0:0:
454,51,137679,2,0,P|437:87|399:91,1,63.7500024318696,4|0,0:3|0:0,0:0:0:0:
379,203,138024,2,0,P|354:175|316:171,1,63.7500024318696,6|0,3:0|0:0,0:0:0:0:
354,52,138369,1,6,0:3:0:0:
305,179,138541,1,10,1:2:0:0:
230,212,138886,5,2,3:0:0:0:
184,75,139058,2,0,P|139:91|137:143,1,95.6250036478044,10|0,1:2|0:0,0:0:0:0:
184,75,139403,1,4,0:3:0:0:
133,135,139748,2,0,L|-5:154,1,127.500004863739,6|0,3:0|0:0,0:0:0:0:
6,152,140265,2,0,B|39:165|39:165|62:213,1,63.7500024318696,10|0,1:2|0:0,0:0:0:0:
9,302,140610,1,2,3:2:0:0:
146,236,140782,2,0,B|178:223|178:223|201:175,1,63.7500024318696,8|0,1:0|0:0,0:0:0:0:
93,296,141127,2,0,B|125:283|125:283|148:235,1,63.7500024318696,2|0,0:0|0:0,0:0:0:0:
93,296,141472,6,0,B|142:290|172:324|172:324|152:346|157:382,1,127.500004863739,2|4,3:2|0:3,0:0:0:0:
235,370,141903,1,0,0:0:0:0:
235,370,141989,2,0,L|356:353,1,95.6250036478044,8|0,1:0|0:0,0:0:0:0:
329,356,142334,5,2,0:0:0:0:
402,267,142506,2,0,B|420:289|420:289|412:347,1,63.7500024318696,8|0,1:0|3:0,0:0:0:0:
314,272,142851,2,0,B|296:250|296:250|304:192,1,63.7500024318696,2|0,0:0|0:0,0:0:0:0:
469,177,143196,5,4,0:1:0:0:
421,116,143369,1,2,0:0:0:0:
352,149,143541,1,0,0:0:0:0:
402,267,143713,5,0,0:0:0:0:
347,325,143886,1,2,0:0:0:0:
285,295,144058,1,2,0:0:0:0:
225,384,144231,5,0,0:0:0:0:
285,295,144403,1,0,0:0:0:0:
381,357,144575,1,2,0:0:0:0:
285,295,144748,1,2,0:0:0:0:
184,316,144920,5,2,0:3:0:0:
115,349,145092,1,0,0:0:0:0:
67,288,145265,1,0,0:0:0:0:
117,170,145437,5,0,0:0:0:0:
48,137,145609,1,2,0:0:0:0:
0,198,145782,1,2,0:0:0:0:
67,288,145955,5,0,0:0:0:0:
67,288,146127,1,0,0:0:0:0:
170,237,146300,5,8,1:0:0:0:
170,237,146644,6,0,L|314:257,1,140,0|8,3:0|0:0,0:0:0:0:
417,332,147247,1,8,0:0:0:0:
425,314,147334,1,0,0:0:0:0:
408,237,147506,1,0,0:0:0:0:
347,287,147678,1,0,3:0:0:0:
262,188,147851,2,0,P|249:155|254:112,1,70,0|8,3:0|0:0,0:0:0:0:
448,73,148282,1,8,0:0:0:0:
457,99,148368,2,0,P|390:96|321:167,1,140,0|8,0:0|0:0,0:0:0:0:
333,138,148885,5,0,0:0:0:0:
363,217,149057,1,0,3:0:0:0:
444,192,149230,2,0,P|479:206|482:246,1,70,2|0,0:0|3:0,0:0:0:0:
485,234,149575,2,0,L|502:144,2,70,0|8|0,3:0|0:0|0:0,0:0:0:0:
485,234,150092,6,0,P|428:243|408:335,1,140,4|8,3:2|0:0,0:0:0:0:
330,350,150696,1,8,0:0:0:0:
323,322,150782,1,0,3:0:0:0:
252,354,150954,1,0,0:0:0:0:
160,258,151127,6,0,P|203:237|215:212,1,70,0|0,3:0|3:0,0:0:0:0:
203,140,151472,2,0,P|163:113|135:115,1,70,8|0,0:0|0:0,0:0:0:0:
126,120,151730,5,8,0:0:0:0:
115,133,151816,2,0,B|84:71|157:82|120:-5,1,140,0|8,3:0|0:0,0:0:0:0:
199,16,152420,1,8,0:0:0:0:
203,43,152506,1,0,3:0:0:0:
277,21,152678,2,0,P|316:23|346:56,1,70,0|0,0:0|0:0,0:0:0:0:
338,41,153023,2,0,B|325:75|325:75|339:117,2,70,0|8|0,3:0|0:0|0:0,0:0:0:0:
338,41,153454,1,8,0:0:0:0:
338,41,153541,2,0,L|359:207,1,140,0|8,3:0|0:0,0:0:0:0:
427,215,154144,1,8,0:0:0:0:
453,206,154230,1,0,3:0:0:0:
401,308,154403,6,0,P|367:284|356:240,1,70,0|0,0:0|3:0,0:0:0:0:
326,105,154747,6,0,P|286:116|262:154,2,70,0|8|0,3:0|0:0|0:0,0:0:0:0:
340,109,155178,1,8,0:0:0:0:
350,123,155265,2,0,P|299:112|255:32,1,140,0|8,3:0|0:0,0:0:0:0:
180,57,155868,1,8,0:0:0:0:
183,25,155954,1,0,3:0:0:0:
107,42,156127,1,0,0:0:0:0:
23,143,156299,6,0,P|65:159|81:202,2,70,0|0|8,3:0|3:0|0:0,0:0:0:0:
14,225,156816,1,0,0:0:0:0:
14,225,156903,1,8,0:0:0:0:
14,225,156989,2,0,P|61:197|148:181,1,140,4|8,3:2|0:0,0:0:0:0:
196,238,157592,1,8,0:0:0:0:
226,246,157678,1,0,3:0:0:0:
293,201,157851,1,0,0:0:0:0:
351,323,158023,6,0,P|324:287|287:285,2,70,2|0|8,0:0|3:0|0:0,0:0:0:0:
353,322,158713,2,0,P|417:300|441:248,1,105,0|0,3:0|0:0,0:0:0:0:
375,196,159058,2,0,B|358:209|366:235|366:235|375:214|402:197,2,70,8|0|0,0:0|0:0|3:0,0:0:0:0:
375,196,159575,1,8,0:0:0:0:
436,270,159747,2,0,B|452:287|472:280|472:280|478:258|504:245,1,70,0|0,3:0|3:0,0:0:0:0:
401,119,160092,5,8,0:0:0:0:
403,105,160178,1,0,0:0:0:0:
405,80,160265,1,10,0:2:0:0:
406,66,160351,1,8,0:0:0:0:
408,46,160437,6,0,P|351:25|319:91,1,140,0|8,3:0|0:0,0:0:0:0:
375,196,161041,1,8,0:0:0:0:
375,196,161127,2,0,P|328:184|284:196,2,70,0|2|0,3:0|3:2|0:0,0:0:0:0:
436,250,161644,1,0,3:0:0:0:
488,192,161816,2,0,L|503:113,1,70,8|0,0:0|0:0,0:0:0:0:
454,61,162075,1,8,0:0:0:0:
454,61,162161,6,0,L|293:88,1,140,0|8,3:0|0:0,0:0:0:0:
234,60,162765,1,8,0:0:0:0:
234,60,162851,1,0,3:0:0:0:
201,128,163023,1,8,0:0:0:0:
236,200,163196,1,0,0:0:0:0:
252,276,163368,1,0,3:0:0:0:
205,340,163541,2,0,P|171:354|119:346,1,70,8|0,0:0|0:0,0:0:0:0:
326,241,163885,6,0,P|362:240|431:322,1,140,4|8,3:2|0:0,0:0:0:0:
430,311,164489,1,8,0:0:0:0:
430,311,164575,1,0,3:0:0:0:
501,272,164747,1,8,0:0:0:0:
430,238,164920,1,8,0:0:0:0:
512,348,165092,1,0,3:0:0:0:
430,238,165265,2,0,P|385:213|341:221,1,70,8|8,0:0|0:0,0:0:0:0:
202,122,165610,6,0,P|170:167|73:191,1,140,0|8,3:0|0:0,0:0:0:0:
14,162,166127,2,0,L|25:107,2,35,0|0|0,0:0|0:0|3:0,0:0:0:0:
14,162,166472,2,0,L|25:261,1,70,8|0,0:0|0:0,0:0:0:0:
69,313,166816,1,0,3:0:0:0:
69,313,166989,2,0,P|32:309|-15:340,1,70,8|8,0:0|0:0,0:0:0:0:
113,384,167247,1,8,0:0:0:0:
127,377,167334,6,0,P|148:349|117:244,2,140,2|8|0,3:2|0:0|3:0,0:0:0:0:
113,384,168196,1,10,0:0:0:0:
46,304,168368,2,0,B|49:340|49:340|73:307,1,70,0|0,0:0|3:0,0:0:0:0:
132,248,168713,2,0,L|205:232,1,70,8|0,0:0|0:0,0:0:0:0:
349,102,169058,6,0,P|290:94|252:176,1,140,8|8,3:2|0:0,0:0:0:0:
319,266,169575,2,0,L|367:274,1,35,0|8,3:0|0:0,0:0:0:0:
366,284,169747,1,0,3:0:0:0:
463,245,169920,1,8,0:0:0:0:
392,212,170093,2,0,P|396:169|431:135,1,70,0|8,3:0|0:0,0:0:0:0:
243,88,170438,2,0,P|251:52|221:9,1,70,8|0,0:0|0:0,0:0:0:0:
383,10,170782,6,0,P|343:65|313:160,1,140,10|8,3:2|0:0,0:0:0:0:
295,226,171299,2,0,L|316:276,2,35,0|8|0,0:0|0:0|3:0,0:0:0:0:
311,137,171644,1,0,3:0:0:0:
207,184,171816,1,2,0:0:0:0:
207,184,171989,1,0,3:0:0:0:
207,184,172161,2,0,P|183:193|130:225,1,70,10|0,0:0|0:0,0:0:0:0:
136,115,172506,6,0,P|76:134|-4:145,1,140,10|0,0:0|3:0,0:0:0:0:
171,36,173023,2,0,L|203:7,2,35,0|0|8,0:0|0:0|0:0,0:0:0:0:
88,46,173368,1,8,0:0:0:0:
222,108,173541,1,0,3:0:0:0:
222,108,173713,1,0,0:0:0:0:
420,39,173885,6,0,P|462:41|523:57,1,105,12|0,0:0|0:0,0:0:0:0:
414,34,174230,5,0,3:0:0:0:
361,309,174575,1,0,0:0:0:0:
386,333,174747,1,2,0:0:0:0:
457,347,174920,1,0,3:0:0:0:
510,287,175092,1,2,0:0:0:0:
493,209,175265,1,0,3:0:0:0:
423,186,175438,1,0,0:0:0:0:
391,196,175610,1,0,3:0:0:0:
432,264,175954,5,2,3:2:0:0:
185,313,176299,1,0,3:0:0:0:
151,291,176472,1,2,0:0:0:0:
139,219,176644,1,0,0:0:0:0:
189,160,176816,1,10,0:0:0:0:
249,76,176989,5,0,3:0:0:0:
216,9,177161,1,0,0:0:0:0:
115,156,177334,5,0,3:0:0:0:
189,160,177506,1,0,0:0:0:0:
99,6,177678,6,0,P|25:58|19:121,2,140,0|10|2,3:0|0:2|3:2,0:0:0:0:
163,47,178541,2,0,L|159:84,1,35,0|0,0:0|0:0,0:0:0:0:
159,81,178713,1,0,3:0:0:0:
209,144,178885,1,8,0:0:0:0:
279,109,179058,2,0,P|327:99|375:100,1,70,0|8,3:0|0:0,0:0:0:0:
512,247,179403,6,0,P|452:256|359:246,1,140,2|8,3:2|0:0,0:0:0:0:
307,203,179920,1,0,0:0:0:0:
366,329,180092,1,0,3:0:0:0:
446,215,180265,1,8,0:0:0:0:
276,290,180437,2,0,L|194:323,1,70,0|2,3:0|0:0,0:0:0:0:
456,311,180782,2,0,L|525:365,1,70,8|0,0:0|0:0,0:0:0:0:
385,144,181127,6,0,P|388:94|485:49,1,140,2|8,3:2|0:0,0:0:0:0:
446,215,181730,1,8,0:0:0:0:
446,215,181816,1,0,3:0:0:0:
373,242,181989,1,8,0:0:0:0:
308,200,182161,1,0,3:0:0:0:
241,160,182334,1,2,0:0:0:0:
170,191,182506,2,0,P|132:235|122:267,1,70,10|0,0:0|0:0,0:0:0:0:
147,334,182765,1,0,0:0:0:0:
147,334,182851,6,0,P|146:283|3:204,1,210,0|0,3:0|0:0,0:0:0:0:
34,207,183454,1,8,0:0:0:0:
34,207,183541,2,0,B|13:235|13:235|32:275,1,70,0|0,3:0|0:0,0:0:0:0:
127,110,183885,2,0,B|147:81|147:81|128:41,1,70,0|0,3:0|0:0,0:0:0:0:
133,50,184230,2,0,P|98:46|41:37,1,70,8|2,0:0|0:0,0:0:0:0:
34,207,184575,6,0,P|106:192|179:182,1,140,2|0,3:2|3:0,0:0:0:0:
242,143,185092,1,2,0:0:0:0:
242,143,185178,1,8,0:0:0:0:
242,143,185265,1,0,3:3:0:0:
269,228,185437,1,10,0:0:0:0:
426,149,185610,2,0,L|477:161,2,35,0|0|0,3:0|0:0|0:0,0:0:0:0:
426,149,185954,2,0,P|385:154|327:163,1,70,0|2,3:0|0:0,0:0:0:0:
445,354,186299,6,0,P|501:333|466:267,1,140,2|8,3:2|0:0,0:0:0:0:
392,241,186816,1,2,0:0:0:0:
392,241,186903,1,8,0:0:0:0:
392,241,186989,1,0,3:0:0:0:
426,149,187161,2,0,P|385:154|327:163,1,70,2|0,0:0|3:0,0:0:0:0:
230,218,187506,1,2,0:0:0:0:
334,304,187678,2,0,P|293:299|235:290,1,70,12|0,0:2|0:0,0:0:0:0:
132,205,188023,5,0,3:0:0:0:
403,368,188368,1,8,0:0:0:0:
479,356,188541,1,2,0:0:0:0:
468,279,188713,1,0,0:0:0:0:
392,291,188885,1,2,0:0:0:0:
397,375,189058,1,2,0:0:0:0:
486,361,189231,1,0,0:0:0:0:
473,271,189403,1,10,0:0:0:0:
370,101,189661,1,8,0:0:0:0:
370,101,189747,6,0,P|366:155|463:190,1,140,2|2,3:2|0:0,0:0:0:0:
491,148,190265,1,2,0:0:0:0:
457,78,190437,1,0,3:0:0:0:
493,10,190610,1,0,0:0:0:0:
437,78,190782,1,0,0:0:0:0:
505,166,190954,1,0,0:0:0:0:
428,252,191127,2,0,P|386:263|346:278,1,70,2|0,0:0|0:0,0:0:0:0:
193,384,191472,6,0,P|128:357|59:352,1,140,2|0,3:2|3:0,0:0:0:0:
7,296,191989,2,0,L|-2:257,2,35,2|0|0,0:0|0:0|3:0,0:0:0:0:
59,352,192334,1,8,0:0:0:0:
142,220,192506,2,0,P|111:203|77:180,1,70,0|2,3:0|0:0,0:0:0:0:
0,317,192851,2,0,P|30:331|59:353,1,70,0|2,3:0|0:0,0:0:0:0:
177,296,193196,1,0,3:0:0:0:
105,110,193368,5,2,0:0:0:0:
32,85,193541,1,8,0:0:0:0:
45,162,193713,1,2,0:0:0:0:
248,37,193885,5,2,0:0:0:0:
330,25,194058,1,2,0:0:0:0:
245,26,194230,1,2,0:0:0:0:
333,36,194403,1,2,0:0:0:0:
466,0,194575,2,0,P|424:30|428:74,1,70,8|2,3:2|0:0,0:0:0:0:
358,173,194920,6,0,L|332:32,1,140,6|0,3:2|0:0,0:0:0:0:
282,234,195437,2,0,L|269:163,1,70,2|0,0:1|0:0,0:0:0:0:
380,353,195782,1,0,0:0:0:0:
203,297,195954,2,0,L|270:321,1,70,2|0,0:1|0:0,0:0:0:0:
187,197,196299,2,0,L|132:243,1,70,2|0,0:1|0:0,0:0:0:0:
244,375,196644,6,0,P|279:328|357:261,1,140,2|2,0:1|3:2,0:0:0:0:
486,252,197161,1,0,0:0:0:0:
486,252,197334,1,0,3:0:0:0:
410,209,197506,2,0,P|408:172|430:136,1,70,2|0,0:0|3:0,0:0:0:0:
354,10,197851,2,0,P|369:41|366:75,1,70,2|2,0:0|3:2,0:0:0:0:
307,128,198196,1,0,0:0:0:0:
190,39,198368,6,0,L|95:19,1,70,4|2,0:0|0:0,0:0:0:0:
9,121,198713,2,0,L|61:40,1,70,4|2,0:0|0:0,0:0:0:0:
190,345,199058,6,0,L|95:365,1,70,4|2,0:0|0:0,0:0:0:0:
9,263,199403,2,0,L|61:344,1,70,4|0,0:0|0:0,0:0:0:0:
156,195,199747,1,4,0:0:0:0:
215,245,199920,1,2,0:0:0:0:
355,146,200092,5,4,0:0:0:0:
418,101,200265,1,2,0:0:0:0:
476,150,200437,1,4,0:0:0:0:
284,184,200610,5,2,0:0:0:0:
214,151,200783,1,0,0:0:0:0:
227,77,200955,1,2,0:0:0:0:
356,229,201127,5,4,0:0:0:0:
304,103,201300,1,2,0:0:0:0:
476,298,201472,1,14,0:0:0:0:
476,298,201816,1,4,2:3:0:0:
476,298,203196,5,2,0:0:0:0:
486,221,203541,1,2,0:0:0:0:
390,343,203884,6,0,P|335:330|255:351,1,136.499993751526,4|0,1:0|0:0,0:0:0:0:
258,348,204229,1,8,0:0:0:0:
206,254,204403,2,0,B|180:285|180:285|193:347,1,90.9999958343508,0|0,0:0|0:0,0:0:0:0:
43,218,204748,5,0,0:0:0:0:
169,184,204920,1,0,3:0:0:0:
206,254,205091,1,8,0:0:0:0:
334,278,205265,1,0,0:0:0:0:
489,153,205436,5,0,0:0:0:0:
418,177,205609,2,0,P|405:134|444:96,1,90.9999958343508,8|0,0:0|0:0,0:0:0:0:
431,100,205953,2,0,P|333:124|262:187,1,181.999991668702,4|8,1:0|0:0,0:0:0:0:
161,127,206472,5,2,0:0:0:0:
205,62,206644,2,0,P|164:51|125:12,1,90.9999958343508,8|2,1:0|3:2,0:0:0:0:
23,107,206989,1,0,0:0:0:0:
23,107,207075,1,2,0:0:0:0:
23,107,207160,1,0,1:0:0:0:
93,139,207333,1,0,3:0:0:0:
165,243,207505,1,2,0:3:0:0:
243,173,207678,2,0,B|300:160|276:199|366:182,1,90.9999958343508,8|0,0:0|0:0,0:0:0:0:
237,91,208022,6,0,B|211:91|193:105|193:105|172:92|159:45|194:-5|247:7,1,181.999991668702,4|8,1:0|0:0,0:0:0:0:
324,188,208540,5,2,0:0:0:0:
237,91,208713,2,0,P|196:103|161:152,1,90.9999958343508,8|0,0:0|0:0,0:0:0:0:
145,40,209057,5,2,3:0:0:0:
93,189,209229,1,8,0:0:0:0:
6,100,209402,1,4,3:3:0:0:
237,91,209575,6,0,B|262:86|262:86|305:103,1,45.4999979171754,8|0,0:0|1:0,0:0:0:0:
247,259,209747,1,0,3:0:0:0:
247,259,209833,2,0,B|275:266|275:266|312:241,1,45.4999979171754,8|0,0:0|1:0,0:0:0:0:
93,189,210006,1,8,0:0:0:0:
93,189,210091,2,0,L|264:173,1,136.499993751526,4|0,1:0|0:0,0:0:0:0:
228,176,210436,1,8,0:0:0:0:
351,114,210610,6,0,B|361:75|361:75|330:31,1,90.9999958343508,2|0,0:0|0:0,0:0:0:0:
477,169,210953,5,0,3:0:0:0:
351,114,211127,1,2,0:0:0:0:
283,231,211298,2,0,P|341:226|392:295,1,136.499993751526,8|0,0:0|0:0,0:0:0:0:
390,280,211644,1,0,3:0:0:0:
512,384,211817,6,0,B|490:338|452:331|452:331|434:356|388:358,1,136.499993751526,8|0,0:0|0:0,0:0:0:0:
414,372,212160,2,0,L|396:175,1,181.999991668702,4|8,1:0|0:0,0:0:0:0:
382,99,212678,1,2,0:0:0:0:
312,220,212850,1,0,0:0:0:0:
430,180,213022,5,2,0:0:0:0:
306,140,213195,1,0,3:0:0:0:
260,292,213367,2,0,B|231:266|183:263|156:301|156:301|184:306|204:287|202:252,1,181.999991668702,8|2,0:0|0:0,0:0:0:0:
201,264,213884,2,0,B|218:219|218:219|199:171|199:172,1,90.9999958343508,8|2,0:0|0:3,0:0:0:0:
332,206,214229,6,0,B|106:231|107:231,1,181.999991668702,4|8,1:0|0:0,0:0:0:0:
44,344,214747,6,0,P|87:300|126:298,1,90.9999958343508,2|8,0:0|0:0,0:0:0:0:
196,310,215091,1,0,3:0:0:0:
196,310,215264,1,0,3:0:0:0:
95,206,215436,2,0,L|85:105,1,90.9999958343508,8|2,0:0|0:1,0:0:0:0:
173,219,215781,1,0,0:0:0:0:
262,57,215953,6,0,P|235:48|220:102,1,90.9999958343508,10|0,0:1|0:0,0:0:0:0:
214,95,216298,2,0,P|260:73|395:84,1,181.999991668702,4|8,1:0|0:0,0:0:0:0:
452,36,216816,1,2,0:0:0:0:
504,134,216988,1,8,0:0:0:0:
391,217,217160,1,2,3:2:0:0:
423,146,217333,1,0,0:0:0:0:
326,88,217505,1,8,0:0:0:0:
336,130,217678,1,0,0:0:0:0:
503,264,217850,6,0,P|471:248|436:258,1,45.4999979171754,8|8,2:1|2:1,0:0:0:0:
301,201,218022,5,8,3:1:0:0:
301,201,218109,2,0,P|269:217|234:207,1,45.4999979171754,8|0,3:0|0:0,0:0:0:0:
165,342,218281,5,8,3:1:0:0:
165,342,218367,2,0,P|116:270|14:288,1,181.999991668702,14|8,1:0|0:0,0:0:0:0:
3,104,218884,6,0,B|61:65|105:110|105:110|121:152|185:142,1,181.999991668702,2|2,0:0|3:2,0:0:0:0:
223,101,219402,1,0,3:0:0:0:
207,231,219574,2,0,B|217:200|217:200|291:177,1,90.9999958343508,8|2,0:0|0:1,0:0:0:0:
415,333,219919,1,2,3:2:0:0:
332,246,220091,2,0,B|374:270|374:270|422:235,1,90.9999958343508,10|0,1:0|0:0,0:0:0:0:
328,255,220436,2,0,L|510:281,1,181.999991668702,6|8,1:0|0:0,0:0:0:0:
468,136,220953,6,0,P|434:90|441:59,1,90.9999958343508,2|2,0:0|1:0,0:0:0:0:
437,55,221298,1,0,3:0:0:0:
358,154,221471,1,2,3:1:0:0:
468,136,221643,2,0,P|354:76|293:79,1,181.999991668702,8|0,0:0|0:0,0:0:0:0:
98,176,222160,6,0,B|117:141|167:154|167:154|135:168|124:205,1,136.499993751526,8|2,0:0|0:3,0:0:0:0:
205,224,222505,6,0,B|238:130|136:162|176:42,1,181.999991668702,4|8,1:0|0:0,0:0:0:0:
332,156,223022,5,2,0:0:0:0:
205,224,223195,2,0,P|269:213|305:232,1,90.9999958343508,8|0,0:0|0:0,0:0:0:0:
332,156,223540,5,0,3:0:0:0:
373,317,223712,1,10,0:0:0:0:
512,244,223884,1,2,0:1:0:0:
433,226,224057,1,0,0:0:0:0:
512,244,224229,2,0,B|524:197|524:197|505:141,1,90.9999958343508,10|0,0:1|0:0,0:0:0:0:
453,21,224574,6,0,B|410:6|363:40|366:98|366:98|388:64|429:64,1,181.999991668702,4|8,1:0|0:0,0:0:0:0:
442,131,225091,1,0,0:0:0:0:
423,226,225264,1,8,0:0:0:0:
349,264,225436,1,0,3:0:0:0:
294,103,225609,1,0,3:0:0:0:
140,199,225781,2,0,P|186:202|217:234,1,90.9999958343508,8|0,0:0|3:0,0:0:0:0:
68,333,226126,5,8,1:0:0:0:
108,301,226212,1,8,1:0:0:0:
160,288,226298,1,8,3:1:0:0:
214,310,226384,1,8,3:1:0:0:
235,340,226471,1,8,1:0:0:0:
239,357,226557,1,8,1:0:0:0:
233,364,226643,2,0,B|264:299|331:315|331:315|315:294|323:282|287:268,1,181.999991668702,4|10,1:0|0:0,0:0:0:0:
445,188,227160,6,0,P|413:225|430:273,1,90.9999958343508,2|0,0:0|0:0,0:0:0:0:
393,356,227505,1,0,3:0:0:0:
362,212,227678,1,2,0:3:0:0:
421,262,227850,2,0,L|518:283,1,90.9999958343508,8|0,0:0|3:0,0:0:0:0:
474,85,228195,5,0,3:0:0:0:
424,143,228367,2,0,P|372:107|317:118,1,90.9999958343508,8|0,0:0|3:0,0:0:0:0:
362,212,228712,6,0,B|314:186|264:220|264:220|243:271|167:258,1,181.999991668702,4|8,1:0|0:0,0:0:0:0:
148,159,229229,2,0,P|179:180|151:153,1,90.9999958343508,2|0,0:0|0:0,0:0:0:0:
70,78,229574,1,0,0:0:0:0:
142,150,229747,2,0,P|196:90|295:94,1,181.999991668702,0|2,3:0|3:1,0:0:0:0:
349,40,230264,1,0,3:0:0:0:
398,185,230436,2,0,P|453:152|458:103,1,90.9999958343508,10|0,0:1|0:0,0:0:0:0:
460,129,230781,6,0,P|382:157|371:277,1,181.999991668702,4|8,1:0|0:0,0:0:0:0:
336,324,231298,5,2,0:3:0:0:
282,168,231471,1,8,0:0:0:0:
216,294,231643,5,0,3:0:0:0:
219,273,231816,1,0,3:0:0:0:
105,358,231988,5,8,0:0:0:0:
122,204,232160,1,0,3:0:0:0:
0,254,232333,5,0,3:0:0:0:
33,324,232505,2,0,P|89:289|211:284,1,181.999991668702,10|4,0:1|1:0,0:0:0:0:
287,360,233022,1,0,0:0:0:0:
262,226,233195,2,0,P|296:213|325:185,1,45.4999979171754,8|0,3:0|0:0,0:0:0:0:
353,278,233367,2,0,P|387:290|416:319,1,45.4999979171754,2|0,3:2|0:0,0:0:0:0:
479,106,233540,5,8,0:0:0:0:
382,204,233712,1,2,3:2:0:0:
337,133,233884,1,0,3:0:0:0:
475,221,234057,1,8,1:0:0:0:
344,312,234229,2,0,B|306:306|286:278|286:278|298:315|285:344,1,136.499993751526,4|0,1:0|0:0,0:0:0:0:
344,319,234574,2,0,L|171:344,1,136.499993751526,4|8,1:0|0:0,0:0:0:0:
138,370,234919,6,0,B|110:353|110:353|117:313|117:313|122:310|122:310|130:263,1,112,4|0,1:0|0:0,0:0:0:0:
40,374,235178,2,0,L|-8:386,1,28,8|0,0:0|3:0,0:0:0:0:
242,97,235436,6,0,B|287:83|341:119|329:208|268:228|222:201,1,224,8|0,0:0|0:0,0:0:0:0:
114,31,235953,6,0,P|97:99|49:101,1,97.9999970092774,8|0,0:0|0:0,0:0:0:0:
25,168,236212,1,8,0:0:0:0:
25,168,236298,2,0,P|3:165|-13:126,1,48.9999985046387,8|8,0:0|0:0,0:0:0:0:
121,272,236471,2,0,L|189:288,1,48.9999985046387,8|8,3:0|3:0,0:0:0:0:
237,224,236643,6,0,B|257:207|257:207|188:221|188:221|170:290|91:265,1,188.999994232178,10|2,0:1|0:2,0:0:0:0:
38,236,236988,2,0,L|24:166,1,70,4|0,1:0|0:0,0:0:0:0:
52,101,237247,1,0,3:0:0:0:
56,92,237333,1,0,0:0:0:0:
135,350,237505,2,0,B|159:353|159:353|159:349|159:349|201:354,1,45.4999979171754,8|0,0:0|0:0,0:0:0:0:
284,361,237678,6,0,B|291:341|272:309|242:310|242:310|266:342|243:393,1,136.499993751526,0|8,3:0|0:0,0:0:0:0:
284,361,238022,6,0,B|308:288|371:283|402:310|402:310|389:328|359:317,1,188.999994232178,8|0,0:0|0:0,0:0:0:0:
286,241,238367,2,0,B|279:205|279:205|271:199|268:186|268:186|259:138,1,83.9999974365235,2|0,3:1|0:0,0:0:0:0:
475,7,238712,2,0,B|461:37|435:41|435:41|407:94|444:133|488:127,1,146.999995513916,10|0,0:1|0:0,0:0:0:0:
469,126,239057,6,0,P|399:99|275:110,1,140,4|0,3:2|0:0,0:0:0:0:
234,133,239316,1,8,0:0:0:0:
231,148,239402,1,0,0:0:0:0:
161,232,239574,6,0,L|144:174,1,35,8|0,0:0|0:0,0:0:0:0:
118,65,239747,1,0,3:0:0:0:
195,8,239919,5,0,3:0:0:0:
64,232,240091,2,0,B|58:242|58:242|-26:221,1,70,8|0,0:0|0:0,0:0:0:0:
231,148,240436,6,0,B|308:159|289:209|248:198,1,97.9999970092774,2|0,3:1|0:0,0:0:0:0:
488,32,240781,2,0,B|447:26|447:26|411:47|411:47|382:130|307:80,1,188.999994232178,10|0,0:1|0:0,0:0:0:0:
281,34,241126,5,4,1:0:0:0:
348,296,241385,1,8,0:0:0:0:
348,296,241471,2,0,B|357:312|357:312|326:394,1,83.9999974365235,8|0,0:0|0:0,0:0:0:0:
318,185,241816,2,0,B|335:164|335:164|383:137|438:190|400:243,1,168,2|0,3:1|0:0,0:0:0:0:
397,246,242160,2,0,P|330:246|329:169,1,125.999996154785,10|0,0:1|0:0,0:0:0:0:
488,46,242505,5,0,0:0:0:0:
512,26,242591,1,0,0:0:0:0:
485,16,242678,1,8,0:0:0:0:
460,32,242764,1,8,0:0:0:0:
440,62,242850,1,0,3:0:0:0:
402,70,242936,1,0,0:0:0:0:
364,64,243022,1,0,0:0:0:0:
339,32,243109,1,0,0:0:0:0:
300,22,243195,6,0,P|236:43|218:126,1,136.499993751526,4|0,1:0|0:0,0:0:0:0:
243,169,243540,2,0,B|251:188|268:187|268:187|264:179|252:177,1,52.5000020027161,0|0,3:0|0:0,0:0:0:0:
102,30,243712,2,0,B|53:27|26:68|26:68|-5:67|-17:23|37:15,1,154.000004699707,8|0,0:0|0:0,0:0:0:0:
99,113,244229,6,0,P|111:178|33:219,1,146.999995513916,8|0,0:0|0:0,0:0:0:0:
4,86,244574,2,0,B|-4:54|-4:54|6:-7|79:-22|111:44,1,178.500003404617,0|0,3:0|0:0,0:0:0:0:
171,75,244919,2,0,B|169:85|169:85|249:104,1,59.5000011348725,10|0,0:1|0:0,0:0:0:0:
377,127,245091,1,0,0:0:0:0:
387,129,245178,1,0,0:0:0:0:
399,132,245264,6,0,B|385:154|385:154|405:45,1,119.000002269745,4|0,1:0|0:0,0:0:0:0:
459,16,245522,2,0,P|491:22|487:81,1,59.5000011348725,0|0,0:0|3:0,0:0:0:0:
481,251,245781,2,0,B|444:289|394:274|394:274|378:254|378:254|391:235|416:242,1,161.000003070831,8|0,0:0|3:0,0:0:0:0:
413,241,246126,1,0,3:0:0:0:
471,173,246298,5,8,0:0:0:0:
248,57,246471,1,0,0:0:0:0:
416,34,246643,5,8,0:0:0:0:
416,34,246729,1,0,0:0:0:0:
254,217,246902,1,8,3:0:0:0:
254,217,246988,2,0,B|245:241|245:241|192:174|107:213,1,178.500003404617,10|0,0:1|0:0,0:0:0:0:
51,260,247333,6,0,B|55:311|131:275|134:167|20:165,1,188.999994232178,4|8,1:0|0:0,0:0:0:0:
1,106,247678,2,0,P|1:93|15:86,1,26.2500010013581,8|0,0:0|0:0,0:0:0:0:
95,90,247850,5,10,0:2:0:0:
183,136,248022,1,2,3:2:0:0:
202,242,248195,1,0,3:0:0:0:
267,150,248367,5,10,0:2:0:0:
131,189,248540,1,2,3:2:0:0:
282,243,248712,1,0,3:0:0:0:
246,80,248884,1,0,3:0:0:0:
209,260,249057,6,0,B|194:289|194:289|252:297|252:297|289:259|289:259|265:247,1,168,8|8,0:0|0:0,0:0:0:0:
233,240,249402,6,0,P|251:335|255:391,1,132.999996448517,4|0,1:0|0:0,0:0:0:0:
281,373,249660,1,0,0:0:0:0:
286,380,249747,1,0,0:0:0:0:
489,192,249919,2,0,B|508:208|508:208|490:278,1,66.4999982242585,8|0,0:0|0:0,0:0:0:0:
488,253,250091,2,0,P|427:248|455:134,1,199.499994672775,0|0,0:0|0:0,0:0:0:0:
463,137,250436,6,0,P|516:181|497:248,1,146.999995513916,8|0,0:0|0:0,0:0:0:0:
427,325,250695,1,8,3:0:0:0:
397,352,250781,1,8,3:0:0:0:
350,357,250867,1,8,0:0:0:0:
311,335,250953,1,8,0:0:0:0:
286,310,251040,1,8,0:0:0:0:
258,295,251126,5,8,3:1:0:0:
210,296,251212,1,8,3:1:0:0:
174,318,251298,5,8,3:1:0:0:
142,364,251384,1,8,3:1:0:0:
96,376,251471,6,0,B|48:379|27:314|54:293|54:293|48:321|66:339,1,146.999995513916,4|0,1:1|0:0,0:0:0:0:
56,336,251816,2,0,P|4:332|-10:255,1,105.000004005432,8|0,0:0|0:0,0:0:0:0:
214,172,252160,2,0,P|266:168|289:89,1,105.000004005432,0|0,0:0|0:0,0:0:0:0:
95,0,252505,2,0,P|91:42|128:45,1,52.5000020027161,0|0,0:0|0:0,0:0:0:0:
286,58,252678,6,0,B|243:14|182:54|182:54|168:112|115:122,1,210.000008010865,8|0,0:0|0:0,0:0:0:0:
0,42,253109,1,0,0:0:0:0:
0,42,253195,2,0,B|25:72|25:72|9:142,1,105.000004005432,8|0,0:0|0:0,0:0:0:0:
17,311,253540,5,0,0:0:0:0:
47,296,253626,1,0,0:0:0:0:
75,313,253712,1,0,0:0:0:0:
76,347,253798,2,0,B|87:360|87:360|133:349,1,52.5000020027161,0|8,0:0|0:0,0:0:0:0:
277,258,253971,2,0,L|143:234,1,105.000004005432,0|0,0:0|0:0,0:0:0:0:
114,161,254229,2,0,B|84:171|80:204|94:217|94:217|98:191|122:178,1,105.000004005432,0|0,0:0|0:0,0:0:0:0:
296,114,254574,5,0,0:0:0:0:
296,108,254660,1,0,0:0:0:0:
297,102,254747,2,0,P|280:55|341:11,1,105.000004005432,8|0,0:0|0:0,0:0:0:0:
446,77,255091,2,0,L|499:66,1,52.5000020027161,0|0,0:0|0:0,0:0:0:0:
498,68,255264,2,0,L|381:50,1,105.000004005432,8|0,0:0|0:0,0:0:0:0:
189,26,255609,5,0,0:0:0:0:
190,31,255695,1,0,0:0:0:0:
191,35,255781,1,0,0:0:0:0:
192,39,255867,1,0,0:0:0:0:
133,88,256040,1,0,0:0:0:0:
60,65,256212,1,0,0:0:0:0:
62,69,256298,1,8,0:0:0:0:
201,129,256471,1,0,0:0:0:0:
32,233,256643,6,0,B|14:250|14:250|42:284,2,52.5000020027161,0|0|8,0:0|0:0|0:0,0:0:0:0:
211,241,256988,1,0,0:0:0:0:
217,249,257074,1,0,0:0:0:0:
218,259,257160,1,0,0:0:0:0:
214,269,257247,2,0,L|65:253,2,105.000004005432,0|0|0,0:0|0:0|0:0,0:0:0:0:
272,335,257678,6,0,B|275:336|302:350|330:338,2,52.5000020027161,0|0|0,0:0|0:0|0:0,0:0:0:0:
272,335,257936,2,0,B|290:356|290:356|311:303,1,52.5000020027161,0|8,0:0|0:0,0:0:0:0:
315,220,258109,5,0,0:0:0:0:
348,214,258195,1,0,0:0:0:0:
376,234,258281,1,0,0:0:0:0:
383,267,258367,2,0,P|416:255|473:259,1,52.5000020027161,8|0,0:0|0:0,0:0:0:0:
510,147,258540,5,0,0:0:0:0:
502,166,258626,2,0,P|499:150|462:115,1,52.5000020027161,0|0,0:0|0:0,0:0:0:0:
296,54,258798,2,0,B|276:71|276:71|341:80,1,52.5000020027161,0|8,0:0|0:0,0:0:0:0:
439,10,258971,1,0,0:0:0:0:
439,10,259057,6,0,B|396:20|396:20|413:149,1,125.999996154785,0|0,0:0|0:0,0:0:0:0:
426,206,259316,1,0,0:0:0:0:
407,242,259402,1,8,0:0:0:0:
378,257,259488,1,8,0:0:0:0:
334,245,259574,1,8,3:0:0:0:
320,213,259660,1,8,0:0:0:0:
321,176,259747,6,0,B|206:121|234:284|117:247,1,220.499993270874,2|2,0:0|0:0,0:0:0:0:
60,249,260091,2,0,B|45:266|45:266|70:332,1,62.9999980773926,0|0,0:0|0:0,0:0:0:0:
232,380,260264,2,0,P|248:267|135:251,1,251.999992309571,2|0,0:0|0:0,0:0:0:0:
86,314,260781,1,2,0:0:0:0:
9,292,260953,1,8,0:0:0:0:
9,292,261126,1,0,0:0:0:0:
165,106,261298,2,0,B|172:64|172:64|176:64|176:64|187:27|187:27|192:-15,1,97.9999970092774,0|10,0:0|0:0,0:0:0:0:
177,3,261816,6,0,B|150:53|206:107|297:84|292:29,1,195.999994018555,2|8,0:0|0:0,0:0:0:0:
289,27,262333,2,0,P|298:9|337:19,1,48.9999985046387,2|0,0:0|0:0,0:0:0:0:
372,69,262505,1,8,0:0:0:0:
374,79,262678,1,0,0:0:0:0:
447,18,262850,1,2,0:0:0:0:
447,235,263022,2,0,P|458:181|489:132,1,97.9999970092774,8|0,0:0|0:0,0:0:0:0:
375,87,263367,1,0,0:0:0:0:
490,304,263540,2,0,B|468:319|456:340|456:340|439:317|404:307,1,97.9999970092774,10|0,0:0|0:0,0:0:0:0:
262,259,263798,1,0,0:0:0:0:
253,268,263884,6,0,L|472:230,1,195.999994018555,2|8,0:0|0:0,0:0:0:0:
210,363,264402,2,0,L|351:336,1,97.9999970092774,2|0,0:0|0:0,0:0:0:0:
79,231,264747,1,0,0:0:0:0:
20,282,264919,1,2,0:0:0:0:
20,282,265091,1,8,0:0:0:0:
125,302,265264,2,0,L|191:273,2,48.9999985046387,2|0|0,0:0|0:0|0:0,0:0:0:0:
14,173,265609,2,0,B|0:149|7:123|7:123|31:103|66:113,1,97.9999970092774,10|0,0:0|0:0,0:0:0:0:
226,223,265953,6,0,B|276:197|222:147|120:199|170:283,1,195.999994018555,2|8,0:0|0:0,0:0:0:0:
139,108,266471,2,0,P|133:53|118:0,1,97.9999970092774,0|0,0:0|0:0,0:0:0:0:
139,108,266816,1,0,0:0:0:0:
386,26,266988,6,0,P|357:115|360:209,1,188.999994232178,2|0,0:0|0:0,0:0:0:0:
360,209,267333,2,0,B|376:226|376:226|437:203,1,62.9999980773926,2|0,0:0|0:0,0:0:0:0:
296,155,267505,5,0,0:0:0:0:
243,143,267591,1,0,0:0:0:0:
194,166,267678,1,0,0:0:0:0:
155,211,267764,1,0,0:0:0:0:
104,228,267850,1,0,0:0:0:0:
55,212,267936,1,0,0:0:0:0:
20,168,268022,6,0,L|220:138,1,188.999994232178,4|0,0:0|0:0,0:0:0:0:
300,78,268367,2,0,L|370:88,1,62.9999980773926,8|0,0:0|0:0,0:0:0:0:
382,100,268540,2,0,L|459:90,1,62.9999980773926,0|0,0:0|0:0,0:0:0:0:
479,216,268712,6,0,P|415:213|434:158,1,125.999996154785,0|0,0:0|0:0,0:0:0:0:
238,198,269057,2,0,P|277:135|331:151,1,125.999996154785,0|8,0:0|0:0,0:0:0:0:
360,384,269402,6,0,B|391:367|391:367|360:207,1,188.999994232178,2|0,0:0|0:0,0:0:0:0:
381,52,269747,2,0,B|324:22|324:22|267:77,1,125.999996154785,10|0,0:0|0:0,0:0:0:0:
341,132,270091,5,2,0:0:0:0:
361,216,270264,1,0,0:0:0:0:
383,301,270436,1,8,0:0:0:0:
197,275,270609,6,0,L|276:243,1,62.9999980773926,2|0,0:0|0:0,0:0:0:0:
261,258,270781,2,0,P|141:278|117:211,1,188.999994232178,8|0,0:0|0:0,0:0:0:0:
147,154,271126,5,0,0:0:0:0:
69,321,271298,1,8,0:0:0:0:
149,145,271471,6,0,B|213:103|207:13|126:-5|128:100,1,188.999994232178,2|0,0:0|0:0,0:0:0:0:
67,180,271816,6,0,B|131:160|131:160|205:179|211:190|289:219,1,188.999994232178,10|0,0:0|0:0,0:0:0:0:
131,257,272160,6,0,B|67:299|73:389|154:407|152:302,1,188.999994232178,2|2,0:0|0:2,0:0:0:0:
214,278,272505,5,8,0:0:0:0:
224,279,272591,1,0,0:0:0:0:
236,283,272678,1,2,0:0:0:0:
302,316,272850,1,8,0:0:0:0:
366,358,273022,1,0,0:0:0:0:
441,357,273195,1,0,0:0:0:0:
503,308,273367,1,0,0:0:0:0:
341,215,273540,6,0,P|342:230|389:254,1,62.9999980773926,2|0,0:0|0:0,0:0:0:0:
492,142,273712,1,0,0:0:0:0:
496,132,273884,2,0,P|491:114|424:108,1,62.9999980773926,10|0,0:0|0:0,0:0:0:0:
418,180,274057,1,0,0:0:0:0:
413,189,274229,6,0,B|357:162|310:193|337:217|291:260|202:228,1,188.999994232178,2|0,0:0|0:0,0:0:0:0:
161,325,274574,5,8,0:0:0:0:
260,150,274747,1,0,0:0:0:0:
161,325,274919,1,8,0:0:0:0:
161,158,275091,1,0,0:0:0:0:
266,330,275264,1,0,0:0:0:0:
97,239,275436,1,8,0:0:0:0:
321,261,275609,5,0,0:0:0:0:
336,264,275695,1,0,0:0:0:0:
362,239,275781,1,8,0:0:0:0:
370,204,275867,1,8,0:0:0:0:
355,167,275953,1,8,0:0:0:0:
317,137,276040,1,8,3:0:0:0:
286,99,276126,1,8,3:0:0:0:
294,45,276212,1,8,3:0:0:0:
336,13,276298,6,0,B|373:47|326:88|299:100|252:153|324:200,1,188.999994232178,6|2,0:0|0:2,0:0:0:0:
332,269,276643,6,0,L|313:341,1,62.9999980773926,0|0,0:0|0:0,0:0:0:0:
304,330,276816,2,0,L|281:257,1,62.9999980773926,2|0,0:0|0:0,0:0:0:0:
306,187,276988,5,8,0:0:0:0:
412,305,277160,1,0,0:0:0:0:
476,196,277333,1,0,0:0:0:0:
385,97,277505,1,8,0:0:0:0:
203,269,277678,6,0,B|79:242|79:242|56:207|96:179,1,188.999994232178,2|0,0:0|0:0,0:0:0:0:
86,186,278022,2,0,B|132:274|132:274|97:315|113:395,1,188.999994232178,10|0,0:0|0:0,0:0:0:0:
34,283,278367,2,0,P|81:224|64:88,1,188.999994232178,2|0,0:0|0:0,0:0:0:0:
24,59,278712,5,8,0:0:0:0:
5,168,278884,1,8,1:0:0:0:
81,201,279057,5,8,0:0:0:0:
159,111,279229,1,0,0:0:0:0:
227,158,279402,5,0,0:0:0:0:
244,280,279574,1,8,0:0:0:0:
316,310,279747,5,2,0:0:0:0:
392,202,279919,1,0,0:0:0:0:
401,281,280091,1,10,0:0:0:0:
311,226,280264,1,0,0:0:0:0:
463,56,280436,6,0,B|422:50|422:50|386:71|386:71|357:154|282:104,1,188.999994232178,2|0,0:0|0:0,0:0:0:0:
235,46,280781,6,0,B|233:32|233:32|297:48,1,62.9999980773926,8|0,0:0|0:0,0:0:0:0:
242,159,280953,2,0,B|243:173|243:173|176:157,1,62.9999980773926,2|0,0:0|0:0,0:0:0:0:
134,80,281126,5,8,0:0:0:0:
241,157,281298,1,0,0:0:0:0:
275,227,281471,1,0,0:0:0:0:
103,301,281643,1,8,0:0:0:0:
144,362,281816,6,0,B|277:328|162:324|333:289,1,188.999994232178,2|0,0:0|0:0,0:0:0:0:
319,302,282160,6,0,B|164:267|276:252|120:224,1,210,10|0,0:0|0:0,0:0:0:0:
114,234,282505,6,0,B|275:203|156:178|327:151,1,231.000007049561,2|0,0:0|0:0,0:0:0:0:
332,160,282850,1,8,0:0:0:0:
76,91,283022,1,2,0:0:0:0:
340,6,283195,6,0,P|349:37|328:82,1,77.0000023498536,0|8,0:0|0:0,0:0:0:0:
178,77,283367,6,0,P|163:42|172:6,1,77.0000023498536,0|8,0:0|0:0,0:0:0:0:
255,45,283540,5,8,3:0:0:0:
258,74,283626,1,0,0:0:0:0:
262,96,283712,1,8,0:0:0:0:
263,118,283798,1,8,0:0:0:0:
251,146,283884,5,8,3:0:0:0:
247,169,283971,1,0,0:0:0:0:
242,192,284057,1,8,0:0:0:0:
238,214,284143,1,8,0:0:0:0:
263,241,284229,5,8,3:0:0:0:
272,276,284316,1,8,3:0:0:0:
280,310,284402,1,8,3:0:0:0:
286,344,284488,1,8,3:0:0:0:
268,376,284574,5,4,1:0:0:0:
256,192,284747,12,0,292850,0:0:0:0:
