osu file format v14

[General]
AudioFilename: 09.mp3
AudioLeadIn: 0
PreviewTime: 49350
Countdown: 0
SampleSet: Soft
StackLeniency: 0.5
Mode: 0
LetterboxInBreaks: 0
WidescreenStoryboard: 0

[Editor]
Bookmarks: 13044,25236,37348,43424,73614,76842,85956,95829,101905,133804,145956,158108,165323,169880
DistanceSpacing: 1.1
BeatDivisor: 16
GridSize: 4
TimelineZoom: 1.6

[Metadata]
Title:flashback trip syndrome
TitleUnicode:flashback trip syndrome
Artist:School Food Punishment
ArtistUnicode:School Food Punishment
Creator:appleeaterx
Version:Normal
Source:七瀬ふたたび
Tags:nanase futatabi prog-roid スクール フード パニッシュメント sfp 内村友美 uchimura yumi alacat
BeatmapID:988680
BeatmapSetID:413635

[Difficulty]
HPDrainRate:4
CircleSize:3.2
OverallDifficulty:4
ApproachRate:4.5
SliderMultiplier:1
SliderTickRate:1

[Events]
//Background and Video events
0,0,"background.jpg",0,0
//Break Periods
//Storyboard Layer 0 (Background)
//Storyboard Layer 1 (Fail)
//Storyboard Layer 2 (Pass)
//Storyboard Layer 3 (Foreground)
//Storyboard Sound Samples

[TimingPoints]
933,379.746835443038,4,2,1,28,1,0
13084,-100,4,2,1,40,0,0
13179,-100,4,2,1,35,0,0
16122,-100,4,2,1,40,0,0
16217,-100,4,2,1,35,0,0
19160,-100,4,2,1,40,0,0
19255,-100,4,2,1,35,0,0
22198,-100,4,2,1,40,0,0
22293,-100,4,2,1,30,0,0
23527,-100,4,2,1,45,0,0
23717,-100,4,2,1,20,0,0
23907,-100,4,2,1,25,0,0
24097,-100,4,2,1,30,0,0
24287,-100,4,2,1,35,0,0
24667,-100,4,2,1,40,0,0
24857,-100,4,2,2,55,0,0
25236,-100,4,2,3,45,0,0
25331,-100,4,2,3,55,0,0
27705,-100,4,2,3,50,0,0
28274,-100,4,2,3,55,0,0
30933,-100,4,2,3,50,0,0
31312,-100,4,2,3,55,0,0
33781,-100,4,2,3,50,0,0
34350,-100,4,2,3,55,0,0
35110,-100,4,2,3,50,0,0
35300,-100,4,2,3,55,0,0
36249,-100,4,2,3,45,0,0
36629,-100,4,2,3,55,0,0
37388,-100,4,2,3,40,0,0
37578,-100,4,2,3,50,0,0
38338,-100,4,2,3,55,0,0
38907,-100,4,2,3,50,0,0
39857,-100,4,2,3,55,0,0
40426,-100,4,2,3,50,0,0
41376,-100,4,2,3,55,0,0
41755,-100,4,2,3,50,0,0
43464,-100,4,2,3,40,0,0
43559,-100,4,2,3,60,0,0
48211,-100,4,2,3,40,0,0
48970,-100,4,2,3,45,0,0
49065,-100,4,2,3,50,0,0
49160,-100,4,2,3,55,0,0
49255,-100,4,2,3,60,0,0
49540,-100,4,2,3,60,0,1
49635,-100,4,2,3,70,0,1
52483,-100,4,2,3,25,0,1
52578,-100,4,2,3,70,0,1
53527,-100,4,2,3,60,0,1
54097,-100,4,2,3,70,0,1
55521,-100,4,2,3,25,0,1
55616,-100,4,2,3,70,0,1
57040,-100,4,2,3,25,0,1
57135,-100,4,2,3,70,0,1
59793,-100,4,2,3,80,0,1
61502,-100,4,2,3,70,0,0
61692,-100,4,2,3,60,0,1
61787,-100,4,2,3,70,0,1
67673,-100,4,2,3,25,0,1
67768,-100,4,2,3,70,0,1
69192,-100,4,2,3,25,0,1
69287,-100,4,2,3,70,0,1
71945,-100,4,2,3,80,0,1
73654,-100,4,2,3,60,0,0
74034,-100,4,2,3,15,0,0
74414,-100,4,2,3,25,0,0
74603,-100,4,2,3,35,0,0
74793,-100,4,2,3,20,0,0
74983,-100,4,2,3,35,0,0
75173,-100,4,2,3,40,0,0
75363,-100,4,2,3,35,0,0
75553,-100,4,2,3,20,0,0
75743,-100,4,2,3,30,0,0
75933,-100,4,2,3,15,0,0
76122,-100,4,2,3,35,0,0
76312,-100,4,2,3,20,0,0
76502,-100,4,2,3,40,0,0
76692,-100,4,2,3,50,0,0
76882,379.746835443038,6,2,3,35,1,0
76882,-100,6,2,3,35,0,0
76976,-100,6,2,3,45,0,0
77451,-100,6,2,3,35,0,0
77641,-100,6,2,3,45,0,0
79730,-100,6,2,3,35,0,0
79919,-100,6,2,3,45,0,0
80299,-100,6,2,3,35,0,0
80489,-100,6,2,3,45,0,0
82008,-100,6,2,3,35,0,0
82198,-100,6,2,3,45,0,0
82578,-100,6,2,3,35,0,0
82768,-100,6,2,3,45,0,0
84287,-100,6,2,3,35,0,0
84476,-100,6,2,3,45,0,0
85046,-100,6,2,3,35,0,0
85426,-100,6,2,3,45,0,0
85995,-100,6,2,3,45,0,0
86090,-100,6,2,3,55,0,0
88559,-100,6,2,3,25,0,0
88654,-100,6,2,3,55,0,0
95109,-100,6,2,3,60,0,0
95489,-100,6,2,3,50,0,0
95869,379.746835443038,4,2,3,45,1,0
102039,-100,4,2,3,60,0,0
104982,-100,4,2,3,50,0,0
105172,-100,4,2,3,60,0,0
106882,379.746835443038,4,2,3,50,1,0
106882,-100,4,2,3,50,0,0
107451,-100,4,2,3,45,0,0
107546,-100,4,2,3,50,0,0
107641,-100,4,2,3,55,0,0
107736,-100,4,2,3,50,0,0
107831,-100,4,2,3,45,0,0
107926,-100,4,2,3,40,0,0
108021,379.746835443038,4,2,3,60,1,0
108875,-100,4,2,3,60,0,0
108970,-100,4,2,3,50,0,0
109065,-100,4,2,3,52,0,0
109160,-100,4,2,3,54,0,0
109255,-100,4,2,3,56,0,0
109350,-100,4,2,3,58,0,0
109445,-100,4,2,3,60,0,0
109539,-100,4,2,3,65,0,1
109634,-100,4,2,3,75,0,1
109824,-100,4,2,3,25,0,1
109919,-100,4,2,3,75,0,1
110964,-100,4,2,3,25,0,1
111058,-100,4,2,3,75,0,1
112483,-100,4,2,3,25,0,1
112577,-100,4,2,3,75,0,1
115521,-100,4,2,3,25,0,1
115615,-100,4,2,3,75,0,1
117039,-100,4,2,3,25,0,1
117134,-100,4,2,3,75,0,1
119793,-100,4,2,3,85,0,1
121502,-100,4,2,3,75,0,0
121596,-100,4,2,3,78,0,0
121691,-100,4,2,3,65,0,1
121786,-100,4,2,3,75,0,1
124634,-100,4,2,3,25,0,1
124729,-100,4,2,3,75,0,1
127672,-100,4,2,3,25,0,1
127767,-100,4,2,3,65,0,1
127862,-100,4,2,3,75,0,1
129191,-100,4,2,3,25,0,1
129286,-100,4,2,3,75,0,1
130710,-100,4,2,3,25,0,1
130805,-100,4,2,3,75,0,1
130995,-100,4,2,3,65,0,1
131470,-100,4,2,3,45,0,1
131565,-100,4,2,3,75,0,1
132134,-100,4,2,3,65,0,1
132324,-100,4,2,3,75,0,1
132514,-100,4,2,3,65,0,1
132894,-100,4,2,3,50,0,1
133084,-100,4,2,3,55,0,1
133464,-100,4,2,3,57,0,1
133558,-100,4,2,3,59,0,1
133653,-100,4,2,3,61,0,1
133748,-100,4,2,3,63,0,1
133843,-100,4,2,3,40,0,0
133938,-100,4,2,3,50,0,0
139350,-100,4,2,3,30,0,0
139539,-100,4,2,3,50,0,0
139729,-100,4,2,3,30,0,0
139919,-100,4,2,3,50,0,0
144286,-100,4,2,3,30,0,0
144476,-100,4,2,3,45,0,0
144666,-100,4,2,3,30,0,0
144856,-100,4,2,3,50,0,0
145046,-100,4,2,3,40,0,0
145236,-100,4,2,3,55,0,0
145426,-100,4,2,3,50,0,0
145710,-100,4,2,3,45,0,0
145805,-100,4,2,3,40,0,0
145900,-100,4,2,3,35,0,0
145995,-100,4,2,3,45,0,0
146090,-100,4,2,3,55,0,0
147039,-100,4,2,3,25,0,0
147134,-100,4,2,3,55,0,0
150077,-100,4,2,3,25,0,0
150172,-100,4,2,3,55,0,0
151502,-100,4,2,3,35,0,0
151691,-100,4,2,3,55,0,0
153115,-100,4,2,3,25,0,0
153210,-100,4,2,3,55,0,0
156628,-100,4,2,3,45,0,0
156723,-100,4,2,3,55,0,0
158147,379.746835443038,3,2,3,50,1,0
158147,-100,3,2,3,50,0,0
158241,-100,3,2,3,60,0,0
159286,-100,3,2,3,50,0,0
159381,-100,3,2,3,60,0,0
160045,-100,3,2,3,50,0,0
160140,-100,3,2,3,60,0,0
160425,-100,3,2,3,50,0,0
160520,-100,3,2,3,60,0,0
161562,379.746835443038,4,2,3,60,1,0
161941,-100,4,2,3,50,0,0
162036,-100,4,2,3,60,0,0
162701,-100,4,2,3,45,0,0
162891,-100,4,2,3,40,0,0
163082,379.746835443038,3,2,3,50,1,0
163082,-100,3,2,3,50,0,0
163176,-100,3,2,3,60,0,0
163366,-100,3,2,3,45,0,0
163651,-100,3,2,3,60,0,0
164221,-100,3,2,3,40,0,0
164316,-100,3,2,3,60,0,0
164506,-100,3,2,3,40,0,0
164695,-100,3,2,3,60,0,0
165075,-100,3,2,3,55,0,0
165170,-100,3,2,3,53,0,0
165265,-100,3,2,3,51,0,0
165358,379.746835443038,4,2,3,40,1,0
165358,-100,4,2,3,40,0,0
165452,-100,4,2,3,60,0,0
169914,-100,4,2,3,40,0,0
170484,-100,4,2,3,35,0,0
171054,-100,4,2,3,50,0,0
171623,-100,4,2,3,40,0,0
171813,-100,4,2,3,35,0,0
172194,379.746835443038,4,2,3,70,1,1
172194,-100,4,2,3,70,0,1
172288,-100,4,2,3,80,0,1
173618,-100,4,2,3,25,0,1
173712,-100,4,2,3,80,0,1
175137,-100,4,2,3,25,0,1
175231,-100,4,2,3,80,0,1
178175,-100,4,2,3,25,0,1
178269,-100,4,2,3,80,0,1
179694,-100,4,2,3,25,0,1
179788,-100,4,2,3,80,0,1
182447,-100,4,2,3,90,0,1
184156,-100,4,2,3,80,0,0
184345,-100,4,2,3,70,0,1
184440,-100,4,2,3,80,0,1
185769,-100,4,2,3,25,0,1
185864,-100,4,2,3,80,0,1
190326,-100,4,2,3,25,0,1
190421,-100,4,2,3,80,0,1
191845,-100,4,2,3,25,0,1
191940,-100,4,2,3,80,0,1
194599,-100,4,2,3,90,0,1
196118,-100,4,2,3,80,0,0
196497,-100,4,2,3,65,0,1
196592,-100,4,2,3,75,0,1
202573,-100,4,2,3,65,0,1
202668,-100,4,2,3,75,0,1
208459,-100,4,2,3,75,0,0
208649,-100,4,2,3,70,0,1
208744,-100,4,2,3,80,0,1
210168,-100,4,2,3,70,0,1
210263,-100,4,2,3,80,0,1
211687,-100,4,2,3,70,0,1
211782,-100,4,2,3,80,0,1
213206,-100,4,2,3,70,0,1
213301,-100,4,2,3,80,0,1
213871,-100,4,2,3,70,0,1
213966,-100,4,2,3,80,0,1
214725,-100,4,2,3,70,0,1
214820,-100,4,2,3,80,0,1
216244,-100,4,2,3,70,0,1
216339,-100,4,2,3,80,0,1
217763,-100,4,2,3,70,0,1
217858,-100,4,2,3,80,0,1
218523,-100,4,2,3,65,0,1
219092,-100,4,2,1,70,0,0

[Colours]
Combo1 : 128,255,128
Combo2 : 128,255,255
Combo3 : 255,255,128
Combo4 : 255,128,128

[HitObjects]
24,184,13084,6,0,P|76:200|172:144,1,150,4|0,2:3|0:0,0:0:0:0:
184,112,13844,2,0,L|176:48,1,50,2|0,0:0|0:0,0:0:0:0:
284,40,14414,2,0,L|272:200,1,150,2|0,0:0|0:0,0:0:0:0:
224,288,15363,1,2,0:0:0:0:
304,364,15743,1,2,0:0:0:0:
400,308,16122,6,0,L|412:148,1,150,2|0,0:0|0:0,0:0:0:0:
456,124,16882,2,0,L|448:60,1,50,2|0,0:0|0:0,0:0:0:0:
348,28,17451,2,0,P|276:12|216:72,1,150,2|0,0:0|0:0,0:0:0:0:
192,164,18401,1,2,0:0:0:0:
96,112,18781,1,2,0:0:0:0:
72,220,19160,6,0,L|60:336,2,100,2|0|2,0:0|0:0|0:0,0:0:0:0:
96,112,20300,1,0,0:0:0:0:
96,112,20489,2,0,P|156:64|252:80,1,150,2|0,0:0|0:0,0:0:0:0:
300,148,21439,1,2,0:0:0:0:
256,248,21819,1,2,0:0:0:0:
336,324,22198,6,0,L|444:316,1,100,2|0,0:0|0:0,0:0:0:0:
472,212,22958,2,0,L|372:204,1,100,2|0,0:0|0:0,0:0:0:0:
332,164,23527,1,4,2:1:0:0:
332,164,23717,6,0,P|248:200|200:20,1,300,0|8,0:0|0:0,0:0:0:0:
284,60,25236,6,0,P|368:52|416:80,1,100,6|8,3:2|0:0,0:0:0:0:
428,156,25996,2,0,L|488:148,2,50,0|0|0,0:0|3:0|0:0,0:0:0:0:
372,152,26565,2,0,P|344:220|368:312,1,150,10|0,0:0|0:0,0:0:0:0:
364,348,27325,2,0,P|308:328|244:340,1,100,8|2,0:0|3:2,0:0:0:0:
224,360,27895,1,10,0:0:0:0:
152,276,28274,6,0,L|144:164,1,100,2|8,3:2|0:0,0:0:0:0:
220,96,29034,2,0,L|212:28,2,50,0|0|0,0:0|3:0|0:0,0:0:0:0:
256,136,29603,2,0,P|304:104|404:112,1,150,10|0,0:0|0:0,0:0:0:0:
440,140,30363,2,0,L|428:252,1,100,8|0,0:0|3:0,0:0:0:0:
472,276,30933,1,10,0:0:0:0:
392,352,31312,6,0,P|324:376|284:368,1,100,2|8,3:2|0:0,0:0:0:0:
208,308,32072,2,0,L|224:196,1,100
224,156,32641,2,0,P|176:140|128:148,1,100,10|0,0:0|3:0,0:0:0:0:
20,168,33401,2,0,P|8:116|24:64,1,100,8|2,0:0|3:2,0:0:0:0:
48,24,33970,1,10,0:0:0:0:
156,48,34350,6,0,L|280:40,1,100,2|8,3:2|0:0,0:0:0:0:
308,60,34920,2,0,L|316:4,2,50,0|2|0,0:0|0:0|3:0,0:0:0:0:
256,156,35679,2,0,P|328:176|392:120,1,150,10|12,0:0|0:0,0:0:0:0:
460,56,36629,1,8,0:0:0:0:
504,88,36819,2,0,P|492:136|488:208,1,100,2|8,0:0|0:0,0:0:0:0:
504,240,37388,5,6,3:2:0:0:
432,328,37768,1,8,0:0:0:0:
336,272,38148,2,0,L|340:208,2,50,0|2|8,0:0|3:2|0:0,0:0:0:0:
252,344,38907,2,0,P|208:352|152:312,1,100,2|8,0:0|0:0,0:0:0:0:
164,216,39667,2,0,L|160:136,1,50,0|2,0:0|3:2,0:0:0:0:
112,144,40046,2,0,L|124:84,1,50,8|2,0:0|0:0,0:0:0:0:
144,44,40426,6,0,P|196:40|260:72,1,100,2|8,0:0|0:0,0:0:0:0:
300,144,41186,2,0,P|352:124|400:128,1,100,0|8,0:0|0:0,0:0:0:0:
432,168,41755,2,0,L|416:288,1,100,2|0,3:2|0:0,0:0:0:0:
440,320,42325,1,8,0:0:0:0:
336,360,42705,2,0,P|276:348|228:348,1,100,10|8,0:0|0:0,0:0:0:0:
188,372,43274,1,8,3:0:0:0:
188,372,43464,6,0,P|184:312|176:228,1,100,6|8,3:2|0:0,0:0:0:0:
92,208,44224,2,0,P|96:148|104:64,1,100,0|8,0:0|0:0,0:0:0:0:
164,20,44983,2,0,P|216:4|272:28,1,100,2|8,3:2|0:0,0:0:0:0:
276,124,45743,2,0,P|323:136|370:120,1,100,0|8,0:0|0:0,0:0:0:0:
456,52,46502,5,2,3:2:0:0:
488,156,46882,1,8,0:0:0:0:
428,248,47262,1,0,0:0:0:0:
452,356,47641,2,0,L|512:348,2,50,8|8|0,0:0|0:3|3:0,0:0:0:0:
400,344,48211,6,0,P|324:372|216:252,1,250,12|0,0:0|0:0,0:0:0:0:
272,172,49540,6,0,P|332:152|396:176,1,100,6|8,3:2|0:0,0:0:0:0:
420,144,50110,2,0,L|432:88,2,50,0|0|0,0:0|0:0|3:0,0:0:0:0:
456,188,50679,2,0,L|440:288,1,100,8|2,0:0|3:2,0:0:0:0:
348,348,51439,2,0,L|344:292,1,50,8|0,0:0|0:0,0:0:0:0:
296,272,51819,2,0,P|248:256|188:272,1,100,0|8,0:0|0:0,0:0:0:0:
112,332,52578,5,2,3:2:0:0:
36,252,52958,2,0,L|28:148,1,100,8|0,0:0|0:0,0:0:0:0:
68,112,53527,2,0,L|62:45,2,50,2|10|2,3:2|0:0|0:0,0:0:0:0:
120,128,54097,1,2,3:2:0:0:
120,128,54287,2,0,P|176:132|240:100,1,100,0|0,3:0|0:0,0:0:0:0:
312,60,55046,2,0,L|308:8,2,50,0|8|0,3:0|0:0|0:0,0:0:0:0:
368,68,55616,6,0,L|352:204,1,100,2|8,3:2|0:0,0:0:0:0:
372,220,56186,2,0,P|316:192|252:204,1,100,0|0,0:0|3:0,0:0:0:0:
252,240,56755,1,8,0:0:0:0:
180,324,57135,2,0,L|76:316,1,100,2|8,3:2|0:0,0:0:0:0:
36,284,57705,2,0,P|20:224|48:184,1,100,0|0,0:0|3:0,0:0:0:0:
68,148,58274,1,8,0:0:0:0:
172,108,58654,6,0,P|228:116|272:84,1,100,2|8,3:2|0:0,0:0:0:0:
308,60,59224,2,0,L|304:4,1,50
412,36,59793,2,0,L|416:92,1,50,10|2,0:0|0:0,0:0:0:0:
472,96,60173,2,0,P|456:160|452:236,1,100,2|8,3:2|0:0,0:0:0:0:
472,244,60743,1,0,0:0:0:0:
472,244,60933,2,0,P|420:224|360:228,1,100,2|10,0:0|0:0,0:0:0:0:
316,316,61692,6,0,L|208:324,1,100,6|8,3:2|0:0,0:0:0:0:
160,316,62262,2,0,L|144:372,2,50,0|0|0,0:0|0:0|3:0,0:0:0:0:
176,264,62831,2,0,L|168:200,1,50,8|0,0:0|0:0,0:0:0:0:
152,160,63211,2,0,P|208:168|272:132,1,100,2|8,3:2|0:0,0:0:0:0:
316,68,63970,1,0,0:0:0:0:
364,40,64160,2,0,P|352:96|348:156,1,100,0|0,3:0|0:0,0:0:0:0:
380,184,64730,5,2,3:2:0:0:
332,284,65110,2,0,P|276:268|208:280,1,100,8|0,0:0|0:0,0:0:0:0:
192,304,65679,2,0,L|184:360,1,50,0|8,3:0|0:0,0:0:0:0:
76,376,66249,2,0,L|68:268,1,100,2|8,3:2|0:0,0:0:0:0:
40,228,66819,2,0,P|104:196|156:212,1,100,0|0,0:0|3:0,0:0:0:0:
180,224,67388,1,8,0:0:0:0:
264,152,67768,6,0,P|260:88|252:44,1,100,2|8,0:2|0:0,0:0:0:0:
228,4,68338,2,0,P|300:16|368:16,1,100,0|0,0:0|3:0,0:0:0:0:
380,4,68907,1,8,0:0:0:0:
460,76,69287,2,0,P|448:128|440:180,1,100,2|8,3:2|0:0,0:0:0:0:
460,224,69857,2,0,P|404:208|348:204,1,100,0|0,0:0|3:0,0:0:0:0:
320,240,70426,1,8,0:0:0:0:
272,140,70806,6,0,P|220:148|168:124,1,100,2|8,0:0|0:0,0:0:0:0:
164,76,71376,2,0,L|104:84,1,50,0|0,0:0|0:0,0:0:0:0:
36,160,71945,1,10,0:0:0:0:
68,208,72135,2,0,L|148:196,1,50,2|2,0:0|3:2,0:0:0:0:
168,176,72515,2,0,P|192:236|180:288,1,100,2|2,3:2|0:0,0:0:0:0:
108,348,73274,2,0,L|44:340,2,50,2|2|2,3:2|3:2|0:0,0:0:0:0:
216,376,74034,6,0,L|272:368,1,50,0|2,3:0|0:0,0:0:0:0:
360,312,74603,2,0,P|368:264|340:196,1,100,2|2,0:0|0:0,0:0:0:0:
308,188,75173,2,0,P|372:196|452:96,1,200,2|2,0:0|0:0,0:0:0:0:
424,52,76122,1,2,0:0:0:0:
320,20,76502,2,0,L|312:72,1,50,2|2,0:0|0:0,0:0:0:0:
276,112,76882,6,0,P|236:96|172:92,1,100,6|8,3:2|0:0,0:0:0:0:
100,168,77641,2,0,P|60:184|12:227,1,100,2|8,0:0|0:0,0:0:0:0:
44,328,78400,2,0,B|96:320|96:320|132:336|132:336|192:328,1,150,2|0,0:0|0:0,0:0:0:0:
228,288,79160,6,0,L|236:176,1,100,2|8,3:2|0:0,0:0:0:0:
304,104,79919,2,0,P|360:88|416:104,1,100,2|2,0:0|0:0,0:0:0:0:
452,76,80489,1,8,0:0:0:0:
452,76,80679,2,0,P|412:136|424:224,1,150,2|8,0:0|0:0,0:0:0:0:
436,264,81438,6,0,L|332:248,1,100,2|8,3:2|0:0,0:0:0:0:
240,300,82198,2,0,L|141:315,1,100,2|10,0:0|0:0,0:0:0:0:
40,356,82957,2,0,P|40:296|24:208,1,150,2|0,0:0|0:0,0:0:0:0:
4,156,83717,6,0,P|60:176|116:144,1,100,2|8,0:0|0:0,0:0:0:0:
172,84,84476,2,0,L|276:96,1,100,2|0,0:0|0:0,0:0:0:0:
312,60,85046,2,0,L|384:56,1,50,10|2,0:0|0:0,0:0:0:0:
452,120,85616,1,8,0:0:0:0:
400,220,85995,6,0,L|288:212,1,100,6|8,3:2|0:0,0:0:0:0:
248,236,86565,1,0,0:0:0:0:
248,236,86755,2,0,L|240:304,2,50,0|2|10,3:0|0:0|0:0,0:0:0:0:
164,164,87514,2,0,L|156:52,1,100,2|0,3:2|3:2,0:0:0:0:
256,20,88274,6,0,P|308:12|360:40,1,100,2|8,3:2|0:0,0:0:0:0:
384,76,88844,1,0,0:0:0:0:
384,76,89033,2,0,L|456:68,2,50,0|2|8,3:0|0:0|0:0,0:0:0:0:
296,144,89793,2,0,L|128:128,1,150,2|2,3:2|0:0,0:0:0:0:
96,104,90552,6,0,P|68:160|76:208,1,100,2|8,3:2|0:0,0:0:0:0:
180,216,91312,2,0,L|168:280,1,50,0|2,3:0|0:0,0:0:0:0:
224,276,91692,2,0,L|212:340,1,50,10|0,0:0|0:0,0:0:0:0:
212,380,92071,2,0,P|272:348|328:360,1,100,2|0,3:2|3:0,0:0:0:0:
412,372,92831,6,0,L|428:268,1,100,2|8,3:2|0:0,0:0:0:0:
472,240,93400,1,0,0:0:0:0:
472,240,93590,2,0,L|460:128,1,100,2|8,3:2|0:0,0:0:0:0:
380,68,94350,2,0,P|320:52|272:72,1,100,2|8,3:2|0:0,0:0:0:0:
232,72,94919,1,2,0:0:0:0:
232,72,95109,2,0,L|224:8,2,50,10|8|8,0:0|0:3|0:3,0:0:0:0:
244,184,95869,6,0,L|232:296,1,100,2|0,3:2|0:0,0:0:0:0:
284,316,96438,1,0,3:0:0:0:
284,316,96628,2,0,P|352:328|416:284,1,150,8|0,0:0|3:0,0:0:0:0:
502,216,97577,2,0,P|442:173|370:184,1,150,8|8,0:0|0:0,0:0:0:0:
264,216,98527,1,0,0:0:0:0:
176,152,98906,6,0,L|184:88,2,50,2|0|0,3:2|0:0|0:0,0:0:0:0:
152,200,99476,1,0,3:0:0:0:
152,200,99666,2,0,P|80:216|16:168,1,150,8|2,0:0|3:2,0:0:0:0:
92,92,100615,2,0,L|84:24,1,50,0|0,3:0|0:0,0:0:0:0:
192,16,101185,2,0,L|200:128,1,100,8|8,0:0|0:0,0:0:0:0:
296,168,101944,6,0,L|356:160,1,50,6|0,3:2|3:0,0:0:0:0:
380,116,102324,2,0,L|440:108,1,50,8|0,0:0|0:0,0:0:0:0:
472,72,102704,2,0,P|468:132|468:212,1,100,0|8,0:0|0:0,0:0:0:0:
484,280,103463,2,0,P|428:272|376:272,1,100,2|8,3:2|0:0,0:0:0:0:
292,328,104223,1,0,0:0:0:0:
244,300,104413,2,0,P|244:236|260:164,1,100,0|0,3:0|0:0,0:0:0:0:
252,144,104982,6,0,P|192:160|128:144,1,100,6|8,0:0|0:0,0:0:0:0:
108,128,105552,1,0,0:0:0:0:
108,128,105742,2,0,L|92:244,1,100,0|8,0:0|0:0,0:0:0:0:
44,324,106501,1,8,0:3:0:0:
144,368,106881,6,0,P|204:376|272:240,1,200,6|0,3:2|0:0,0:0:0:0:
200,204,108021,6,0,L|212:96,1,100,12|4,3:2|0:0,0:0:0:0:
176,64,108590,1,12,3:2:0:0:
276,16,108970,2,0,P|336:12|376:36,1,100,0|8,3:0|0:0,0:0:0:0:
424,20,109539,6,0,P|396:88|408:148,1,100,6|8,3:2|0:0,0:0:0:0:
436,156,110109,2,0,L|492:148,2,50,0|0|0,0:0|0:0|3:0,0:0:0:0:
396,196,110679,2,0,L|284:184,1,100,8|2,0:0|3:2,0:0:0:0:
196,140,111438,2,0,P|184:184|184:204,1,50,8|0,0:0|0:0,0:0:0:0:
196,244,111818,2,0,P|128:220|64:232,1,100,0|8,0:0|0:0,0:0:0:0:
32,308,112577,5,2,3:2:0:0:
132,356,112957,2,0,L|244:344,1,100,8|0,0:0|0:0,0:0:0:0:
272,308,113527,2,0,L|336:316,1,50,0|8,3:0|0:0,0:0:0:0:
420,364,114096,2,0,P|428:312|416:264,1,100,2|8,3:2|0:0,0:0:0:0:
372,232,114666,1,0,0:0:0:0:
372,232,114856,2,0,L|384:132,1,100,0|8,0:0|0:0,0:0:0:0:
328,36,115615,6,0,P|272:24|212:56,1,100,2|8,3:2|0:0,0:0:0:0:
204,84,116185,2,0,L|140:80,2,50,0|0|0,0:0|0:0|3:0,0:0:0:0:
240,124,116755,1,8,0:0:0:0:
304,212,117134,2,0,L|404:204,1,100,2|8,3:2|0:0,0:0:0:0:
452,232,117704,2,0,L|440:292,2,50,0|0|0,0:0|0:0|3:0,0:0:0:0:
488,188,118274,1,8,0:0:0:0:
452,84,118653,6,0,P|384:96|332:72,1,100,2|8,3:2|0:0,0:0:0:0:
256,40,119413,2,0,L|132:48,1,100,0|10,0:0|0:0,0:0:0:0:
108,16,119983,1,2,0:0:0:0:
60,44,120172,2,0,L|52:108,1,50,2|0,3:2|3:0,0:0:0:0:
32,144,120552,2,0,P|96:124|172:144,1,100,8|2,0:0|0:0,0:0:0:0:
232,164,121312,1,10,0:0:0:0:
172,256,121691,6,0,L|152:362,1,100,6|8,3:2|0:0,0:0:0:0:
101,372,122261,2,0,L|79:316,1,50
16,237,122831,2,0,L|33:174,1,50,8|0,0:0|0:0,0:0:0:0:
48,132,123210,2,0,P|100:108|168:128,1,100,2|8,3:2|0:0,0:0:0:0:
196,140,123780,1,0,0:0:0:0:
196,140,123970,2,0,L|208:24,1,100,0|8,0:0|0:0,0:0:0:0:
312,12,124729,6,0,L|304:76,1,50,2|0,3:2|3:0,0:0:0:0:
324,116,125109,2,0,P|384:92|456:108,1,100,8|0,0:0|0:0,0:0:0:0:
500,168,125869,1,8,0:0:0:0:
432,252,126248,2,0,L|440:324,1,50,2|0,3:2|3:0,0:0:0:0:
468,348,126628,2,0,L|352:336,1,100,8|0,0:0|0:0,0:0:0:0:
264,364,127388,1,8,0:0:0:0:
168,312,127767,6,0,P|156:252|172:200,1,100,6|8,3:2|0:0,0:0:0:0:
188,164,128337,2,0,L|248:156,2,50,0|0|0,0:0|3:0|3:0,0:0:0:0:
144,128,128907,1,8,0:0:0:0:
228,56,129286,2,0,P|284:60|324:104,1,100,2|8,3:2|0:0,0:0:0:0:
348,132,129856,2,0,L|336:208,2,50,0|0|0,0:0|3:0|3:0,0:0:0:0:
392,100,130426,1,8,0:0:0:0:
472,176,130805,6,0,L|480:288,1,100,2|8,3:2|0:0,0:0:0:0:
456,324,131375,1,0,0:0:0:0:
456,324,131565,2,0,P|408:304|344:312,1,100,8|2,0:0|3:2,0:0:0:0:
308,288,132134,2,0,P|244:324|156:300,1,150,6|0,3:2|3:0,0:0:0:0:
104,224,133084,1,10,3:2:0:0:
176,140,133464,1,10,3:2:0:0:
96,64,133843,5,6,3:2:0:0:
200,32,134223,1,8,0:0:0:0:
284,104,134603,2,0,L|404:96,1,100,0|8,3:0|0:0,0:0:0:0:
412,204,135362,2,0,L|292:196,1,100,2|8,3:2|0:0,0:0:0:0:
264,220,135932,1,8,0:0:0:0:
264,220,136122,2,0,P|248:288|252:324,1,100,0|0,3:0|3:0,0:0:0:0:
280,364,136691,1,8,0:0:0:0:
280,364,136881,6,0,L|164:352,1,100,2|8,3:2|0:0,0:0:0:0:
88,296,137641,1,0,3:0:0:0:
160,212,138021,1,8,0:0:0:0:
76,144,138400,2,0,L|68:24,2,100,2|8|0,3:2|0:0|3:0,0:0:0:0:
116,184,139350,2,0,L|108:260,2,50,12|0|12,0:0|0:0|0:0,0:0:0:0:
164,160,139919,6,0,P|220:144|276:160,1,100,2|8,3:2|0:0,0:0:0:0:
372,160,140679,2,0,L|364:216,2,50,0|0|8,3:0|0:0|0:0,0:0:0:0:
396,52,141438,2,0,P|448:72|512:48,2,100,2|8|0,3:2|0:0|3:0,0:0:0:0:
292,20,142577,1,0,3:0:0:0:
212,96,142957,6,0,P|140:120|68:100,1,150,2|0,3:2|0:0,0:0:0:0:
32,60,143717,2,0,L|16:204,1,100,2|0,3:2|3:0,0:0:0:0:
88,244,144476,2,0,L|80:312,2,50,2|12|0,3:2|0:0|3:0,0:0:0:0:
116,196,145046,1,12,0:0:0:0:
172,204,145236,2,0,L|300:196,1,100,0|8,3:0|0:3,0:0:0:0:
360,132,145995,6,0,P|380:200|368:240,1,100,6|8,3:2|0:0,0:0:0:0:
288,296,146755,2,0,L|228:288,2,50,2|0|8,3:2|0:0|0:0,0:0:0:0:
332,332,147324,1,0,0:0:0:0:
332,332,147514,2,0,L|448:320,1,100,2|10,3:2|0:0,0:0:0:0:
480,360,148084,1,8,0:0:0:0:
480,360,148274,2,0,P|479:277|492:204,1,150,0|8,3:0|0:0,0:0:0:0:
496,156,149033,6,0,P|428:184|380:164,1,100,2|8,3:2|0:0,0:0:0:0:
332,96,149793,2,0,L|340:32,2,50,2|0|8,3:2|0:0|0:0,0:0:0:0:
228,144,150552,2,0,L|232:252,1,100,2|10,3:2|0:0,0:0:0:0:
172,336,151312,2,0,P|124:324|116:324,1,50,0|12,3:0|0:0,0:0:0:0:
96,276,151691,2,0,P|36:288|20:288,1,50,0|8,3:0|0:0,0:0:0:0:
12,244,152071,5,2,3:2:0:0:
36,136,152451,1,8,0:0:0:0:
148,140,152831,1,2,3:2:0:0:
204,44,153210,1,8,0:0:0:0:
308,80,153590,2,0,P|300:144|300:200,1,100,2|10,3:2|0:0,0:0:0:0:
336,224,154160,1,0,0:0:0:0:
336,224,154350,2,0,P|404:212|456:212,1,100,0|0,3:0|3:0,0:0:0:0:
480,240,154919,1,8,0:0:0:0:
480,240,155109,6,0,L|492:128,1,100,2|8,3:2|0:0,0:0:0:0:
424,52,155869,2,0,P|340:48|276:104,1,150,2|0,3:2|0:0,0:0:0:0:
264,132,156628,2,0,P|200:92|144:100,1,100,6|8,3:2|0:0,0:0:0:0:
124,108,157198,1,0,0:0:0:0:
124,108,157388,2,0,L|136:36,2,50,10|0|8,0:0|3:0|3:3,0:0:0:0:
60,196,158147,6,0,L|64:284,2,75,6|2|2,3:2|3:2|3:0,0:0:0:0:
24,156,158906,1,8,0:0:0:0:
124,108,159286,2,0,B|204:68|188:132|272:96,1,150,6|0,3:2|3:0,0:0:0:0:
304,56,160045,2,0,L|372:60,1,50,8|8,0:0|0:3,0:0:0:0:
396,92,160425,6,0,L|480:84,2,75,6|0|2,3:2|3:0|3:2,0:0:0:0:
364,136,161184,1,8,0:0:0:0:
424,228,161562,1,10,3:2:0:0:
364,320,161941,2,0,P|312:304|256:312,1,100,12|8,0:0|0:0,0:0:0:0:
224,340,162511,2,0,L|156:332,1,50,0|2,3:0|3:2,0:0:0:0:
84,272,163082,6,0,P|64:320|64:356,2,75,6|2|2,3:2|0:0|3:2,0:0:0:0:
136,248,163841,1,8,0:0:0:0:
152,140,164221,2,0,L|144:44,2,75,6|4|10,3:2|0:0|3:2,0:0:0:0:
200,168,164980,1,8,0:0:0:0:
268,82,165358,6,0,P|304:66|376:74,1,100,6|0,3:2|0:0,0:0:0:0:
414,103,165927,1,0,3:0:0:0:
414,103,166117,2,0,L|402:211,1,100,8|0,0:0|0:0,0:0:0:0:
358,303,166876,2,0,P|310:271|214:295,1,150,2|0,3:2|3:0,0:0:0:0:
193,333,167636,2,0,P|149:321|101:333,2,75,8|8|8,0:0|0:3|0:3,0:0:0:0:
256,192,169914,12,0,171433,0:0:0:0:
431,192,172194,6,0,P|384:201|323:170,1,100,6|8,3:2|0:0,0:0:0:0:
305,137,172763,2,0,L|314:67,2,50,0|0|0,0:0|0:0|3:0,0:0:0:0:
254,158,173333,2,0,L|238:265,1,100,8|2,0:0|3:2,0:0:0:0:
135,292,174092,2,0,L|126:219,1,50,8|0,0:0|0:0,0:0:0:0:
111,190,174472,2,0,P|53:196|2:173,1,100,0|8,0:0|0:0,0:0:0:0:
71,87,175231,5,2,3:2:0:0:
180,101,175611,2,0,L|309:114,1,100,8|0,0:0|0:0,0:0:0:0:
324,78,176181,2,0,L|386:72,1,50,0|8,3:0|0:0,0:0:0:0:
468,17,176750,2,0,P|485:71|478:122,1,100,2|8,3:2|0:0,0:0:0:0:
435,145,177320,2,0,P|418:201|428:248,1,100,0|0,0:0|3:0,0:0:0:0:
459,283,177890,1,8,0:0:0:0:
366,341,178269,6,0,P|301:325|248:345,1,100,2|8,3:2|0:0,0:0:0:0:
219,353,178839,2,0,L|163:342,1,50,0|0,0:0|0:0,0:0:0:0:
128,306,179219,2,0,L|63:318,1,50,0|8,3:0|0:0,0:0:0:0:
28,217,179788,2,0,P|21:151|39:112,1,100,2|8,3:2|0:0,0:0:0:0:
73,83,180358,2,0,L|128:97,1,50,0|0,0:0|0:0,0:0:0:0:
169,122,180738,2,0,L|237:112,1,50,0|8,3:0|0:0,0:0:0:0:
311,55,181307,6,0,L|320:175,1,100,2|8,3:2|0:0,0:0:0:0:
316,264,182067,2,0,P|376:241|429:262,1,100,0|10,0:0|0:0,0:0:0:0:
456,280,182637,1,2,0:0:0:0:
456,280,182826,2,0,L|466:214,1,50,2|0,3:2|3:0,0:0:0:0:
496,188,183206,2,0,L|485:134,1,50,8|0,0:0|0:0,0:0:0:0:
472,84,183586,2,0,P|407:97|355:75,1,100,2|10,3:2|0:0,0:0:0:0:
292,16,184345,6,0,L|279:142,1,100,6|8,3:2|0:0,0:0:0:0:
232,141,184915,2,0,L|156:134,2,50,0|0|0,0:0|0:0|3:0,0:0:0:0:
250,193,185485,1,8,0:0:0:0:
348,240,185864,2,0,P|356:307|351:351,1,100,2|8,3:2|0:0,0:0:0:0:
304,364,186434,1,0,0:0:0:0:
304,364,186624,2,0,P|238:352|201:353,1,100,0|8,0:0|0:0,0:0:0:0:
96,368,187383,5,2,3:2:0:0:
28,280,187763,2,0,P|21:235|32:167,1,100,8|0,0:0|0:0,0:0:0:0:
106,99,188523,2,0,P|130:144|129:167,1,50,8|0,0:0|0:0,0:0:0:0:
134,196,188902,2,0,P|195:171|256:186,1,100,2|8,3:2|0:0,0:0:0:0:
327,221,189662,1,0,0:0:0:0:
420,162,190042,2,0,L|413:99,1,50,8|0,0:0|0:0,0:0:0:0:
418,57,190421,6,0,P|368:66|307:43,1,100,2|8,3:2|0:0,0:0:0:0:
278,18,190991,2,0,L|220:28,1,50,0|0,0:0|0:0,0:0:0:0:
176,45,191371,2,0,L|111:35,1,50,0|8,3:0|0:0,0:0:0:0:
41,107,191940,2,0,L|49:221,1,100,2|8,3:2|0:0,0:0:0:0:
91,240,192510,2,0,L|148:229,1,50,0|0,0:0|0:0,0:0:0:0:
192,212,192890,2,0,L|182:282,1,50,0|8,3:0|0:0,0:0:0:0:
170,369,193459,6,0,P|217:352|300:358,1,100,2|8,3:2|0:0,0:0:0:0:
376,372,194219,2,0,L|386:253,1,100,0|10,0:0|0:0,0:0:0:0:
416,228,194788,1,2,0:0:0:0:
416,228,194978,2,0,L|475:221,2,50,2|2|8,3:2|3:2|0:0,0:0:0:0:
376,188,195548,2,0,L|262:180,1,100,2|10,0:0|0:0,0:0:0:0:
232,148,196118,1,8,3:0:0:0:
144,212,196497,5,6,0:0:0:0:
208,300,196877,2,0,B|255:291|255:291|301:303|301:303|396:288,1,150,10|0,0:0|3:0,0:0:0:0:
388,252,197637,1,10,0:0:0:0:
430,147,198016,2,0,L|422:45,1,100,2|10,3:2|0:0,0:0:0:0:
369,31,198586,2,0,P|301:29|271:52,1,100,0|0,0:0|3:2,0:0:0:0:
308,152,199345,1,2,0:0:0:0:
308,152,199535,6,0,P|259:159|215:137,1,100,2|10,3:2|0:0,0:0:0:0:
115,91,200295,1,8,0:0:0:0:
78,132,200485,2,0,L|69:189,1,50,2|8,3:2|0:0,0:0:0:0:
21,207,200864,2,0,L|36:320,1,100,2|2,0:0|3:2,0:0:0:0:
133,362,201624,1,8,0:0:0:0:
176,327,201814,2,0,P|226:318|281:319,1,100,0|10,0:0|0:0,0:0:0:0:
378,354,202573,6,0,L|390:246,1,100,6|10,3:2|0:0,0:0:0:0:
407,145,203333,2,0,P|327:130|256:186,1,150,2|0,0:0|0:0,0:0:0:0:
232,202,204092,1,2,3:2:0:0:
166,113,204472,1,10,0:0:0:0:
87,189,204852,6,0,L|103:341,1,150,2|0,0:0|0:0,0:0:0:0:
152,361,205611,1,2,3:2:0:0:
233,287,205991,1,10,0:0:0:0:
325,347,206371,2,0,P|412:335|446:335,1,100,2|10,0:0|0:0,0:0:0:0:
482,241,207130,2,0,L|490:126,1,100,2|8,3:2|0:0,0:0:0:0:
399,78,207890,1,2,0:0:0:0:
357,114,208080,2,0,L|362:183,2,50,10|2|10,0:0|3:2|0:0,0:0:0:0:
312,81,208649,6,0,P|237:113|161:88,1,150,6|2,3:2|0:0,0:0:0:0:
133,57,209409,1,2,3:2:0:0:
67,144,209788,2,0,L|75:226,1,50,8|0,0:0|3:0,0:0:0:0:
51,245,210168,2,0,L|198:225,1,100,6|8,3:2|3:2,0:0:0:0:
231,156,210928,1,0,3:0:0:0:
273,191,211118,2,0,L|267:258,2,50,2|8|10,0:0|3:2|0:0,0:0:0:0:
316,156,211687,6,0,B|369:144|369:144|409:158|409:158|483:145,1,150,6|2,3:2|0:0,0:0:0:0:
495,105,212447,1,0,3:0:0:0:
444,7,212826,1,8,0:0:0:0:
341,46,213206,2,0,L|219:34,1,100,6|10,0:0|3:2,0:0:0:0:
144,89,213966,1,0,3:0:0:0:
185,125,214156,2,0,L|253:120,2,50,10|2|10,0:0|3:2|0:0,0:0:0:0:
146,163,214725,6,0,P|171:222|165:294,1,100,6|10,3:2|0:0,0:0:0:0:
152,365,215485,2,0,P|218:335|303:358,1,150,0|0,3:0|0:0,0:0:0:0:
342,369,216244,1,6,3:2:0:0:
412,284,216624,1,8,0:0:0:0:
328,212,217004,1,2,3:2:0:0:
353,163,217194,2,0,L|427:158,2,50,10|2|10,0:0|3:2|0:0,0:0:0:0:
310,128,217763,6,0,P|262:135|196:105,1,100,6|8,3:2|0:0,0:0:0:0:
111,77,218523,2,0,L|105:25,2,50,8|8|0,0:0|0:0|0:0,0:0:0:0:
94,129,219092,1,4,3:1:0:0:
