osu file format v14

[General]
AudioFilename: 09.mp3
AudioLeadIn: 0
PreviewTime: 49350
Countdown: 0
SampleSet: Soft
StackLeniency: 0.3
Mode: 0
LetterboxInBreaks: 0
WidescreenStoryboard: 0

[Editor]
Bookmarks: 13044,25236,37348,43424,73614,76842,85956,95829,101905,133804,145956,158108,165323,169880
DistanceSpacing: 1.7
BeatDivisor: 4
GridSize: 4
TimelineZoom: 2

[Metadata]
Title:flashback trip syndrome
TitleUnicode:flashback trip syndrome
Artist:School Food Punishment
ArtistUnicode:School Food Punishment
Creator:appleeaterx
Version:Insane
Source:七瀬ふたたび
Tags:nanase futatabi prog-roid スクール フード パニッシュメント sfp 内村友美 uchimura yumi alacat
BeatmapID:896915
BeatmapSetID:413635

[Difficulty]
HPDrainRate:6
CircleSize:4
OverallDifficulty:7
ApproachRate:8.6
SliderMultiplier:1.2
SliderTickRate:1

[Events]
//Background and Video events
0,0,"background.jpg",0,0
//Break Periods
//Storyboard Layer 0 (Background)
//Storyboard Layer 1 (Fail)
//Storyboard Layer 2 (Pass)
//Storyboard Layer 3 (Foreground)
//Storyboard Sound Samples

[TimingPoints]
933,379.746835443038,4,2,1,28,1,0
13084,-100,4,2,1,40,0,0
13179,-100,4,2,1,35,0,0
16122,-100,4,2,1,40,0,0
16217,-100,4,2,1,35,0,0
19160,-100,4,2,1,40,0,0
19255,-100,4,2,1,35,0,0
22198,-100,4,2,1,40,0,0
22293,-100,4,2,1,30,0,0
23527,-100,4,2,1,45,0,0
23717,-100,4,2,1,20,0,0
23907,-100,4,2,1,25,0,0
24097,-100,4,2,1,30,0,0
24287,-100,4,2,1,35,0,0
24477,-100,4,2,1,35,0,0
24667,-100,4,2,1,40,0,0
24857,-100,4,2,2,55,0,0
25236,-90.9090909090909,4,2,3,45,0,0
25331,-90.9090909090909,4,2,3,55,0,0
27705,-90.9090909090909,4,2,3,50,0,0
28274,-90.9090909090909,4,2,3,55,0,0
30933,-90.9090909090909,4,2,3,50,0,0
31312,-90.9090909090909,4,2,3,55,0,0
33781,-90.9090909090909,4,2,3,50,0,0
34350,-90.9090909090909,4,2,3,55,0,0
35110,-90.9090909090909,4,2,3,50,0,0
35300,-90.9090909090909,4,2,3,55,0,0
36249,-90.9090909090909,4,2,3,45,0,0
36629,-90.9090909090909,4,2,3,55,0,0
37388,-90.9090909090909,4,2,3,40,0,0
37578,-90.9090909090909,4,2,3,50,0,0
38338,-90.9090909090909,4,2,3,55,0,0
38907,-90.9090909090909,4,2,3,50,0,0
39857,-90.9090909090909,4,2,3,55,0,0
40426,-90.9090909090909,4,2,3,50,0,0
41376,-90.9090909090909,4,2,3,55,0,0
41755,-90.9090909090909,4,2,3,50,0,0
43464,-86.9565217391304,4,2,3,40,0,0
43559,-86.9565217391304,4,2,3,60,0,0
48211,-181.818181818182,4,2,3,40,0,0
48970,-181.818181818182,4,2,3,45,0,0
49065,-181.818181818182,4,2,3,50,0,0
49160,-181.818181818182,4,2,3,55,0,0
49255,-181.818181818182,4,2,3,60,0,0
49540,-83.3333333333333,4,2,3,60,0,1
49635,-83.3333333333333,4,2,3,70,0,1
52483,-83.3333333333333,4,2,3,25,0,1
52578,-83.3333333333333,4,2,3,70,0,1
53527,-83.3333333333333,4,2,3,60,0,1
54097,-83.3333333333333,4,2,3,70,0,1
55521,-83.3333333333333,4,2,3,25,0,1
55616,-83.3333333333333,4,2,3,70,0,1
57040,-83.3333333333333,4,2,3,25,0,1
57135,-83.3333333333333,4,2,3,70,0,1
59793,-83.3333333333333,4,2,3,80,0,1
61502,-83.3333333333333,4,2,3,70,0,0
61692,-83.3333333333333,4,2,3,60,0,1
61787,-83.3333333333333,4,2,3,70,0,1
67673,-83.3333333333333,4,2,3,25,0,1
67768,-83.3333333333333,4,2,3,70,0,1
69192,-83.3333333333333,4,2,3,25,0,1
69287,-83.3333333333333,4,2,3,70,0,1
71945,-83.3333333333333,4,2,3,80,0,1
73654,-133.333333333333,4,2,3,60,0,0
74034,-133.333333333333,4,2,3,15,0,0
74224,-133.333333333333,4,2,3,15,0,0
74414,-133.333333333333,4,2,3,25,0,0
74603,-133.333333333333,4,2,3,35,0,0
74793,-133.333333333333,4,2,3,20,0,0
74983,-133.333333333333,4,2,3,35,0,0
75173,-133.333333333333,4,2,3,40,0,0
75363,-133.333333333333,4,2,3,35,0,0
75553,-133.333333333333,4,2,3,20,0,0
75743,-133.333333333333,4,2,3,30,0,0
75933,-133.333333333333,4,2,3,15,0,0
76122,-133.333333333333,4,2,3,35,0,0
76312,-133.333333333333,4,2,3,20,0,0
76502,-133.333333333333,4,2,3,40,0,0
76692,-133.333333333333,4,2,3,50,0,0
76882,379.746835443038,6,2,3,35,1,0
76882,-90.9090909090909,6,2,3,35,0,0
76976,-90.9090909090909,6,2,3,45,0,0
77451,-90.9090909090909,6,2,3,35,0,0
77641,-90.9090909090909,6,2,3,45,0,0
79730,-90.9090909090909,6,2,3,35,0,0
79919,-90.9090909090909,6,2,3,45,0,0
80299,-90.9090909090909,6,2,3,35,0,0
80489,-90.9090909090909,6,2,3,45,0,0
82008,-90.9090909090909,6,2,3,35,0,0
82198,-90.9090909090909,6,2,3,45,0,0
82578,-90.9090909090909,6,2,3,35,0,0
82768,-90.9090909090909,6,2,3,45,0,0
84287,-90.9090909090909,6,2,3,35,0,0
84476,-90.9090909090909,6,2,3,45,0,0
85046,-90.9090909090909,6,2,3,35,0,0
85426,-90.9090909090909,6,2,3,45,0,0
85995,-86.9565217391304,6,2,3,45,0,0
86090,-86.9565217391304,6,2,3,55,0,0
88559,-86.9565217391304,6,2,3,25,0,0
88654,-86.9565217391304,6,2,3,55,0,0
95109,-86.9565217391304,6,2,3,60,0,0
95489,-86.9565217391304,6,2,3,50,0,0
95869,379.746835443038,4,2,3,45,1,0
95963,-100,4,2,3,50,0,0
101945,-86.9565217391304,4,2,3,50,0,0
102039,-86.9565217391304,4,2,3,60,0,0
104982,-86.9565217391304,4,2,3,50,0,0
105172,-86.9565217391304,4,2,3,60,0,0
106882,379.746835443038,4,2,3,50,1,0
106882,-181.818181818182,4,2,3,50,0,0
107451,-181.818181818182,4,2,3,45,0,0
107546,-181.818181818182,4,2,3,50,0,0
107641,-181.818181818182,4,2,3,55,0,0
107736,-181.818181818182,4,2,3,50,0,0
107831,-181.818181818182,4,2,3,45,0,0
107926,-181.818181818182,4,2,3,40,0,0
108021,379.746835443038,4,2,3,60,1,0
108875,-86.9565217391304,4,2,3,60,0,0
108970,-86.9565217391304,4,2,3,50,0,0
109065,-86.9565217391304,4,2,3,52,0,0
109160,-86.9565217391304,4,2,3,54,0,0
109255,-86.9565217391304,4,2,3,56,0,0
109350,-86.9565217391304,4,2,3,58,0,0
109445,-86.9565217391304,4,2,3,60,0,0
109539,-83.3333333333333,4,2,3,65,0,1
109634,-83.3333333333333,4,2,3,75,0,1
109824,-83.3333333333333,4,2,3,25,0,1
109919,-83.3333333333333,4,2,3,75,0,1
110964,-83.3333333333333,4,2,3,25,0,1
111058,-83.3333333333333,4,2,3,75,0,1
112483,-83.3333333333333,4,2,3,25,0,1
112577,-83.3333333333333,4,2,3,75,0,1
115521,-83.3333333333333,4,2,3,25,0,1
115615,-83.3333333333333,4,2,3,75,0,1
117039,-83.3333333333333,4,2,3,25,0,1
117134,-83.3333333333333,4,2,3,75,0,1
119793,-83.3333333333333,4,2,3,85,0,1
121502,-83.3333333333333,4,2,3,75,0,0
121596,-83.3333333333333,4,2,3,78,0,0
121691,-83.3333333333333,4,2,3,65,0,1
121786,-83.3333333333333,4,2,3,75,0,1
124634,-83.3333333333333,4,2,3,25,0,1
124729,-83.3333333333333,4,2,3,75,0,1
127672,-83.3333333333333,4,2,3,25,0,1
127767,-83.3333333333333,4,2,3,65,0,1
127862,-83.3333333333333,4,2,3,75,0,1
129191,-83.3333333333333,4,2,3,25,0,1
129286,-83.3333333333333,4,2,3,75,0,1
130710,-83.3333333333333,4,2,3,25,0,1
130805,-83.3333333333333,4,2,3,75,0,1
130995,-83.3333333333333,4,2,3,65,0,1
131470,-83.3333333333333,4,2,3,45,0,1
131565,-83.3333333333333,4,2,3,75,0,1
132134,-83.3333333333333,4,2,3,65,0,1
132324,-83.3333333333333,4,2,3,75,0,1
132514,-83.3333333333333,4,2,3,65,0,1
132894,-83.3333333333333,4,2,3,50,0,1
133084,-83.3333333333333,4,2,3,55,0,1
133464,-83.3333333333333,4,2,3,57,0,1
133558,-83.3333333333333,4,2,3,59,0,1
133653,-83.3333333333333,4,2,3,61,0,1
133748,-83.3333333333333,4,2,3,63,0,1
133843,-100,4,2,3,40,0,0
133938,-100,4,2,3,50,0,0
139350,-100,4,2,3,30,0,0
139539,-100,4,2,3,50,0,0
139729,-100,4,2,3,30,0,0
139919,-100,4,2,3,50,0,0
144286,-100,4,2,3,30,0,0
144476,-100,4,2,3,45,0,0
144666,-100,4,2,3,30,0,0
144856,-100,4,2,3,50,0,0
145046,-100,4,2,3,40,0,0
145236,-100,4,2,3,55,0,0
145426,-100,4,2,3,50,0,0
145710,-100,4,2,3,45,0,0
145805,-100,4,2,3,40,0,0
145900,-100,4,2,3,35,0,0
145995,-100,4,2,3,45,0,0
146090,-100,4,2,3,55,0,0
147039,-100,4,2,3,25,0,0
147134,-100,4,2,3,55,0,0
150077,-100,4,2,3,25,0,0
150172,-100,4,2,3,55,0,0
151502,-100,4,2,3,35,0,0
151691,-100,4,2,3,55,0,0
153115,-100,4,2,3,25,0,0
153210,-100,4,2,3,55,0,0
156628,-100,4,2,3,45,0,0
156723,-100,4,2,3,55,0,0
158147,379.746835443038,3,2,3,50,1,0
158147,-90.9090909090909,3,2,3,50,0,0
158241,-90.9090909090909,3,2,3,60,0,0
159286,-90.9090909090909,3,2,3,50,0,0
159381,-90.9090909090909,3,2,3,60,0,0
160045,-90.9090909090909,3,2,3,50,0,0
160140,-90.9090909090909,3,2,3,60,0,0
160425,-90.9090909090909,3,2,3,50,0,0
160520,-90.9090909090909,3,2,3,60,0,0
161562,379.746835443038,4,2,3,60,1,0
161562,-90.9090909090909,4,2,3,60,0,0
161941,-90.9090909090909,4,2,3,50,0,0
162036,-90.9090909090909,4,2,3,60,0,0
162701,-90.9090909090909,4,2,3,45,0,0
162891,-90.9090909090909,4,2,3,40,0,0
163082,379.746835443038,3,2,3,50,1,0
163082,-90.9090909090909,3,2,3,50,0,0
163176,-90.9090909090909,3,2,3,60,0,0
163366,-90.9090909090909,3,2,3,45,0,0
163651,-90.9090909090909,3,2,3,60,0,0
164221,-90.9090909090909,3,2,3,40,0,0
164316,-90.9090909090909,3,2,3,60,0,0
164506,-90.9090909090909,3,2,3,40,0,0
164695,-90.9090909090909,3,2,3,60,0,0
165075,-90.9090909090909,3,2,3,55,0,0
165170,-90.9090909090909,3,2,3,53,0,0
165265,-90.9090909090909,3,2,3,51,0,0
165358,379.746835443038,4,2,3,40,1,0
165358,-90.9090909090909,4,2,3,40,0,0
165452,-90.9090909090909,4,2,3,60,0,0
169914,-90.9090909090909,4,2,3,40,0,0
170484,-90.9090909090909,4,2,3,35,0,0
171054,-90.9090909090909,4,2,3,50,0,0
171623,-90.9090909090909,4,2,3,40,0,0
171813,-90.9090909090909,4,2,3,35,0,0
172194,379.746835443038,4,2,3,70,1,1
172194,-80,4,2,3,70,0,1
172288,-80,4,2,3,80,0,1
173618,-80,4,2,3,25,0,1
173712,-80,4,2,3,80,0,1
175137,-80,4,2,3,25,0,1
175231,-80,4,2,3,80,0,1
178175,-80,4,2,3,25,0,1
178269,-80,4,2,3,80,0,1
179694,-80,4,2,3,25,0,1
179788,-80,4,2,3,80,0,1
182447,-80,4,2,3,90,0,1
184156,-80,4,2,3,80,0,0
184345,-80,4,2,3,70,0,1
184440,-80,4,2,3,80,0,1
185769,-80,4,2,3,25,0,1
185864,-80,4,2,3,80,0,1
190326,-80,4,2,3,25,0,1
190421,-80,4,2,3,80,0,1
191845,-80,4,2,3,25,0,1
191940,-80,4,2,3,80,0,1
194599,-80,4,2,3,90,0,1
196118,-100,4,2,3,80,0,0
196497,-83.3333333333333,4,2,3,65,0,1
196592,-83.3333333333333,4,2,3,75,0,1
202573,-83.3333333333333,4,2,3,65,0,1
202668,-83.3333333333333,4,2,3,75,0,1
208459,-83.3333333333333,4,2,3,75,0,0
208649,-83.3333333333333,4,2,3,70,0,1
208744,-83.3333333333333,4,2,3,80,0,1
210168,-83.3333333333333,4,2,3,70,0,1
210263,-83.3333333333333,4,2,3,80,0,1
211687,-83.3333333333333,4,2,3,70,0,1
211782,-83.3333333333333,4,2,3,80,0,1
213206,-83.3333333333333,4,2,3,70,0,1
213301,-83.3333333333333,4,2,3,80,0,1
213871,-83.3333333333333,4,2,3,70,0,1
213966,-83.3333333333333,4,2,3,80,0,1
214725,-83.3333333333333,4,2,3,70,0,1
214820,-83.3333333333333,4,2,3,80,0,1
216244,-83.3333333333333,4,2,3,70,0,1
216339,-83.3333333333333,4,2,3,80,0,1
217763,-83.3333333333333,4,2,3,70,0,1
217858,-83.3333333333333,4,2,3,80,0,1
218523,-83.3333333333333,4,2,3,65,0,1
219092,-83.3333333333333,4,2,1,70,0,0

[Colours]
Combo1 : 128,255,128
Combo2 : 128,255,255
Combo3 : 255,255,128
Combo4 : 255,128,128

[HitObjects]
460,192,13084,6,0,P|408:168|344:184,1,120,4|0,2:3|0:0,0:0:0:0:
340,276,13654,1,0,0:0:0:0:
272,128,13844,1,2,0:0:0:0:
264,220,14034,1,0,0:0:0:0:
348,180,14224,1,0,0:0:0:0:
188,164,14414,6,0,L|200:40,1,120,2|0,0:0|0:0,0:0:0:0:
100,184,14983,2,0,P|112:224|128:244,1,60
36,128,15363,2,0,P|16:164|13:190,1,60,2|0,0:0|0:0,0:0:0:0:
36,264,15743,1,2,0:0:0:0:
36,264,15933,1,0,0:0:0:0:
200,248,16122,6,0,L|192:376,1,120,2|0,0:0|0:0,0:0:0:0:
288,256,16692,1,0,0:0:0:0:
356,196,16882,2,0,L|420:188,1,60,2|0,0:0|0:0,0:0:0:0:
372,280,17262,1,0,0:0:0:0:
272,176,17451,6,0,P|220:148|156:168,1,120,2|0,0:0|0:0,0:0:0:0:
124,240,18021,1,0,0:0:0:0:
72,176,18211,1,0,0:0:0:0:
184,80,18401,1,2,0:0:0:0:
163,162,18591,1,0,0:0:0:0:
248,148,18781,1,2,0:0:0:0:
100,96,18970,1,0,0:0:0:0:
248,148,19160,6,0,P|296:168|368:128,1,120,2|0,0:0|0:0,0:0:0:0:
392,68,19730,1,0,0:0:0:0:
472,88,19920,2,0,L|464:172,1,60,2|0,0:0|0:0,0:0:0:0:
448,308,20300,1,0,0:0:0:0:
492,232,20489,6,0,P|424:224|356:216,1,120,2|0,0:0|0:0,0:0:0:0:
296,184,21059,2,0,P|310:139|320:112,1,60
399,91,21439,1,2,0:0:0:0:
257,37,21629,1,0,0:0:0:0:
226,119,21818,1,2,0:0:0:0:
341,22,22008,1,0,0:0:0:0:
296,184,22198,6,0,L|305:311,1,120,2|0,0:0|0:0,0:0:0:0:
234,362,22768,1,0,0:0:0:0:
391,240,22958,2,0,L|396:304,2,60,2|0|0,0:0|0:0|0:0,0:0:0:0:
296,184,23527,5,4,2:1:0:0:
256,192,23717,12,8,24857,0:0:0:0:
310,124,25236,6,0,P|261:100|202:127,1,99.0000030212403,6|0,3:2|3:0,0:0:0:0:
204,130,25616,2,0,L|136:121,1,66.0000020141602,8|0,0:0|0:0,0:0:0:0:
59,79,25996,1,0,0:0:0:0:
83,197,26186,2,0,L|13:207,1,66.0000020141602,0|0,3:0|0:0,0:0:0:0:
178,240,26565,6,0,L|191:378,1,132.00000402832,10|0,0:0|3:0,0:0:0:0:
275,364,27135,1,0,0:0:0:0:
262,222,27325,1,8,0:0:0:0:
332,290,27515,1,0,0:0:0:0:
374,115,27705,1,2,3:2:0:0:
262,222,27895,1,10,0:0:0:0:
422,266,28084,1,2,0:0:0:0:
356,202,28274,6,0,L|352:99,1,99.0000030212403,2|0,3:2|3:0,0:0:0:0:
374,115,28654,2,0,L|383:43,1,66.0000020141602,8|0,0:0|0:0,0:0:0:0:
304,8,29034,1,0,0:0:0:0:
240,72,29224,2,0,L|166:67,1,66.0000020141602,0|0,3:0|0:0,0:0:0:0:
100,132,29603,6,0,P|81:96|97:9,1,132.00000402832,10|0,0:0|3:0,0:0:0:0:
174,67,30173,1,0,0:0:0:0:
196,156,30363,2,0,L|186:246,1,66.0000020141602,8|0,0:0|0:0,0:0:0:0:
180,248,30648,1,8,0:0:0:0:
180,248,30743,1,0,3:0:0:0:
276,224,30933,1,10,0:0:0:0:
244,312,31122,1,2,0:0:0:0:
316,136,31312,6,0,P|356:108|412:124,1,99.0000030212403,2|0,3:2|3:0,0:0:0:0:
432,132,31692,2,0,L|440:40,1,66.0000020141602,8|0,0:0|0:0,0:0:0:0:
376,220,32072,2,0,L|381:285,1,66.0000020141602,0|0,0:0|3:0,0:0:0:0:
316,136,32451,1,0,0:0:0:0:
222,176,32641,6,0,L|90:154,1,132.00000402832,10|0,0:0|3:0,0:0:0:0:
68,235,33211,1,0,0:0:0:0:
204,260,33401,1,8,0:0:0:0:
124,312,33591,1,0,0:0:0:0:
128,124,33781,1,2,3:2:0:0:
288,208,33970,1,10,0:0:0:0:
176,216,34160,1,2,0:0:0:0:
236,300,34350,6,0,L|348:288,1,99.0000030212403,2|0,3:2|3:0,0:0:0:0:
352,304,34730,2,0,L|440:312,1,66.0000020141602,8|0,0:0|0:0,0:0:0:0:
480,248,35110,1,2,0:0:0:0:
428,168,35300,2,0,L|436:96,1,66.0000020141602,0|0,3:0|0:0,0:0:0:0:
308,68,35679,6,0,L|316:208,1,132.00000402832,10|0,0:0|3:0,0:0:0:0:
212,360,36249,2,0,P|196:324|208:264,1,99.0000030212403,12|0,0:0|0:0,0:0:0:0:
224,240,36629,1,8,0:0:0:0:
231,207,36723,1,8,0:0:0:0:
231,174,36818,1,2,0:0:0:0:
222,143,36913,1,8,0:0:0:0:
104,200,37103,1,8,0:0:0:0:
104,200,37198,1,8,0:0:0:0:
312,156,37388,5,6,3:2:0:0:
222,143,37578,1,0,0:0:0:0:
332,64,37768,1,8,0:0:0:0:
312,156,37958,1,0,0:0:0:0:
240,52,38148,1,0,0:0:0:0:
400,128,38338,5,2,3:2:0:0:
252,228,38527,1,8,0:0:0:0:
240,52,38717,1,2,0:0:0:0:
364,224,38907,5,2,0:0:0:0:
312,296,39097,1,0,0:0:0:0:
222,143,39287,1,8,0:0:0:0:
252,228,39477,1,0,0:0:0:0:
132,132,39667,1,0,0:0:0:0:
312,156,39857,5,2,3:2:0:0:
200,304,40046,1,8,0:0:0:0:
132,132,40236,1,2,0:0:0:0:
76,256,40426,5,2,0:0:0:0:
164,220,40616,1,0,0:0:0:0:
44,168,40806,1,8,0:0:0:0:
76,256,40996,1,0,0:0:0:0:
252,184,41186,5,0,0:0:0:0:
216,356,41376,1,2,3:2:0:0:
76,256,41565,1,8,0:0:0:0:
272,276,41755,6,0,L|292:136,1,132.00000402832,2|0,3:2|0:0,0:0:0:0:
312,8,42325,1,8,0:0:0:0:
248,68,42515,1,0,0:0:0:0:
376,184,42705,1,10,0:0:0:0:
436,120,42895,1,2,3:2:0:0:
344,104,43084,1,8,0:0:0:0:
344,104,43179,1,8,0:0:0:0:
344,104,43274,1,8,3:0:0:0:
416,264,43464,6,0,L|304:256,1,103.500001974106,6|0,3:2|0:0,0:0:0:0:
296,272,43844,1,8,0:0:0:0:
268,176,44034,1,0,0:0:0:0:
263,159,44128,1,8,0:0:0:0:
258,142,44223,1,0,0:0:0:0:
200,244,44414,1,0,3:0:0:0:
152,92,44603,1,8,0:0:0:0:
258,142,44793,1,0,0:0:0:0:
100,192,44983,6,0,L|28:200,1,69.0000013160706,2|0,3:2|3:0,0:0:0:0:
144,340,45363,2,0,L|216:348,1,69.0000013160706,8|0,0:0|0:0,0:0:0:0:
272,292,45648,1,8,0:0:0:0:
272,292,45743,2,0,L|348:300,1,69.0000013160706,0|0,0:0|3:0,0:0:0:0:
504,336,46122,1,8,0:0:0:0:
408,360,46312,1,0,0:0:0:0:
436,268,46502,6,0,P|444:212|448:188,1,69.0000013160706,2|0,3:2|3:0,0:0:0:0:
496,32,46882,2,0,P|501:66|506:100,1,69.0000013160706,8|0,0:0|0:0,0:0:0:0:
320,148,47262,1,0,0:0:0:0:
415,121,47451,1,0,3:0:0:0:
248,88,47641,1,8,0:0:0:0:
392,212,47831,1,8,0:3:0:0:
340,60,48021,1,0,3:0:0:0:
436,304,48211,6,0,B|328:336|352:256|240:296,1,198.000006042481,12|0,0:0|0:0,0:0:0:0:
84,348,49540,6,0,P|124:348|160:332,1,71.9999978027344,6|0,3:2|3:0,0:0:0:0:
244,188,49920,1,8,0:0:0:0:
148,244,50110,1,0,0:0:0:0:
148,244,50205,1,8,0:0:0:0:
148,244,50300,1,0,0:0:0:0:
244,294,50489,1,0,3:0:0:0:
152,132,50679,2,0,L|160:20,1,107.999996704102,8|8,0:0|0:0,0:0:0:0:
116,8,51059,6,0,P|84:24|48:27,1,71.9999978027344,2|0,3:2|3:0,0:0:0:0:
236,100,51439,2,0,P|276:104|304:120,1,71.9999978027344,8|0,0:0|0:0,0:0:0:0:
388,172,51724,1,8,0:0:0:0:
388,172,51819,2,0,L|396:84,1,71.9999978027344,0|0,0:0|3:0,0:0:0:0:
280,220,52198,2,0,L|288:328,1,107.999996704102,8|0,0:0|0:0,0:0:0:0:
272,352,52578,6,0,L|172:340,1,71.9999978027344,2|0,3:2|3:0,0:0:0:0:
12,304,52958,1,8,0:0:0:0:
128,268,53148,1,0,0:0:0:0:
128,268,53243,1,8,0:0:0:0:
128,268,53338,1,0,0:0:0:0:
104,372,53527,1,2,3:2:0:0:
160,160,53717,1,10,0:0:0:0:
36,196,53907,1,2,0:0:0:0:
216,336,54097,6,0,L|232:256,1,71.9999978027344,2|0,3:2|3:0,0:0:0:0:
332,40,54477,2,0,L|316:136,1,71.9999978027344,8|0,0:0|0:0,0:0:0:0:
360,188,54762,1,8,0:0:0:0:
360,188,54857,2,0,P|400:192|444:172,1,71.9999978027344,0|0,0:0|3:0,0:0:0:0:
224,96,55236,2,0,P|176:88|112:132,1,107.999996704102,8|0,0:0|0:0,0:0:0:0:
112,144,55616,6,0,L|40:132,1,71.9999978027344,2|0,3:2|3:0,0:0:0:0:
8,336,55996,2,0,L|88:324,1,71.9999978027344,8|0,0:0|0:0,0:0:0:0:
112,348,56281,1,8,0:0:0:0:
112,348,56376,1,0,0:0:0:0:
60,240,56565,1,0,3:0:0:0:
224,96,56755,2,0,L|204:232,1,107.999996704102,8|0,0:0|0:0,0:0:0:0:
224,236,57135,6,0,P|280:240|308:220,1,71.9999978027344,2|0,3:2|3:0,0:0:0:0:
444,128,57515,1,8,0:0:0:0:
340,100,57705,1,0,0:0:0:0:
340,100,57800,1,8,0:0:0:0:
340,100,57895,1,0,0:0:0:0:
476,32,58084,1,0,3:0:0:0:
408,232,58274,2,0,L|492:228,1,71.9999978027344,8|0,0:0|0:0,0:0:0:0:
304,184,58654,6,0,P|248:192|188:160,1,107.999996704102,2|0,3:2|0:0,0:0:0:0:
180,136,59034,2,0,L|192:60,1,71.9999978027344,8|0,0:0|0:0,0:0:0:0:
184,36,59319,1,8,0:0:0:0:
184,36,59414,1,0,0:0:0:0:
92,85,59603,1,0,3:0:0:0:
177,243,59793,1,10,0:0:0:0:
272,91,59983,1,2,0:0:0:0:
89,188,60173,5,2,3:2:0:0:
177,243,60363,1,0,3:0:0:0:
272,91,60553,1,8,0:0:0:0:
180,136,60743,1,0,0:0:0:0:
180,136,60838,1,0,0:0:0:0:
180,136,60933,1,2,0:0:0:0:
269,194,61122,1,2,3:2:0:0:
366,53,61312,1,10,0:0:0:0:
366,53,61407,1,8,0:0:0:0:
366,53,61502,1,8,0:3:0:0:
356,256,61692,6,0,L|428:248,1,71.9999978027344,6|0,3:2|3:0,0:0:0:0:
269,194,62072,1,8,0:0:0:0:
172,236,62262,1,0,0:0:0:0:
172,236,62357,1,8,0:0:0:0:
172,236,62451,2,0,P|152:276|151:309,1,71.9999978027344,0|0,0:0|3:0,0:0:0:0:
256,296,62831,1,8,0:0:0:0:
284,104,63021,1,0,0:0:0:0:
184,132,63211,6,0,L|100:124,1,71.9999978027344,2|0,3:2|3:0,0:0:0:0:
240,8,63591,1,8,0:0:0:0:
284,104,63781,1,0,0:0:0:0:
284,104,63876,1,8,0:0:0:0:
284,104,63971,1,0,0:0:0:0:
452,84,64160,2,0,P|410:65|368:72,1,71.9999978027344,0|8,3:0|0:0,0:0:0:0:
364,168,64540,1,0,0:0:0:0:
464,256,64730,6,0,L|468:176,1,71.9999978027344,2|0,3:2|3:0,0:0:0:0:
244,52,65110,2,0,L|252:188,1,107.999996704102,8|8,0:0|0:0,0:0:0:0:
228,184,65489,2,0,P|168:192|132:176,1,71.9999978027344,0|0,0:0|3:0,0:0:0:0:
44,76,65869,1,8,0:0:0:0:
144,64,66059,1,0,0:0:0:0:
56,180,66249,6,0,L|60:256,1,71.9999978027344,2|0,3:2|3:0,0:0:0:0:
152,336,66629,2,0,P|192:340|228:320,1,71.9999978027344,8|0,0:0|0:0,0:0:0:0:
300,296,66914,1,8,0:0:0:0:
300,296,67008,2,0,L|292:368,1,71.9999978027344,0|0,0:0|3:0,0:0:0:0:
256,188,67388,2,0,P|316:152|368:172,1,107.999996704102,8|0,0:0|0:0,0:0:0:0:
376,184,67768,6,0,L|448:176,1,71.9999978027344,2|0,0:2|3:0,0:0:0:0:
376,48,68148,2,0,L|292:60,1,71.9999978027344,8|0,0:0|0:0,0:0:0:0:
280,36,68433,1,8,0:0:0:0:
280,36,68527,1,0,0:0:0:0:
256,188,68717,1,0,3:0:0:0:
76,100,68907,2,0,P|124:72|192:96,1,107.999996704102,8|0,0:0|0:0,0:0:0:0:
196,100,69287,5,2,3:2:0:0:
144,192,69477,1,0,3:0:0:0:
272,284,69667,1,8,0:0:0:0:
256,188,69857,1,0,0:0:0:0:
256,188,69952,1,8,0:0:0:0:
256,188,70046,1,0,0:0:0:0:
356,220,70236,1,0,3:0:0:0:
200,356,70426,2,0,L|112:348,1,71.9999978027344,8|0,0:0|0:0,0:0:0:0:
356,220,70806,6,0,L|344:344,1,107.999996704102,2|0,0:0|0:0,0:0:0:0:
360,356,71186,2,0,P|408:356|436:332,1,71.9999978027344,8|0,0:0|0:0,0:0:0:0:
248,268,71565,2,0,P|216:251|181:255,1,71.9999978027344,0|0,0:0|3:0,0:0:0:0:
48,324,71945,1,10,0:0:0:0:
168,360,72135,1,2,0:0:0:0:
108,152,72325,5,2,3:2:0:0:
140,268,72515,1,2,3:2:0:0:
4,140,72705,1,8,0:0:0:0:
180,80,72895,2,0,L|276:72,1,71.9999978027344,2|0,0:0|3:0,0:0:0:0:
392,0,73274,1,2,3:2:0:0:
408,32,73368,1,0,0:0:0:0:
415,67,73463,1,2,3:2:0:0:
413,103,73558,1,0,0:0:0:0:
403,137,73654,6,0,L|496:144,1,90.0000034332277,2|0,0:0|3:0,0:0:0:0:
480,296,74224,1,2,0:0:0:0:
488,220,74414,1,2,0:0:0:0:
380,216,74603,5,2,0:0:0:0:
304,228,74793,1,2,0:0:0:0:
240,184,74983,1,2,0:0:0:0:
164,200,75173,1,2,0:0:0:0:
224,108,75363,5,2,0:0:0:0:
240,184,75553,1,2,0:0:0:0:
260,260,75743,1,2,0:0:0:0:
284,332,75933,1,2,0:0:0:0:
184,276,76122,5,2,0:0:0:0:
252,242,76311,1,2,0:0:0:0:
328,252,76501,1,2,0:0:0:0:
384,304,76691,1,2,0:0:0:0:
432,372,76882,6,0,L|448:256,1,99.0000030212403,6|0,3:2|3:0,0:0:0:0:
472,256,77262,1,8,0:0:0:0:
421,184,77451,1,2,0:0:0:0:
506,67,77641,2,0,L|496:140,1,66.0000020141602,2|0,0:0|3:0,0:0:0:0:
344,240,78021,1,8,0:0:0:0:
421,184,78211,1,0,0:0:0:0:
320,56,78401,5,2,0:0:0:0:
336,148,78591,1,0,3:0:0:0:
224,72,78781,1,8,0:0:0:0:
320,56,78970,1,0,0:0:0:0:
240,172,79160,6,0,P|184:160|132:152,1,99.0000030212403,2|0,3:2|3:0,0:0:0:0:
120,172,79540,1,8,0:0:0:0:
32,120,79730,1,2,0:0:0:0:
24,216,79920,6,0,P|8:260|12:284,1,66.0000020141602,2|0,0:0|3:0,0:0:0:0:
88,332,80300,1,2,0:0:0:0:
120,172,80489,1,8,0:0:0:0:
160,264,80679,2,0,B|212:260|212:260|240:268|240:268|300:264,1,132.00000402832,2|0,0:0|0:0,0:0:0:0:
375,221,81249,1,8,0:0:0:0:
312,144,81439,6,0,P|276:200|280:248,1,99.0000030212403,2|0,3:2|3:0,0:0:0:0:
290,264,81819,2,0,P|302:300|298:336,1,66.0000020141602,8|2,0:0|0:0,0:0:0:0:
136,320,82198,2,0,L|216:312,1,66.0000020141602,2|0,0:0|3:0,0:0:0:0:
112,224,82578,1,10,0:0:0:0:
44,288,82768,1,0,0:0:0:0:
184,164,82958,6,0,L|180:84,1,66.0000020141602,2|0,0:0|3:0,0:0:0:0:
204,252,83338,1,8,0:0:0:0:
276,192,83527,1,0,0:0:0:0:
379,318,83717,6,0,P|335:322|299:298,1,66.0000020141602,2|0,0:0|0:0,0:0:0:0:
296,288,84002,1,0,3:0:0:0:
296,288,84097,1,8,0:0:0:0:
464,296,84287,1,2,0:0:0:0:
384,228,84477,6,0,L|388:156,1,66.0000020141602,2|0,0:0|3:0,0:0:0:0:
428,84,84857,1,0,0:0:0:0:
308,28,85046,1,10,0:0:0:0:
392,0,85236,1,2,0:0:0:0:
328,136,85426,1,0,3:0:0:0:
472,184,85616,1,8,0:0:0:0:
472,184,85711,1,8,0:0:0:0:
472,184,85806,1,8,0:3:0:0:
428,316,85996,6,0,L|352:296,1,69.0000013160706,6|0,3:2|0:0,0:0:0:0:
220,240,86376,2,0,L|296:232,1,69.0000013160706,8|0,0:0|0:0,0:0:0:0:
104,208,86755,2,0,L|96:288,1,69.0000013160706,0|2,3:0|0:0,0:0:0:0:
188,128,87135,2,0,L|180:48,1,69.0000013160706,10|0,0:0|0:0,0:0:0:0:
324,72,87515,5,2,3:2:0:0:
300,160,87705,1,0,0:0:0:0:
348,240,87895,1,0,3:2:0:0:
300,160,88084,1,2,0:0:0:0:
440,84,88274,6,0,P|392:56|328:72,1,103.500001974106,2|0,3:2|0:0,0:0:0:0:
324,72,88654,2,0,L|332:-4,1,69.0000013160706,8|0,0:0|0:0,0:0:0:0:
248,140,89034,2,0,L|223:67,1,69.0000013160706,0|2,3:0|0:0,0:0:0:0:
208,228,89414,2,0,L|154:173,1,69.0000013160706,8|0,0:0|0:0,0:0:0:0:
212,324,89793,2,0,L|139:296,1,69.0000013160706,2|0,3:2|0:0,0:0:0:0:
300,280,90173,1,0,3:0:0:0:
368,348,90363,1,2,0:0:0:0:
476,192,90553,6,0,L|464:296,1,103.500001974106,2|0,3:2|0:0,0:0:0:0:
456,308,90933,1,8,0:0:0:0:
384,236,91122,1,0,0:0:0:0:
504,100,91312,1,0,3:0:0:0:
476,192,91502,1,2,0:0:0:0:
344,48,91692,1,10,0:0:0:0:
436,32,91882,1,0,0:0:0:0:
308,132,92072,6,0,P|252:116|232:100,1,69.0000013160706,2|0,3:2|0:0,0:0:0:0:
80,60,92451,2,0,P|110:43|144:38,1,69.0000013160706,0|2,3:0|0:0,0:0:0:0:
112,216,92831,5,2,3:2:0:0:
140,132,93021,1,0,0:0:0:0:
80,304,93211,1,8,0:0:0:0:
20,232,93401,1,0,0:0:0:0:
148,368,93591,5,2,3:2:0:0:
112,216,93781,1,2,0:0:0:0:
264,260,93970,1,8,0:0:0:0:
80,304,94160,1,0,0:0:0:0:
264,260,94350,6,0,L|272:368,1,103.500001974106,2|0,3:2|0:0,0:0:0:0:
288,364,94730,1,8,0:0:0:0:
80,304,94920,1,2,0:0:0:0:
80,304,95015,1,8,0:0:0:0:
80,304,95110,5,10,0:0:0:0:
264,260,95300,1,8,0:3:0:0:
160,236,95489,1,8,0:3:0:0:
288,364,95679,1,0,0:0:0:0:
376,300,95869,6,0,L|368:172,1,120,2|0,3:2|0:0,0:0:0:0:
412,100,96439,1,0,3:0:0:0:
280,164,96629,2,0,P|268:112|304:64,1,90,8|8,0:0|0:0,0:0:0:0:
306,67,97008,2,0,L|314:-1,1,60,0|0,0:0|3:0,0:0:0:0:
196,84,97388,1,0,0:0:0:0:
13,49,97578,6,0,P|61:17|129:33,1,120,8|0,0:0|3:0,0:0:0:0:
160,172,98148,1,8,0:0:0:0:
196,84,98338,1,0,0:0:0:0:
128,268,98527,1,0,0:0:0:0:
72,152,98717,1,0,0:0:0:0:
264,224,98907,6,0,B|308:220|308:220|340:232|340:232|396:224,1,120,2|0,3:2|0:0,0:0:0:0:
296,312,99477,1,0,3:0:0:0:
452,160,99667,2,0,P|480:228|468:264,1,90,8|8,0:0|0:0,0:0:0:0:
460,268,100046,1,0,0:0:0:0:
344,140,100236,6,0,B|352:96|352:96|348:60|348:60|356:8,1,120,2|0,3:2|3:0,0:0:0:0:
200,112,100806,2,0,L|272:104,1,60,0|0,0:0|3:0,0:0:0:0:
120,56,101186,1,8,0:0:0:0:
152,192,101376,1,0,3:0:0:0:
20,144,101565,1,8,0:0:0:0:
20,144,101660,1,8,0:0:0:0:
20,144,101755,1,8,0:3:0:0:
152,192,101945,6,0,L|144:260,1,69.0000013160706,6|0,3:2|3:0,0:0:0:0:
304,340,102325,1,8,0:0:0:0:
236,272,102515,1,0,0:0:0:0:
236,272,102610,1,8,0:0:0:0:
236,272,102705,1,0,0:0:0:0:
208,364,102895,1,0,3:0:0:0:
400,316,103084,2,0,L|476:324,1,69.0000013160706,8|0,0:0|0:0,0:0:0:0:
396,180,103464,6,0,P|364:184|328:212,1,69.0000013160706,2|0,3:2|3:0,0:0:0:0:
472,240,103844,1,8,0:0:0:0:
504,148,104034,1,0,0:0:0:0:
504,148,104129,1,8,0:0:0:0:
504,148,104224,2,0,L|508:76,1,69.0000013160706,0|0,0:0|3:0,0:0:0:0:
332,16,104603,2,0,L|328:84,1,69.0000013160706,8|0,0:0|0:0,0:0:0:0:
336,252,104983,5,6,0:0:0:0:
400,172,105173,1,0,3:0:0:0:
268,332,105363,1,8,0:0:0:0:
256,188,105553,1,0,0:0:0:0:
256,188,105648,1,8,0:0:0:0:
256,188,105743,1,0,0:0:0:0:
336,252,105933,1,0,3:0:0:0:
168,136,106122,2,0,L|172:52,1,69.0000013160706,8|0,0:0|3:0,0:0:0:0:
104,20,106407,1,8,0:0:0:0:
96,32,106502,6,0,L|92:92,1,34.5000006580353,8|8,0:3|0:3,0:0:0:0:
24,192,106787,1,0,3:0:0:0:
36,208,106882,6,0,P|112:216|168:304,1,181.500005538941,6|0,3:2|0:0,0:0:0:0:
164,324,108021,5,12,3:2:0:0:
160,344,108115,1,0,3:0:0:0:
244,240,108305,5,12,3:2:0:0:
255,256,108400,1,4,0:0:0:0:
196,144,108590,5,12,3:2:0:0:
215,147,108685,1,0,3:0:0:0:
76,128,108875,5,12,3:2:0:0:
92,116,108970,2,0,L|88:64,1,34.5000006580353,0|0,3:0|0:0,0:0:0:0:
160,24,109161,5,8,0:0:0:0:
198,42,109255,1,8,0:0:0:0:
241,45,109350,1,8,0:0:0:0:
281,30,109445,1,8,0:0:0:0:
313,1,109539,6,0,L|304:124,1,107.999996704102,6|0,3:2|0:0,0:0:0:0:
324,124,109919,1,8,0:0:0:0:
480,64,110109,2,0,P|412:44|388:56,1,71.9999978027344
512,164,110488,1,0,3:0:0:0:
364,216,110679,2,0,L|372:348,1,107.999996704102,8|0,0:0|0:0,0:0:0:0:
400,356,111058,6,0,P|440:356|472:332,1,71.9999978027344,2|0,3:2|3:0,0:0:0:0:
364,216,111438,1,8,0:0:0:0:
268,312,111628,1,0,0:0:0:0:
268,312,111723,1,8,0:0:0:0:
268,312,111818,1,0,0:0:0:0:
364,216,112007,1,0,3:0:0:0:
204,120,112198,2,0,P|180:176|192:236,1,107.999996704102,8|0,0:0|0:0,0:0:0:0:
200,248,112577,6,0,L|120:256,1,71.9999978027344,2|0,3:2|3:0,0:0:0:0:
320,112,112957,2,0,L|396:120,1,71.9999978027344,8|0,0:0|0:0,0:0:0:0:
424,96,113242,1,8,0:0:0:0:
424,96,113337,1,0,0:0:0:0:
344,16,113526,1,0,3:0:0:0:
300,208,113716,1,8,0:0:0:0:
220,148,113906,1,0,0:0:0:0:
272,304,114096,6,0,P|316:308|352:296,1,71.9999978027344,2|0,3:2|3:0,0:0:0:0:
184,240,114476,2,0,L|108:248,1,71.9999978027344,8|0,0:0|0:0,0:0:0:0:
104,328,114761,1,8,0:0:0:0:
104,328,114856,2,0,L|28:336,1,71.9999978027344,0|0,0:0|3:0,0:0:0:0:
4,120,115236,2,0,P|56:104|116:136,1,107.999996704102,8|0,0:0|0:0,0:0:0:0:
128,152,115615,6,0,L|136:72,1,71.9999978027344,2|0,3:2|3:0,0:0:0:0:
264,228,115995,2,0,L|272:308,1,71.9999978027344,8|0,0:0|0:0,0:0:0:0:
256,324,116280,1,8,0:0:0:0:
256,324,116375,1,0,0:0:0:0:
160,252,116564,1,0,3:0:0:0:
300,136,116754,2,0,L|408:152,1,107.999996704102,8|0,0:0|0:0,0:0:0:0:
424,172,117134,6,0,L|496:164,1,71.9999978027344,2|0,3:2|3:0,0:0:0:0:
384,72,117514,1,8,0:0:0:0:
344,240,117704,1,0,0:0:0:0:
344,240,117799,1,8,0:0:0:0:
344,240,117894,1,0,0:0:0:0:
424,172,118083,1,0,3:0:0:0:
256,300,118274,2,0,L|260:376,1,71.9999978027344,8|0,0:0|0:0,0:0:0:0:
236,196,118653,6,0,P|188:172|128:192,1,107.999996704102,2|0,3:2|0:0,0:0:0:0:
128,204,119033,2,0,L|52:212,1,71.9999978027344,8|0,0:0|0:0,0:0:0:0:
28,184,119318,1,8,0:0:0:0:
28,184,119413,1,0,0:0:0:0:
56,284,119602,1,0,0:0:0:0:
100,108,119792,1,10,0:0:0:0:
160,300,119982,1,2,0:0:0:0:
234,175,120172,5,2,3:2:0:0:
128,204,120362,1,0,3:0:0:0:
337,145,120552,1,8,0:0:0:0:
264,280,120742,1,2,0:0:0:0:
205,76,120932,1,2,0:0:0:0:
371,252,121121,1,2,3:2:0:0:
308,48,121311,1,10,0:0:0:0:
459,101,121501,1,8,0:0:0:0:
459,101,121596,1,8,0:0:0:0:
459,101,121691,6,0,L|449:176,1,71.9999978027344,6|0,3:2|3:0,0:0:0:0:
400,357,122071,1,8,0:0:0:0:
483,280,122261,1,0,0:0:0:0:
483,280,122356,1,8,0:0:0:0:
483,280,122451,1,0,0:0:0:0:
371,252,122640,1,0,3:0:0:0:
400,357,122830,1,8,0:0:0:0:
454,133,123020,1,0,0:0:0:0:
256,216,123210,6,0,L|180:211,1,71.9999978027344,2|0,3:2|3:0,0:0:0:0:
340,136,123590,1,8,0:0:0:0:
96,160,123780,1,0,0:0:0:0:
96,160,123875,1,0,3:0:0:0:
96,160,123970,2,0,P|82:201|85:237,1,71.9999978027344,0|0,0:0|3:0,0:0:0:0:
200,120,124349,2,0,L|193:3,1,107.999996704102,8|0,0:0|0:0,0:0:0:0:
232,4,124729,6,0,L|312:11,1,71.9999978027344,2|0,3:2|3:0,0:0:0:0:
434,174,125109,2,0,L|362:167,1,71.9999978027344,8|0,0:0|0:0,0:0:0:0:
336,140,125394,1,8,0:0:0:0:
336,140,125488,1,0,0:0:0:0:
418,74,125678,1,0,3:0:0:0:
268,222,125869,2,0,L|264:297,1,71.9999978027344,8|0,0:0|0:0,0:0:0:0:
109,352,126248,6,0,P|101:314|106:276,1,71.9999978027344,2|0,3:2|3:0,0:0:0:0:
159,192,126628,1,8,0:0:0:0:
92,114,126818,1,0,0:0:0:0:
92,114,126913,1,8,0:0:0:0:
92,114,127008,2,0,L|14:121,1,71.9999978027344,0|0,0:0|3:0,0:0:0:0:
176,38,127387,2,0,P|229:32|283:78,1,107.999996704102,8|0,0:0|0:0,0:0:0:0:
308,80,127767,6,0,L|321:0,1,71.9999978027344,6|0,3:2|3:0,0:0:0:0:
209,155,128147,2,0,L|217:249,1,71.9999978027344,8|0,0:0|0:0,0:0:0:0:
203,253,128432,1,8,0:0:0:0:
203,253,128526,1,0,3:0:0:0:
119,190,128716,1,0,3:0:0:0:
207,349,128907,2,0,L|320:341,1,107.999996704102,8|0,0:0|0:0,0:0:0:0:
353,352,129286,6,0,P|363:317|358:266,1,71.9999978027344,2|0,3:2|3:0,0:0:0:0:
292,106,129666,2,0,P|282:141|287:192,1,71.9999978027344,8|0,0:0|0:0,0:0:0:0:
368,202,129951,1,0,0:0:0:0:
368,202,130046,2,0,L|451:195,1,71.9999978027344,0|0,3:0|3:0,0:0:0:0:
355,41,130425,2,0,P|307:18|229:41,1,107.999996704102,8|0,0:0|0:0,0:0:0:0:
234,44,130805,5,2,3:2:0:0:
220,156,130995,1,0,3:0:0:0:
220,156,131090,1,0,0:0:0:0:
220,156,131185,1,8,0:0:0:0:
198,282,131375,1,0,0:0:0:0:
198,282,131469,1,8,0:0:0:0:
198,282,131564,1,8,0:0:0:0:
102,202,131754,1,8,0:3:0:0:
220,156,131944,1,2,3:2:0:0:
292,359,132134,5,6,3:2:0:0:
314,239,132324,1,0,3:0:0:0:
342,124,132514,1,8,0:0:0:0:
342,124,132609,1,8,0:0:0:0:
342,124,132704,1,0,3:0:0:0:
431,216,132894,5,8,0:0:0:0:
429,232,132989,1,8,0:0:0:0:
426,250,133083,1,10,3:2:0:0:
423,268,133178,1,8,0:0:0:0:
420,286,133273,1,8,0:0:0:0:
418,304,133368,1,8,0:0:0:0:
413,320,133463,5,10,3:2:0:0:
367,348,133557,1,8,0:0:0:0:
314,348,133652,1,8,0:0:0:0:
269,320,133747,1,8,0:0:0:0:
245,272,133843,6,0,L|256:152,1,120,6|8,3:2|0:0,0:0:0:0:
272,52,134413,1,0,0:0:0:0:
184,88,134602,1,0,3:0:0:0:
184,88,134697,1,8,0:0:0:0:
456,32,134982,1,8,0:0:0:0:
368,68,135171,1,0,0:0:0:0:
444,232,135362,6,0,P|464:180|440:112,1,120,2|8,3:2|0:0,0:0:0:0:
348,244,135932,1,8,0:0:0:0:
400,316,136122,2,0,L|392:388,1,60,0|0,3:0|0:0,0:0:0:0:
348,244,136501,1,0,3:0:0:0:
492,316,136691,1,8,0:0:0:0:
348,244,136881,6,0,L|204:228,1,120,2|8,3:2|0:0,0:0:0:0:
128,220,137450,1,0,0:0:0:0:
172,304,137640,1,0,3:0:0:0:
172,304,137735,1,8,0:0:0:0:
120,56,138020,1,8,0:0:0:0:
76,140,138210,1,0,0:0:0:0:
216,180,138400,6,0,P|224:144|216:112,1,60,2|0,3:2|0:0,0:0:0:0:
260,264,138780,2,0,P|291:244|308:215,1,60,8|0,0:0|0:0,0:0:0:0:
164,256,139159,1,0,3:0:0:0:
248,356,139349,1,12,0:0:0:0:
260,264,139539,1,0,0:0:0:0:
68,252,139729,1,12,0:0:0:0:
80,160,139919,6,0,P|116:128|192:140,1,120,2|8,3:2|0:0,0:0:0:0:
272,172,140488,1,0,0:0:0:0:
352,120,140678,1,0,3:0:0:0:
352,120,140773,1,8,0:0:0:0:
248,304,141058,1,8,0:0:0:0:
192,224,141248,1,0,0:0:0:0:
336,252,141438,6,0,L|396:240,1,60,2|0,3:2|0:0,0:0:0:0:
248,304,141818,1,8,0:0:0:0:
192,224,142007,1,8,0:0:0:0:
108,276,142198,2,0,P|100:308|100:340,1,60,0|0,3:0|0:0,0:0:0:0:
192,224,142577,1,0,3:0:0:0:
136,144,142767,1,8,0:0:0:0:
284,44,142957,6,0,L|272:168,1,120,2|8,3:2|0:0,0:0:0:0:
348,220,143526,1,0,0:0:0:0:
480,144,143716,2,0,P|428:116|356:140,1,120,2|0,3:2|3:0,0:0:0:0:
328,312,144286,1,12,0:0:0:0:
465,240,144476,5,2,3:2:0:0:
348,220,144666,1,12,0:0:0:0:
328,312,144856,1,0,3:0:0:0:
465,240,145045,1,12,0:0:0:0:
370,128,145235,1,0,3:0:0:0:
224,172,145425,5,8,0:0:0:0:
179,163,145521,1,8,0:0:0:0:
135,155,145615,1,8,0:3:0:0:
124,166,145709,5,0,3:0:0:0:
116,178,145804,1,0,3:0:0:0:
110,192,145899,1,0,3:0:0:0:
108,208,145995,6,0,L|100:88,1,120,6|8,3:2|0:0,0:0:0:0:
188,347,146754,1,2,3:2:0:0:
211,322,146849,2,0,L|222:243,1,60,8|0,0:0|0:0,0:0:0:0:
244,239,147134,2,0,L|239:177,1,60,8|0,0:0|0:0,0:0:0:0:
319,30,147514,6,0,P|343:93|324:150,1,120,2|10,3:2|0:0,0:0:0:0:
252,93,148083,1,8,0:0:0:0:
325,231,148274,2,0,L|403:222,2,60,0|0|0,3:0|0:0|3:0,0:0:0:0:
239,179,148843,1,8,0:0:0:0:
243,307,149033,6,0,P|188:320|118:281,1,120,2|8,3:2|0:0,0:0:0:0:
75,62,149792,1,2,3:2:0:0:
98,88,149887,2,0,P|117:137|112:162,1,60,8|0,0:0|0:0,0:0:0:0:
93,170,150172,2,0,L|13:160,1,60,8|0,0:0|0:0,0:0:0:0:
211,113,150552,6,0,L|198:240,2,120,2|10|0,3:2|0:0|3:0,0:0:0:0:
319,10,151501,1,12,0:0:0:0:
222,16,151691,1,0,3:0:0:0:
323,131,151881,1,8,0:0:0:0:
393,68,152071,6,0,L|533:60,1,120,2|8,3:2|0:0,0:0:0:0:
352,207,152830,1,2,3:2:0:0:
377,232,152925,2,0,L|458:226,1,60,8|0,0:0|0:0,0:0:0:0:
472,225,153210,2,0,P|485:263|482:296,1,60,8|0,0:0|0:0,0:0:0:0:
361,340,153590,6,0,P|302:308|238:320,1,120,2|10,3:2|0:0,0:0:0:0:
90,357,154159,1,0,0:0:0:0:
178,365,154349,2,0,P|175:332|162:303,1,60,0|8,3:0|0:0,0:0:0:0:
35,253,154729,2,0,P|65:266|96:270,1,60,0|8,3:0|0:0,0:0:0:0:
178,188,155109,6,0,L|162:325,1,120,2|8,3:2|0:0,0:0:0:0:
90,183,155678,1,0,0:0:0:0:
239,111,155868,2,0,B|299:88|295:121|358:94,1,120,2|10,3:2|0:0,0:0:0:0:
312,13,156438,1,0,0:0:0:0:
279,193,156628,6,0,L|273:257,1,60,6|0,3:2|3:0,0:0:0:0:
438,121,157008,2,0,L|444:185,1,60,8|0,0:0|0:0,0:0:0:0:
467,202,157292,1,8,0:0:0:0:
467,202,157387,1,10,0:0:0:0:
512,68,157577,1,0,3:0:0:0:
422,276,157767,2,0,P|463:291|498:283,1,60,8|0,3:3|3:0,0:0:0:0:
344,185,158147,6,0,L|266:195,1,66.0000020141602,6|0,3:2|0:0,0:0:0:0:
231,256,158431,2,0,L|141:267,1,66.0000020141602,2|0,3:2|0:0,0:0:0:0:
106,313,158716,1,2,3:0:0:0:
117,145,158906,1,8,0:0:0:0:
51,217,159096,1,0,0:0:0:0:
184,346,159286,6,0,L|252:338,1,66.0000020141602,6|8,3:2|0:0,0:0:0:0:
269,362,159571,1,0,3:0:0:0:
368,236,159760,1,8,0:0:0:0:
349,259,159855,1,0,3:0:0:0:
211,153,160046,5,8,0:0:0:0:
220,166,160140,1,8,0:0:0:0:
228,180,160236,2,0,L|227:239,1,33.0000010070801,8|0,0:3|0:0,0:0:0:0:
215,58,160426,6,0,P|185:60|144:86,1,66.0000020141602,6|0,3:2|0:0,0:0:0:0:
69,83,160711,1,0,3:0:0:0:
69,83,160806,2,0,P|53:108|51:157,1,66.0000020141602,0|2,0:0|3:2,0:0:0:0:
119,278,161184,1,8,0:0:0:0:
135,190,161374,1,0,0:0:0:0:
102,364,161562,6,0,L|173:358,1,66.0000020141602,10|0,3:2|3:0,0:0:0:0:
358,280,161941,2,0,P|321:276|292:291,1,66.0000020141602,12|2,0:0|3:2,0:0:0:0:
213,280,162226,1,8,0:0:0:0:
213,280,162321,2,0,L|218:236,1,33.0000010070801,8|8,0:0|0:0,0:0:0:0:
296,193,162511,2,0,L|299:160,1,33.0000010070801,0|0,3:0|0:0,0:0:0:0:
403,104,162701,5,2,3:2:0:0:
418,108,162797,1,2,3:2:0:0:
418,125,162892,1,2,3:2:0:0:
403,130,162986,1,2,3:2:0:0:
391,115,163082,6,0,L|400:36,1,66.0000020141602,6|0,3:2|0:0,0:0:0:0:
331,14,163366,2,0,L|293:10,1,33.0000010070801,2|2,0:0|0:0,0:0:0:0:
494,45,163651,1,2,3:2:0:0:
304,124,163841,2,0,L|208:114,1,66.0000020141602,8|0,0:0|0:0,0:0:0:0:
180,64,164126,1,0,0:0:0:0:
180,64,164221,6,0,P|159:113|160:132,1,66.0000020141602,6|8,3:2|0:0,0:0:0:0:
206,193,164506,1,4,0:0:0:0:
104,275,164696,5,8,0:0:0:0:
104,275,164791,2,0,L|60:268,1,33.0000010070801,10|8,3:2|0:0,0:0:0:0:
193,287,164981,5,8,0:0:0:0:
225,286,165075,1,0,3:0:0:0:
256,298,165170,1,0,3:0:0:0:
279,321,165265,1,0,3:0:0:0:
291,351,165358,6,0,P|295:273|304:212,1,132.00000402832,6|0,3:2|0:0,0:0:0:0:
324,124,165927,1,0,3:0:0:0:
512,189,166117,2,0,B|461:185|461:185|427:197|427:197|373:187,1,132.00000402832,8|0,0:0|0:0,0:0:0:0:
471,272,166687,1,0,3:0:0:0:
409,112,166876,6,0,L|420:32,1,66.0000020141602,2|0,3:2|0:0,0:0:0:0:
285,191,167256,2,0,L|262:113,1,66.0000020141602,0|0,0:0|3:0,0:0:0:0:
184,304,167636,2,0,L|109:199,2,99.0000030212403,8|8|8,0:0|0:3|0:3,0:0:0:0:
256,192,169914,12,0,171623,0:0:0:0:
229,283,171813,6,0,L|232:316,3,33.0000010070801,2|2|2|2,0:0|0:0|0:0|0:0,0:0:0:0:
296,216,172193,6,0,P|244:192|156:224,1,132.00000402832,6|8,3:2|0:0,0:0:0:0:
136,364,172763,1,0,0:0:0:0:
136,364,172858,1,8,0:0:0:0:
136,364,172953,1,0,0:0:0:0:
44,304,173143,1,0,3:0:0:0:
173,208,173333,2,0,L|165:80,1,112.5,8|0,0:0|0:0,0:0:0:0:
192,72,173712,6,0,P|232:56|272:64,1,75,2|0,3:2|3:0,0:0:0:0:
400,176,174092,2,0,P|363:179|329:164,1,75,8|0,0:0|0:0,0:0:0:0:
348,80,174377,1,8,0:0:0:0:
348,80,174472,2,0,L|344:-8,1,75,0|0,0:0|3:0,0:0:0:0:
496,144,174852,2,0,L|488:264,1,112.5,8|0,0:0|0:0,0:0:0:0:
472,280,175231,6,0,L|388:272,1,75,2|0,3:2|3:0,0:0:0:0:
208,256,175611,1,8,0:0:0:0:
312,212,175801,1,0,0:0:0:0:
312,212,175896,1,8,0:0:0:0:
312,212,175991,1,0,0:0:0:0:
300,320,176181,1,0,3:0:0:0:
328,104,176371,1,8,0:0:0:0:
420,172,176561,1,0,0:0:0:0:
224,136,176750,6,0,L|148:124,1,75,2|0,3:2|3:0,0:0:0:0:
20,200,177130,2,0,P|8:264|12:284,1,75,8|0,0:0|0:0,0:0:0:0:
32,296,177415,1,8,0:0:0:0:
32,296,177510,1,0,0:0:0:0:
62,110,177700,1,0,3:0:0:0:
88,372,177890,2,0,B|124:364|124:364|160:376|160:376|228:364,1,112.5,8|0,0:0|0:0,0:0:0:0:
224,356,178269,6,0,L|216:268,1,75,2|0,3:2|3:0,0:0:0:0:
344,104,178649,2,0,L|336:192,1,75,8|0,0:0|0:0,0:0:0:0:
396,240,178934,1,8,0:0:0:0:
396,240,179029,2,0,P|452:240|480:220,1,75,0|0,0:0|3:0,0:0:0:0:
236,44,179409,2,0,L|244:184,1,112.5,8|0,0:0|0:0,0:0:0:0:
228,180,179788,6,0,P|176:184|144:164,1,75,2|0,3:2|3:0,0:0:0:0:
16,24,180168,2,0,P|51:11|87:18,1,75,8|0,0:0|0:0,0:0:0:0:
56,96,180453,1,8,0:0:0:0:
56,96,180548,2,0,L|44:188,1,75,0|0,0:0|3:0,0:0:0:0:
116,316,180928,2,0,P|164:320|200:300,1,75,8|0,0:0|0:0,0:0:0:0:
396,192,181307,6,0,P|408:252|412:324,1,112.5,2|0,3:2|0:0,0:0:0:0:
392,324,181687,2,0,P|352:316|312:312,1,75,8|0,0:0|0:0,0:0:0:0:
296,328,181972,1,0,0:0:0:0:
296,328,182067,1,0,0:0:0:0:
248,224,182257,1,0,3:0:0:0:
424,72,182447,1,10,0:0:0:0:
396,192,182637,1,2,0:0:0:0:
288,24,182826,5,2,3:2:0:0:
308,128,183016,1,0,3:0:0:0:
424,72,183206,1,8,0:0:0:0:
248,224,183396,1,0,0:0:0:0:
248,224,183491,1,0,0:0:0:0:
248,224,183586,1,2,3:2:0:0:
188,116,183776,1,10,0:0:0:0:
342,293,183966,1,10,0:0:0:0:
342,293,184061,1,8,0:0:0:0:
342,293,184156,1,8,0:3:0:0:
118,252,184345,6,0,P|110:216|122:168,1,75,6|0,3:2|3:0,0:0:0:0:
189,324,184725,1,8,0:0:0:0:
111,380,184915,1,0,0:0:0:0:
111,380,185010,1,8,0:0:0:0:
111,380,185105,2,0,L|19:364,1,75,0|0,0:0|3:0,0:0:0:0:
227,229,185485,2,0,P|283:229|339:281,1,112.5,8|0,0:0|0:0,0:0:0:0:
342,293,185864,6,0,L|426:285,1,75,2|0,3:2|3:0,0:0:0:0:
492,168,186244,1,8,0:0:0:0:
410,113,186434,1,0,0:0:0:0:
410,113,186529,1,8,0:0:0:0:
410,113,186624,2,0,P|396:152|394:189,1,75,0|0,0:0|3:0,0:0:0:0:
416,285,187004,1,8,0:0:0:0:
492,168,187194,1,0,0:0:0:0:
309,100,187383,6,0,L|225:108,1,75,2|0,3:2|3:0,0:0:0:0:
76,56,187763,2,0,P|56:116|64:152,1,75,8|0,0:0|0:0,0:0:0:0:
124,180,188048,1,8,0:0:0:0:
124,180,188143,2,0,P|140:213|143:250,1,75,0|0,0:0|3:0,0:0:0:0:
36,340,188523,1,8,0:0:0:0:
44,240,188712,1,0,0:0:0:0:
136,356,188902,6,0,L|216:348,1,75,2|0,3:2|3:0,0:0:0:0:
357,254,189282,1,8,0:0:0:0:
247,248,189472,1,0,0:0:0:0:
247,248,189567,1,8,0:0:0:0:
247,248,189662,1,0,0:0:0:0:
325,354,189852,1,0,0:0:0:0:
356,149,190042,2,0,L|352:33,1,112.5,8|0,0:0|0:0,0:0:0:0:
376,12,190421,6,0,P|428:24|472:24,1,75,2|0,3:2|3:0,0:0:0:0:
256,116,190801,2,0,P|218:119|182:129,1,75,8|0,0:0|0:0,0:0:0:0:
92,160,191086,1,8,0:0:0:0:
92,160,191181,2,0,P|93:120|100:80,1,75,0|0,0:0|3:0,0:0:0:0:
224,208,191561,2,0,P|236:272|236:336,1,112.5,8|0,0:0|0:0,0:0:0:0:
208,336,191940,6,0,P|160:328|120:324,1,75,2|0,3:2|3:0,0:0:0:0:
320,276,192320,2,0,P|368:284|408:288,1,75,8|0,0:0|0:0,0:0:0:0:
464,232,192605,1,8,0:0:0:0:
464,232,192700,2,0,P|480:280|488:312,1,75,0|0,0:0|3:0,0:0:0:0:
340,176,193080,2,0,L|352:88,1,75,8|0,0:0|0:0,0:0:0:0:
204,28,193459,6,0,L|216:156,1,112.5,2|0,3:2|0:0,0:0:0:0:
192,164,193839,2,0,P|152:168|100:140,1,75,8|0,0:0|0:0,0:0:0:0:
304,20,194219,2,0,P|339:8|376:12,1,75,0|0,0:0|3:0,0:0:0:0:
452,180,194599,1,10,0:0:0:0:
484,68,194788,1,2,0:0:0:0:
424,296,194978,5,2,3:2:0:0:
292,148,195168,1,2,3:2:0:0:
452,180,195358,1,8,0:0:0:0:
272,264,195548,1,2,0:0:0:0:
272,264,195643,1,8,0:0:0:0:
272,264,195738,1,0,3:0:0:0:
412,372,195928,1,10,0:0:0:0:
412,372,196023,1,8,0:0:0:0:
412,372,196118,6,0,P|420:324|408:272,1,90,8|0,3:0|0:0,0:0:0:0:
380,264,196497,6,0,P|372:224|384:172,1,71.9999978027344,6|0,0:0|3:0,0:0:0:0:
472,84,196877,2,0,B|436:88|436:88|400:76|400:76|340:84,1,107.999996704102,10|8,0:0|0:0,0:0:0:0:
340,76,197257,2,0,L|348:-4,1,71.9999978027344,0|0,0:0|3:0,0:0:0:0:
288,160,197637,1,10,0:0:0:0:
196,112,197826,1,2,0:0:0:0:
196,112,197921,1,8,0:0:0:0:
196,112,198016,6,0,P|148:104|116:112,1,71.9999978027344,2|2,3:2|3:2,0:0:0:0:
44,264,198396,2,0,L|52:180,1,71.9999978027344,10|0,0:0|0:0,0:0:0:0:
132,248,198681,1,8,0:0:0:0:
132,248,198776,2,0,L|124:332,1,71.9999978027344,0|0,0:0|3:2,0:0:0:0:
232,216,199156,1,10,0:0:0:0:
320,268,199345,1,2,0:0:0:0:
320,268,199440,1,8,0:0:0:0:
320,268,199535,6,0,P|384:280|456:240,1,143.999995605469,2|10,3:2|0:0,0:0:0:0:
444,96,200105,1,0,0:0:0:0:
444,96,200200,1,8,0:0:0:0:
444,96,200295,1,8,0:0:0:0:
512,168,200485,1,2,3:2:0:0:
348,132,200675,1,8,0:0:0:0:
444,96,200864,6,0,L|460:8,1,71.9999978027344,2|2,0:0|3:2,0:0:0:0:
424,192,201244,1,2,3:2:0:0:
276,56,201434,1,8,0:0:0:0:
444,96,201624,1,8,0:0:0:0:
256,148,201814,1,0,0:0:0:0:
256,148,201909,1,8,0:0:0:0:
256,148,202004,1,2,3:2:0:0:
376,12,202194,1,10,0:0:0:0:
328,224,202383,1,0,0:0:0:0:
328,224,202478,1,8,0:0:0:0:
328,224,202573,6,0,L|336:304,1,71.9999978027344,6|0,3:2|3:0,0:0:0:0:
452,368,202953,2,0,L|459:296,1,71.9999978027344,10|0,0:0|0:0,0:0:0:0:
428,220,203238,1,8,0:0:0:0:
428,220,203333,2,0,P|480:212|516:232,1,71.9999978027344,2|0,0:0|3:0,0:0:0:0:
320,132,203712,2,0,P|268:140|232:120,1,71.9999978027344,10|0,0:0|0:0,0:0:0:0:
184,76,203997,1,2,0:0:0:0:
184,76,204092,6,0,L|192:-4,1,71.9999978027344,2|0,3:2|3:0,0:0:0:0:
88,92,204472,1,10,0:0:0:0:
164,172,204662,1,2,0:0:0:0:
164,172,204757,1,8,0:0:0:0:
164,172,204852,1,2,0:0:0:0:
56,192,205042,1,0,3:0:0:0:
188,276,205231,1,8,0:0:0:0:
164,172,205421,1,0,0:0:0:0:
80,300,205611,6,0,P|76:344|76:376,1,71.9999978027344,2|0,3:2|3:0,0:0:0:0:
268,203,205991,1,10,0:0:0:0:
240,104,206181,1,10,0:0:0:0:
164,172,206371,1,2,0:0:0:0:
164,172,206466,1,8,0:0:0:0:
164,172,206561,1,0,3:0:0:0:
323,40,206750,2,0,L|396:34,1,71.9999978027344,10|2,0:0|0:0,0:0:0:0:
475,72,207035,1,8,0:0:0:0:
475,72,207130,6,0,P|487:112|483:144,1,71.9999978027344,2|0,3:2|3:0,0:0:0:0:
310,210,207510,1,8,0:0:0:0:
394,158,207700,1,2,0:0:0:0:
210,226,207890,1,2,0:0:0:0:
344,332,208080,1,10,0:0:0:0:
345,314,208174,1,8,0:0:0:0:
347,296,208269,1,2,3:2:0:0:
256,136,208459,1,10,0:0:0:0:
254,118,208554,1,8,0:0:0:0:
252,96,208649,6,0,B|200:80|200:80|164:92|164:92|104:72,1,143.999995605469,6|8,3:2|3:2,0:0:0:0:
72,164,209219,1,2,0:0:0:0:
72,164,209314,1,8,0:0:0:0:
72,164,209409,2,0,L|76:244,1,71.9999978027344,2|2,3:2|0:0,0:0:0:0:
46,357,209788,1,8,0:0:0:0:
81,360,209882,1,8,0:0:0:0:
117,363,209977,1,0,3:0:0:0:
153,367,210072,1,0,3:0:0:0:
183,346,210168,6,0,B|176:292|176:292|188:256|188:256|180:184,1,143.999995605469,6|8,3:2|3:2,0:0:0:0:
240,128,210738,1,2,0:0:0:0:
352,220,210928,2,0,L|276:216,1,71.9999978027344,0|2,3:0|0:0,0:0:0:0:
144,112,211307,1,8,3:2:0:0:
292,48,211497,1,10,0:0:0:0:
182,204,211687,6,0,P|112:212|56:152,1,143.999995605469,6|8,3:2|3:2,0:0:0:0:
47,61,212257,1,2,0:0:0:0:
44,43,212351,1,8,0:0:0:0:
42,25,212447,1,0,3:0:0:0:
164,59,212637,1,2,0:0:0:0:
161,77,212731,1,8,0:0:0:0:
159,95,212826,5,8,0:0:0:0:
178,122,212920,1,8,0:0:0:0:
200,150,213015,1,2,3:2:0:0:
221,179,213110,1,0,3:0:0:0:
243,208,213206,6,0,P|295:191|326:156,1,71.9999978027344,6|0,0:0|0:0,0:0:0:0:
482,113,213586,2,0,L|357:102,1,107.999996704102,10|0,3:2|0:0,0:0:0:0:
350,83,213966,1,0,3:0:0:0:
387,196,214156,1,10,0:0:0:0:
415,4,214345,1,2,3:2:0:0:
236,58,214535,1,10,0:0:0:0:
387,196,214725,6,0,L|469:188,1,71.9999978027344,6|2,3:2|0:0,0:0:0:0:
496,327,215105,2,0,L|414:335,1,71.9999978027344,10|0,0:0|0:0,0:0:0:0:
224,327,215485,1,0,3:0:0:0:
330,359,215675,1,2,0:0:0:0:
116,345,215864,1,8,0:0:0:0:
119,309,215958,1,2,3:2:0:0:
122,273,216053,1,8,0:3:0:0:
125,237,216148,1,2,3:2:0:0:
108,206,216244,6,0,L|-21:195,1,107.999996704102,6|0,3:2|0:0,0:0:0:0:
16,176,216624,2,0,L|24:77,1,71.9999978027344,8|2,0:0|0:0,0:0:0:0:
144,112,217004,1,2,3:2:0:0:
125,237,217194,1,10,0:0:0:0:
252,92,217383,1,2,3:2:0:0:
64,44,217573,1,10,0:0:0:0:
236,204,217763,6,0,P|293:200|314:182,1,71.9999978027344,6|2,3:2|3:2,0:0:0:0:
400,16,218143,2,0,P|343:20|322:38,1,71.9999978027344,8|0,0:0|0:0,0:0:0:0:
438,229,218523,1,8,0:0:0:0:
443,193,218617,1,8,0:0:0:0:
448,157,218712,1,8,0:0:0:0:
453,122,218807,1,8,0:0:0:0:
458,86,218902,2,8,L|514:98,1,35.9999989013672
431,263,219092,5,4,3:1:0:0:
