osu file format v14

[General]
AudioFilename: audio.mp3
AudioLeadIn: 0
PreviewTime: 97717
Countdown: 0
SampleSet: Normal
StackLeniency: 0.7
Mode: 0
LetterboxInBreaks: 0
WidescreenStoryboard: 0

[Editor]
DistanceSpacing: 4
BeatDivisor: 4
GridSize: 4
TimelineZoom: 1

[Metadata]
Title:Otchim
TitleUnicode:Отчим
Artist:School 134
ArtistUnicode:Школа 134
Creator:Scattered Faith
Version:Collab with my schizophrenia
Source:
Tags:school skola shkola number 134 otcim ot4im OT4UM школа 134 отчим brawl stars el primo saftoreal
BeatmapID:3858338
BeatmapSetID:1874919

[Difficulty]
HPDrainRate:3
CircleSize:4
OverallDifficulty:8.5
ApproachRate:9.6
SliderMultiplier:1.4
SliderTickRate:1

[Events]
//Background and Video events
0,0,"JhBqcK49gkc.jpg",0,0
//Break Periods
//Storyboard Layer 0 (Background)
//Storyboard Layer 1 (Fail)
//Storyboard Layer 2 (Pass)
//Storyboard Layer 3 (Foreground)
//Storyboard Layer 4 (Overlay)
//Storyboard Sound Samples

[TimingPoints]
109,434.782608695652,4,1,0,80,1,0
1630,-133.333333333333,4,1,0,80,0,0
2826,-100,4,1,0,80,0,0
3043,-100,4,1,0,80,0,0
42174,-25,4,1,0,80,0,0
44239,-33.3333333333333,4,1,0,80,0,0
45217,-25,4,1,0,80,0,0
45869,-33.3333333333333,4,1,0,80,0,0
47826,-50,4,1,0,80,0,0
48261,-25,4,1,0,80,0,0
51304,-33.3333333333333,4,1,0,80,0,0
51522,-33.3333333333333,4,1,0,80,0,0
52174,-25,4,1,0,80,0,0
53913,-33.3333333333333,4,1,0,80,0,0
55652,-25,4,1,0,80,0,0
56304,-66.6666666666667,4,1,0,80,0,0
58478,-25,4,1,0,80,0,0
59782,-66.6666666666667,4,1,0,80,0,0
62174,-25,4,1,0,80,0,0
62391,-16.6666666666667,4,1,0,80,0,0
62608,-25,4,1,0,80,0,0
63261,-66.6666666666667,4,1,0,80,0,0
65435,-25,4,1,0,80,0,0
66848,-66.6666666666667,4,1,0,80,0,0
68587,-25,4,1,0,80,0,0
68804,-33.3333333333333,4,1,0,80,0,0
69239,-50,4,1,0,80,0,0
70543,-15.3846153846154,4,1,0,80,0,0
72935,-100,4,1,0,80,0,0
84022,-25,4,1,0,80,0,0
84456,-50,4,1,0,80,0,0
125761,-90.9090909090909,4,1,0,80,0,0
127500,-80,4,1,0,80,0,0
132717,-68.9655172413793,4,1,0,80,0,0
137500,-50,4,1,0,80,0,0
167500,-71.4285714285714,4,1,0,80,0,0

[HitObjects]
375,154,109,6,0,P|370:109|354:76,1,70
132,166,543,2,0,P|126:213|142:249,1,70
281,223,978,1,0,0:0:0:0:
358,127,1195,1,0,0:0:0:0:
160,125,1413,1,0,0:0:0:0:
268,330,1630,6,0,B|212:243|306:182|264:93,1,236.250009012223
377,242,2826,6,0,B|372:205|372:205|384:181|384:181|378:137,1,105,6|0,1:2|1:2,0:2:0:0:
383,147,3261,1,0,1:2:0:0:
383,147,3369,1,8,0:2:0:0:
148,74,3587,5,8,0:2:0:0:
176,199,3804,5,8,0:2:0:0:
290,237,4022,5,8,0:3:0:0:
371,178,4239,5,4,0:3:0:0:
382,91,4456,5,4,0:3:0:0:
512,204,4674,6,0,B|522:163|522:163|511:117,1,70,4|0,1:1|0:2,0:2:0:0:
166,144,5108,1,0,0:2:0:0:
126,247,5326,1,0,0:2:0:0:
300,217,5543,5,0,0:2:0:0:
264,100,5761,1,2,1:2:0:0:
228,265,5978,1,0,1:2:0:0:
342,337,6196,1,8,0:2:0:0:
264,100,6413,2,0,P|173:97|123:130,1,140
396,117,7065,6,0,L|392:212,1,70,2|0,0:0|0:0,0:0:0:0:
400,200,7391,5,0,0:0:0:0:
404,212,7500,6,0,L|396:292,1,70
308,176,7935,2,0,L|314:94,1,70
496,240,8369,6,0,L|486:338,1,70,2|0,0:0|0:0,0:0:0:0:
216,144,8804,2,0,L|223:47,1,70,8|0,0:0|0:0,0:0:0:0:
272,268,9239,5,6,0:0:0:0:
180,244,9456,1,0,0:0:0:0:
308,360,9674,2,0,L|391:354,1,70,2|0,0:0|0:0,0:0:0:0:
96,320,10108,1,8,0:0:0:0:
44,180,10326,5,0,0:0:0:0:
236,52,10543,1,2,0:0:0:0:
216,144,10761,1,0,0:0:0:0:
40,72,10978,6,0,L|115:71,1,70,2|0,0:0|0:0,0:0:0:0:
352,40,11413,1,2,0:0:0:0:
284,248,11630,1,0,0:0:0:0:
216,144,11848,2,0,L|309:136,1,70,8|0,0:0|0:0,0:0:0:0:
464,224,12282,2,0,L|388:232,1,70,2|0,0:0|0:0,0:0:0:0:
148,352,12717,6,0,P|144:304|83:208,1,140,6|2,0:0|0:0,0:0:0:0:
124,124,13369,1,0,0:0:0:0:
52,312,13587,1,8,0:0:0:0:
108,32,13804,5,0,0:0:0:0:
252,272,14022,1,2,0:0:0:0:
32,92,14239,1,0,0:0:0:0:
476,49,14456,6,4,L|462:144,1,70,4|0,0:0|0:0,0:0:0:0:
400,208,14891,2,0,P|408:264|437:291,1,70,2|0,0:0|0:0,0:0:0:0:
476,220,15326,1,0,0:0:0:0:
428,364,15543,2,2,P|380:344|350:312,1,70,2|0,0:0|0:0,0:0:0:0:
324,240,15978,2,2,P|324:188|338:152,2,70,0|2|0,0:0|0:0|0:0,0:0:0:0:
268,300,16630,1,0,0:0:0:0:
204,348,16848,6,0,L|109:337,1,70,2|0,0:0|0:0,0:0:0:0:
49,247,17282,2,0,L|122:253,1,70,2|0,0:0|0:0,0:0:0:0:
228,118,17717,2,0,L|155:133,1,70,2|0,0:0|0:0,0:0:0:0:
40,69,18152,2,0,L|140:45,1,70,2|0,0:0|0:0,0:0:0:0:
264,176,18587,2,0,L|165:199,2,70,2|2|0,0:0|0:0|0:0,0:0:0:0:
344,188,19239,1,0,0:0:0:0:
412,228,19456,6,0,P|432:272|427:308,1,70,2|0,0:0|0:0,0:0:0:0:
412,152,19891,2,0,P|392:108|399:65,2,70,0|2|0,0:0|0:0|0:0,0:0:0:0:
480,192,20543,1,0,0:0:0:0:
480,192,20761,1,0,0:0:0:0:
344,188,20978,2,0,L|303:253,1,70,0|2,0:0|0:0,0:0:0:0:
324,312,21412,1,0,0:0:0:0:
244,224,21630,2,0,P|204:192|160:193,1,70,2|0,0:0|0:0,0:0:0:0:
180,272,22065,1,0,0:0:0:0:
124,328,22282,6,0,B|98:309|98:309|90:254,1,70,2|0,0:0|0:0,0:0:0:0:
16,96,22717,2,0,B|44:116|44:116|41:169,2,70,2|0|2,0:0|0:0|0:0,0:0:0:0:
64,32,23369,1,0,0:0:0:0:
128,66,23587,2,0,L|206:55,1,70,0|2,0:0|0:0,0:0:0:0:
256,168,24022,1,0,0:0:0:0:
376,64,24239,2,0,L|295:48,1,70,2|0,0:0|0:0,0:0:0:0:
256,168,24674,2,0,L|255:264,1,70,0|4,0:0|0:0,0:0:0:0:
404,328,25108,5,0,0:0:0:0:
404,328,25326,2,0,P|405:269|388:232,2,70,2|0|2,0:0|0:0|0:0,0:0:0:0:
108,56,25978,1,0,0:0:0:0:
108,56,26195,2,0,P|108:128|116:146,1,70,2|2,0:0|0:0,0:0:0:0:
192,192,26630,1,0,0:0:0:0:
138,253,26848,2,0,L|84:304,1,70
269,167,27282,6,2,B|312:180|312:180|360:164,1,70,2|0,0:0|0:0,0:0:0:0:
480,60,27717,2,2,B|444:46|444:46|403:50,1,70,2|0,0:0|0:0,0:0:0:0:
440,152,28152,5,0,1:0:0:0:
320,64,28370,1,0,0:0:0:0:
72,232,28587,1,2,0:0:0:0:
288,256,28804,5,0,1:0:0:0:
320,160,29021,1,0,0:0:0:0:
224,128,29238,1,2,0:0:0:0:
192,224,29456,1,0,0:0:0:0:
288,352,29673,5,0,1:0:0:0:
384,256,29891,1,0,0:0:0:0:
224,32,30108,1,2,0:0:0:0:
128,128,30325,1,0,0:0:0:0:
272,208,30543,5,0,1:0:0:0:
272,176,30760,1,0,0:0:0:0:
240,176,30978,1,2,0:0:0:0:
240,208,31195,1,0,0:0:0:0:
368,304,31412,5,0,1:0:0:0:
480,192,31630,1,0,0:0:0:0:
448,64,31847,1,2,0:0:0:0:
480,192,32065,1,0,0:0:0:0:
368,304,32282,5,0,1:0:0:0:
224,256,32499,1,0,0:0:0:0:
96,352,32717,1,2,0:0:0:0:
224,256,32934,1,0,0:0:0:0:
368,304,33152,5,0,1:0:0:0:
416,256,33369,1,0,0:0:0:0:
480,256,33586,1,2,0:0:0:0:
416,256,33804,1,0,0:0:0:0:
368,304,34021,5,0,1:0:0:0:
312,320,34238,1,0,0:0:0:0:
256,304,34456,1,2,0:0:0:0:
312,320,34673,1,0,1:0:0:0:
368,304,34891,5,0,1:0:0:0:
288,192,35108,1,0,0:0:0:0:
480,160,35325,1,2,0:0:0:0:
400,48,35543,1,0,0:0:0:0:
96,144,35760,5,0,1:0:0:0:
176,128,35978,1,0,0:0:0:0:
256,112,36195,1,2,0:0:0:0:
336,96,36412,1,0,0:0:0:0:
128,48,36630,5,0,1:0:0:0:
80,240,36847,1,0,0:0:0:0:
160,352,37065,1,2,0:0:0:0:
208,160,37282,1,0,0:0:0:0:
432,288,37499,5,0,1:0:0:0:
352,272,37717,1,0,0:0:0:0:
272,256,37934,1,2,0:0:0:0:
192,240,38152,1,0,0:0:0:0:
416,192,38369,5,0,1:0:0:0:
258,95,38587,1,0,0:0:0:0:
95,210,38804,1,0,0:0:0:0:
253,106,39022,1,0,0:0:0:0:
367,258,39239,1,0,0:0:0:0:
244,133,39456,1,0,0:0:0:0:
166,323,39674,1,0,0:0:0:0:
266,154,39891,1,0,0:0:0:0:
341,357,40108,1,0,0:0:0:0:
177,97,41195,5,0,0:0:0:0:
177,97,41413,1,0,0:0:0:0:
310,249,41848,6,0,P|255:256|235:274,1,70
290,341,42282,5,0,0:0:0:0:
368,325,42391,1,0,0:0:0:0:
437,293,42500,1,0,0:0:0:0:
479,230,42609,1,0,0:0:0:0:
491,162,42717,5,6,44:2:0:0:
482,187,42826,1,0,41:0:0:0:
499,179,42935,1,0,41:2:0:0:
473,170,43044,1,0,41:0:0:0:
395,194,43151,5,10,0:0:0:0:
367,239,43261,1,0,41:0:0:0:
403,230,43369,1,0,41:2:0:0:
358,202,43479,1,0,41:0:0:0:
280,201,43586,5,2,44:2:0:0:
224,249,43696,1,0,41:0:0:0:
276,252,43804,1,0,41:2:0:0:
228,196,43914,1,0,41:0:0:0:
152,171,44021,5,10,0:0:0:0:
52,201,44131,1,0,41:0:0:0:
117,235,44239,1,0,41:0:0:0:
87,136,44349,1,0,41:0:0:0:
19,274,44456,6,0,P|57:291|83:312,2,66.6666666666667,6|0|0,3:2|0:0|0:0,0:0:0:0:
206,104,44674,2,0,P|145:81|100:43,1,100,2|0,1:2|1:0,0:0:0:0:
188,291,44891,5,10,0:0:0:0:
265,316,44999,1,0,41:2:0:0:
312,251,45108,1,0,41:2:0:0:
265,186,45217,1,0,41:2:0:0:
188,211,45326,6,0,B|255:194|362:188|295:289|400:285|485:252,1,315.000012016297,6|0,3:2|1:0,0:0:0:0:
394,158,45652,1,0,41:0:0:0:
394,158,45761,2,0,P|320:228|261:322,1,206.250001966953,10|0,1:2|0:0,0:0:0:0:
334,367,45978,6,0,B|371:387|398:360|398:360|367:356|343:346,1,125,6|0,1:2|0:0,0:0:0:0:
46,274,46196,5,6,44:2:0:0:
63,295,46305,1,0,41:0:0:0:
44,293,46412,1,0,41:0:0:0:
65,276,46522,1,0,41:0:0:0:
140,262,46631,5,10,0:2:0:0:
189,282,46740,1,0,41:0:0:0:
154,296,46847,1,0,41:0:0:0:
174,247,46957,1,0,41:2:0:0:
241,208,47065,5,2,44:2:0:0:
313,204,47175,1,0,41:0:0:0:
279,242,47282,1,0,41:0:0:0:
275,170,47392,1,0,41:2:0:0:
322,108,47500,5,10,0:0:0:0:
417,71,47610,1,0,41:0:0:0:
388,137,47717,1,0,41:2:0:0:
351,42,47827,1,0,41:2:0:0:
489,117,47935,6,0,L|484:154,1,37.5000014305115,6|0,3:2|0:0,0:0:0:0:
500,123,48044,2,0,L|495:160,1,37.5000014305115,2|0,1:2|0:0,0:0:0:0:
509,130,48152,2,0,L|499:204,1,75.0000028610231,2|0,1:2|1:0,0:0:0:0:
365,261,48370,6,0,B|327:266|303:297|303:297|265:289|251:237,1,150.000005722046,14|0,0:0|0:0,0:0:0:0:
144,129,48587,2,0,B|186:124|205:92|205:92|243:100|257:152,1,150.000005722046,6|0,1:2|0:0,0:0:0:0:
368,164,48804,6,0,B|326:117|313:75|313:75|257:64|219:121|219:121|264:185|277:260|277:260|240:308|189:304|189:304|182:260|148:220,1,559.999982910157,6|8,3:2|1:2,0:0:0:0:
77,87,49348,1,0,41:0:0:0:
67,101,49457,6,0,B|57:144|57:144|66:154|66:154|59:195,1,100,6|0,1:2|0:0,0:0:0:0:
63,360,49674,5,6,44:2:0:0:
55,324,49783,1,0,41:0:0:0:
40,346,49892,1,0,41:2:0:0:
76,338,50001,1,0,41:0:0:0:
171,321,50108,5,10,0:0:0:0:
161,271,50218,1,0,41:0:0:0:
141,301,50326,1,0,41:2:0:0:
191,291,50436,1,0,41:0:0:0:
292,270,50543,5,2,44:2:0:0:
274,190,50653,1,0,41:0:0:0:
243,239,50761,1,0,41:2:0:0:
323,221,50871,1,0,41:0:0:0:
440,210,50978,5,10,0:0:0:0:
418,105,51088,1,0,41:0:0:0:
376,168,51196,1,0,41:0:0:0:
481,146,51306,1,0,41:0:0:0:
468,42,51413,6,0,P|442:15|409:-2,2,66.6666666666667,6|0|0,3:2|0:0|0:0,0:0:0:0:
281,2,51631,2,0,P|245:57|242:130,1,100,2|0,1:2|1:0,0:0:0:0:
274,245,51848,5,10,41:2:0:0:
321,308,51956,1,0,41:0:0:0:
397,282,52066,1,0,41:0:0:0:
396,202,52174,1,0,41:0:0:0:
319,177,52283,6,0,B|179:124|194:258|22:187,1,300.000011444092,6|0,3:2|1:0,0:0:0:0:
154,107,52609,1,0,41:0:0:0:
154,107,52718,2,0,B|205:149|171:181|183:200|142:221|203:281,1,187.5,10|0,1:2|0:0,0:0:0:0:
229,348,52935,6,0,P|229:369|233:342,1,125,6|0,1:2|0:0,0:0:0:0:
332,214,53153,5,6,44:2:0:0:
364,189,53261,1,0,41:0:0:0:
338,158,53369,1,0,41:0:0:0:
307,183,53479,1,0,41:0:0:0:
332,214,53588,5,10,0:0:0:0:
377,180,53696,1,0,41:0:0:0:
341,137,53804,1,0,41:0:0:0:
298,171,53914,1,0,41:0:0:0:
332,214,54022,6,0,P|331:240|327:263,1,50,6|0,3:2|0:0,0:0:0:0:
392,168,54131,2,0,P|421:169|445:174,1,50,2|0,1:2|0:0,0:0:0:0:
344,111,54239,2,0,P|346:83|349:62,1,50,2|0,1:2|0:0,0:0:0:0:
287,156,54348,2,0,P|259:155|229:150,1,50,2|0,1:2|0:0,0:0:0:0:
410,256,54457,6,0,P|447:298|476:340,1,100,14|0,1:2|0:0,0:0:0:0:
272,79,54674,1,2,41:2:0:0:
261,66,54783,1,2,41:2:0:0:
425,87,54892,2,0,P|465:58|502:24,1,100,6|0,3:2|0:0,0:0:0:0:
247,238,55109,2,0,P|214:262|177:296,2,66.6666666666667,2|2|2,1:2|0:0|0:0,0:0:0:0:
20,258,55327,5,10,41:2:0:0:
112,241,55436,1,2,41:2:0:0:
13,247,55544,1,2,41:2:0:0:
114,227,55652,1,2,41:2:0:0:
77,319,55761,6,0,B|-24:230|30:114|175:174|204:-31|60:-87|-29:-26|-91:91|54:140,1,560,6|8,3:2|1:2,0:0:0:0:
164,164,56305,1,0,41:0:0:0:
164,164,56414,6,0,P|175:136|189:119,1,50,6|0,1:2|0:0,0:0:0:0:
355,94,56631,5,6,44:2:0:0:
329,23,56739,1,0,41:0:0:0:
254,3,56847,1,0,41:0:0:0:
187,42,56957,1,0,41:0:0:0:
335,245,57065,5,10,41:2:0:0:
367,181,57174,1,0,41:0:0:0:
340,112,57282,1,0,41:0:0:0:
270,95,57392,1,0,41:0:0:0:
223,302,57500,5,2,44:2:0:0:
283,296,57609,1,0,41:0:0:0:
318,243,57717,1,0,41:0:0:0:
296,188,57827,1,0,41:0:0:0:
133,292,57935,5,10,41:2:0:0:
169,307,58044,1,0,41:0:0:0:
209,294,58152,1,0,41:0:0:0:
228,246,58262,1,0,41:0:0:0:
163,210,58370,6,0,P|164:197|166:185,1,25,6|0,3:2|0:0,0:0:0:0:
153,211,58479,2,0,P|140:198|128:190,1,25,2|0,1:2|0:0,0:0:0:0:
158,221,58587,6,0,P|145:160|124:102,1,125,2|0,1:2|0:0,0:0:0:0:
100,18,58805,5,14,0:0:0:0:
97,30,58913,1,0,41:0:0:0:
105,29,59023,1,0,41:0:0:0:
93,24,59131,1,0,41:0:0:0:
1,149,59240,6,0,B|122:111|276:88|276:88|159:99|221:9|69:53|69:53|121:60|126:151,1,560,6|8,3:2|0:0,0:0:0:0:
147,178,59783,1,0,41:0:0:0:
147,178,59892,6,0,P|179:159|188:138,1,50,6|0,1:2|0:0,0:0:0:0:
286,135,60110,5,6,44:2:0:0:
330,203,60219,1,0,41:0:0:0:
303,276,60328,1,0,41:0:0:0:
229,297,60436,1,0,41:0:0:0:
176,68,60545,5,10,41:2:0:0:
245,84,60654,1,0,41:0:0:0:
278,148,60763,1,0,41:0:0:0:
251,217,60871,1,0,41:0:0:0:
74,87,60979,5,2,44:2:0:0:
126,65,61089,1,0,41:0:0:0:
180,85,61197,1,0,41:0:0:0:
200,138,61306,1,0,41:0:0:0:
16,157,61414,5,10,41:2:0:0:
33,119,61524,1,0,41:0:0:0:
77,104,61632,1,0,41:0:0:0:
116,123,61741,1,0,41:0:0:0:
117,219,61849,6,0,P|123:209|132:200,1,25,6|0,3:2|0:0,0:0:0:0:
110,208,61958,1,2,41:2:0:0:
99,202,62066,1,2,41:2:0:0:
86,201,62174,1,2,41:2:0:0:
7,265,62284,6,0,B|49:277|89:235|57:226|93:184|174:205,1,150.000005722046,6|0,3:2|0:0,0:0:0:0:
301,74,62500,2,0,B|203:41|143:124|143:124|193:128|212:200,1,225.000008583069,6|0,1:2|0:0,0:0:0:0:
9,111,62717,6,0,B|139:82|192:219|104:220|193:351|371:386|460:144|294:98,1,560,6|8,3:2|0:0,0:0:0:0:
268,189,63262,1,0,41:0:0:0:
268,189,63371,6,0,P|285:197|277:180,1,50,6|0,1:2|0:0,0:0:0:0:
390,322,63588,5,6,44:2:0:0:
466,295,63697,1,0,41:0:0:0:
497,221,63804,1,0,41:0:0:0:
467,151,63914,1,0,41:0:0:0:
262,253,64022,5,10,41:2:0:0:
304,311,64131,1,0,41:0:0:0:
373,308,64239,1,0,41:0:0:0:
421,256,64349,1,0,41:0:0:0:
227,146,64457,5,2,44:2:0:0:
229,204,64566,1,0,41:0:0:0:
270,240,64674,1,0,41:0:0:0:
327,229,64784,1,0,41:0:0:0:
293,79,64892,5,10,41:2:0:0:
255,93,65001,1,0,41:0:0:0:
243,132,65109,1,0,41:0:0:0:
263,166,65219,1,0,41:0:0:0:
343,144,65327,6,0,P|356:133|365:116,1,25,6|0,3:2|0:0,0:0:0:0:
344,153,65436,2,0,P|371:162|385:173,1,25,2|0,1:2|0:0,0:0:0:0:
334,151,65545,6,0,P|400:142|437:98,1,125,2|0,1:2|0:0,0:0:0:0:
509,57,65762,5,14,0:0:0:0:
503,44,65870,1,0,41:0:0:0:
512,45,65980,1,0,41:0:0:0:
498,56,66088,1,0,41:0:0:0:
408,0,66195,6,0,B|260:101|377:230|379:276|379:276|403:230|578:224|536:80|490:24,1,560,6|8,3:2|0:0,0:0:0:0:
436,99,66740,1,0,41:0:0:0:
436,99,66850,6,0,P|422:143|422:163,1,50,6|0,1:2|0:0,0:0:0:0:
447,345,67067,5,6,44:2:0:0:
422,271,67175,1,0,41:0:0:0:
347,247,67283,1,0,41:0:0:0:
278,282,67393,1,0,41:0:0:0:
265,204,67502,5,10,0:0:0:0:
219,173,67610,1,0,41:0:0:0:
165,191,67718,1,0,41:0:0:0:
145,242,67828,1,0,41:0:0:0:
86,191,67936,6,0,L|88:162,1,25,6|0,3:2|0:0,0:0:0:0:
49,190,68045,2,0,L|33:160,1,25,2|0,1:2|0:0,0:0:0:0:
25,221,68153,2,0,L|1:208,1,25,2|0,1:2|0:0,0:0:0:0:
33,256,68263,2,0,L|0:268,1,25,2|0,1:2|0:0,0:0:0:0:
22,343,68371,6,0,P|45:332|69:327,1,50,6|0,3:2|1:0,0:0:0:0:
204,335,68588,2,0,B|166:351|126:385|126:385|160:348|144:304,1,150,6|0,1:2|0:0,0:0:0:0:
149,334,68806,6,0,P|210:325|214:364,1,100,6|0,3:2|1:0,0:0:0:0:
363,50,69022,2,0,P|301:58|297:19,1,100,2|0,1:2|1:0,0:0:0:0:
159,213,69239,6,0,P|191:204|195:236,1,75.0000028610231,6|0,3:2|1:0,0:0:0:0:
353,171,69456,2,0,P|320:179|316:147,1,75.0000028610231,6|0,1:2|1:0,0:0:0:0:
180,167,69674,6,0,P|355:206|377:216,1,140,6|0,3:2|0:0,0:0:0:0:
321,14,70108,6,0,P|280:4|145:33,1,140
218,73,70543,6,0,B|194:41|154:33|99:25|-21:64|52:246|99:285|99:285|5:380|5:380|115:301|115:301|154:333|218:333|256:383|256:383|296:309|407:356|462:270|470:207|472:113|437:90|437:90|446:80|500:21|500:21|435:75|416:75|416:75|404:62|370:57|370:57|383:41|423:1|423:1|375:41|348:56|348:56|304:57|290:70|290:70|344:-15|344:-15,1,1796.40718562874
457,32,71630,5,0,0:0:0:0:
438,127,71848,1,0,0:0:0:0:
377,235,72065,1,0,0:0:0:0:
233,311,72282,1,0,0:0:0:0:
25,325,72500,1,0,0:0:0:0:
251,258,72717,1,0,0:0:0:0:
428,131,72935,2,0,P|434:14|412:-14,1,140
246,34,73587,5,4,0:2:0:0:
242,58,73695,1,0,0:0:0:0:
265,119,73804,6,0,L|216:123,1,35
114,134,74022,2,0,L|148:130,1,35,8|0,0:0|0:0,0:0:0:0:
260,130,74239,2,0,L|210:134,1,35
42,138,74456,5,2,0:0:0:0:
46,162,74565,1,0,0:0:0:0:
18,226,74674,6,0,L|66:230,1,35
168,238,74891,2,0,L|134:235,1,35,8|0,0:0|0:0,0:0:0:0:
22,234,75108,2,0,L|71:243,1,35,2|0,0:0|0:0,0:0:0:0:
254,242,75326,5,2,0:0:0:0:
278,238,75435,1,0,0:0:0:0:
342,266,75543,6,0,L|347:216,1,35
354,110,75761,2,0,L|352:144,1,35,8|0,0:0|0:0,0:0:0:0:
350,262,75978,2,0,L|354:212,1,35
358,34,76195,5,2,0:0:0:0:
382,38,76304,1,0,0:0:0:0:
446,10,76413,6,0,L|448:58,1,35
458,166,76630,2,0,L|455:129,1,35,8|0,0:0|0:0,0:0:0:0:
240,194,76848,5,4,0:2:0:0:
243,212,76956,1,0,0:0:0:0:
248,265,77065,6,0,L|297:261,1,35
399,250,77283,2,0,L|365:254,1,35,8|0,0:0|0:0,0:0:0:0:
253,254,77500,2,0,L|303:250,1,35
471,246,77717,5,2,0:0:0:0:
467,222,77826,1,0,0:0:0:0:
495,158,77935,6,0,L|447:154,1,35
345,146,78152,2,0,L|379:149,1,35,8|0,0:0|0:0,0:0:0:0:
491,150,78369,2,0,L|442:141,1,35,2|0,0:0|0:0,0:0:0:0:
259,142,78587,5,2,0:0:0:0:
235,146,78696,1,0,0:0:0:0:
171,118,78804,6,0,L|166:168,1,35
159,274,79022,2,0,L|161:240,1,35,8|0,0:0|0:0,0:0:0:0:
163,122,79239,2,0,L|159:172,1,35
155,350,79456,5,2,0:0:0:0:
131,346,79565,1,0,0:0:0:0:
67,374,79674,6,0,L|65:326,1,35
55,218,79891,2,0,L|58:255,1,35,8|0,0:0|0:0,0:0:0:0:
41,77,80108,2,0,L|43:122,1,35,2|0,0:0|0:0,0:0:0:0:
197,219,80326,5,2,0:0:0:0:
220,228,80435,1,0,0:0:0:0:
262,284,80543,6,0,L|291:243,1,35
350,155,80761,2,0,L|331:183,1,35,8|0,0:0|0:0,0:0:0:0:
271,285,80978,2,0,L|299:243,1,35
391,91,81195,5,2,0:0:0:0:
410,107,81304,1,0,0:0:0:0:
480,115,81413,6,0,L|457:157,1,35
412,256,81630,2,0,L|427:222,1,35,8|0,0:0|0:0,0:0:0:0:
340,52,81848,6,0,L|378:48,1,35,10|2,0:0|0:0,0:0:0:0:
302,229,82065,6,0,L|270:249,1,35,10|2,0:0|0:0,0:0:0:0:
358,39,82282,86,0,L|395:44,1,35,10|2,0:0|0:0,0:0:0:0:
282,227,82500,6,0,L|246:237,1,35,10|2,0:0|0:0,0:0:0:0:
380,31,82717,6,0,L|415:46,1,35,10|2,0:0|0:0,0:0:0:0:
260,219,82935,6,0,L|225:219,1,35,10|2,0:0|0:0,0:0:0:0:
413,24,83152,6,0,L|439:53,1,35,10|2,0:0|0:0,0:0:0:0:
236,205,83369,6,0,P|165:179|122:129,1,140
319,93,84022,6,0,P|320:197|234:113,1,280,4|0,0:3|0:0,0:0:0:0:
342,77,84456,6,0,P|372:163|281:234,1,140,8|0,0:0|0:0,0:0:0:0:
221,263,84891,6,0,B|188:276|188:276|285:305,1,137.6,6|0,0:0|0:0,0:0:0:0:
457,331,85326,2,0,P|385:365|370:362,2,68.8,8|0|0,0:0|0:0|0:0,0:0:0:0:
485,177,85761,2,0,P|407:177|342:200,1,137.6,2|0,0:0|0:0,0:0:0:0:
207,58,86196,2,0,P|285:58|350:81,1,137.6,8|0,0:0|0:0,0:0:0:0:
221,263,86630,6,0,P|154:298|82:276,1,137.6,2|0,0:0|0:0,0:0:0:0:
131,62,87065,2,0,L|143:200,1,137.6,8|0,0:0|0:0,0:0:0:0:
306,19,87500,2,0,L|294:156,1,137.6,2|0,0:0|0:0,0:0:0:0:
462,108,87935,1,8,0:0:0:0:
453,141,88043,1,0,0:0:0:0:
445,174,88152,1,0,0:0:0:0:
437,208,88261,1,0,0:0:0:0:
429,241,88369,6,0,P|339:242|291:230,1,137.6,2|0,0:0|0:0,0:0:0:0:
234,51,88804,1,8,0:0:0:0:
199,49,88913,1,0,0:0:0:0:
165,52,89022,1,0,0:0:0:0:
131,62,89130,1,0,0:0:0:0:
100,76,89239,2,0,L|110:227,1,137.6,2|0,0:0|0:0,0:0:0:0:
287,333,89674,1,8,0:0:0:0:
289,298,89782,1,0,0:0:0:0:
291,264,89891,1,0,0:0:0:0:
293,230,90000,1,0,0:0:0:0:
296,195,90108,5,2,0:0:0:0:
307,52,90326,2,0,P|341:51|375:55,2,68.8,0|0|8,0:0|0:0|0:0,0:0:0:0:
100,76,90761,1,0,0:0:0:0:
150,241,90978,1,2,0:0:0:0:
218,92,91196,2,0,P|212:56|218:22,2,68.8,0|0|8,0:0|0:0|0:0,0:0:0:0:
289,298,91630,1,0,0:0:0:0:
446,162,91848,6,0,P|378:134|312:157,1,137.6,6|0,0:0|0:0,0:0:0:0:
150,241,92282,2,0,P|138:208|134:174,2,68.8,8|0|0,0:0|0:0|0:0,0:0:0:0:
369,362,92717,2,0,L|376:225,1,137.6,2|0,0:0|0:0,0:0:0:0:
218,92,93152,2,0,L|224:229,1,137.6,8|0,0:0|0:0,0:0:0:0:
445,161,93587,6,0,P|384:134|319:151,1,137.6,2|0,0:0|0:0,0:0:0:0:
303,329,94022,2,0,P|358:290|376:225,1,137.6,8|0,0:0|0:0,0:0:0:0:
229,121,94456,2,0,P|236:189|284:237,1,137.6,2|0,0:0|0:0,0:0:0:0:
447,196,94891,1,8,0:0:0:0:
445,161,95000,1,0,0:0:0:0:
443,127,95108,1,0,0:0:0:0:
441,92,95217,1,0,0:0:0:0:
439,58,95326,6,0,P|364:46|297:46,1,137.6,2|0,0:0|0:0,0:0:0:0:
115,124,95761,1,8,0:0:0:0:
113,158,95869,1,0,0:0:0:0:
111,193,95978,1,0,0:0:0:0:
109,227,96087,1,0,0:0:0:0:
107,262,96195,2,0,P|193:277|257:262,1,137.6,2|0,0:0|0:0,0:0:0:0:
443,127,96630,1,8,0:0:0:0:
409,120,96739,1,0,0:0:0:0:
375,115,96848,1,0,0:0:0:0:
340,113,96956,1,0,0:0:0:0:
306,114,97065,5,2,0:0:0:0:
111,193,97283,1,2,0:0:0:0:
355,250,97500,2,0,P|437:216|482:170,1,140
458,62,97935,6,0,B|447:102|405:102|405:102|236:79,1,210,8|0,0:0|0:0,0:0:0:0:
152,44,98370,2,0,L|170:163,1,75.0000028610231,8|0,0:0|0:0,0:0:0:0:
182,283,98588,1,2,0:0:0:0:
156,310,98697,1,0,0:0:0:0:
129,336,98805,2,0,L|111:225,1,75.0000028610231,8|0,0:0|0:0,0:0:0:0:
66,108,99023,1,2,0:0:0:0:
66,108,99132,1,0,0:0:0:0:
66,108,99239,6,0,L|81:204,1,75.0000028610231,8|0,0:0|0:0,0:0:0:0:
170,208,99457,2,0,L|185:304,1,75.0000028610231,2|0,0:0|0:0,0:0:0:0:
247,80,99674,2,0,L|262:-16,1,75.0000028610231,8|0,0:0|0:0,0:0:0:0:
363,101,99892,1,2,0:0:0:0:
400,104,100001,1,0,0:0:0:0:
437,108,100109,6,0,L|452:12,1,75.0000028610231,8|0,0:0|0:0,0:0:0:0:
289,156,100327,2,0,L|304:252,1,75.0000028610231,2|0,0:0|0:0,0:0:0:0:
469,263,100543,2,0,P|371:214|298:367,1,280,8|8,0:0|0:0,0:0:0:0:
383,309,101197,1,10,0:0:0:0:
191,331,101413,6,0,B|54:353|54:353|94:334|124:291,1,210,8|0,0:0|0:0,0:0:0:0:
119,298,101848,2,0,P|141:220|98:127,1,150.000005722046,8|2,0:0|0:0,0:0:0:0:
44,56,102283,2,0,L|132:67,1,75.0000028610231,8|0,0:0|0:0,0:0:0:0:
192,76,102501,2,0,L|280:87,1,75.0000028610231,2|0,0:0|0:0,0:0:0:0:
354,45,102718,2,0,P|361:95|339:152,1,75.0000028610231,8|0,0:0|0:0,0:0:0:0:
441,127,102936,2,0,P|418:175|379:200,1,75.0000028610231,10|0,0:0|0:0,0:0:0:0:
297,293,103153,6,0,P|262:144|371:36,1,280,8|8,0:0|0:0,0:0:0:0:
189,76,103805,2,0,L|86:62,1,75.0000028610231,10|0,0:0|0:0,0:0:0:0:
125,151,104022,2,0,L|22:137,1,75.0000028610231,8|0,0:0|0:0,0:0:0:0:
152,328,104240,1,10,0:0:0:0:
152,328,104349,1,8,0:0:0:0:
152,328,104457,2,0,P|175:287|171:231,1,75.0000028610231,8|0,0:0|0:0,0:0:0:0:
189,76,104675,1,10,0:0:0:0:
189,76,104784,1,8,0:0:0:0:
189,76,104892,6,0,P|166:117|170:173,1,75.0000028610231,8|0,0:0|0:0,0:0:0:0:
281,269,105110,2,0,L|229:172,1,75.0000028610231,2|0,0:0|0:0,0:0:0:0:
86,196,105328,2,0,L|334:165,1,210,8|0,0:0|0:0,0:0:0:0:
408,216,105761,6,0,P|365:260|242:247,1,140,8|2,0:0|0:0,0:0:0:0:
309,167,106088,1,0,0:0:0:0:
320,130,106196,2,0,L|341:49,1,75.0000028610231,8|0,0:0|0:0,0:0:0:0:
280,268,106414,2,0,L|301:349,1,75.0000028610231,2|0,0:0|0:0,0:0:0:0:
219,123,106631,6,0,L|198:42,1,75.0000028610231,8|0,0:0|0:0,0:0:0:0:
192,254,106849,2,0,L|171:335,1,75.0000028610231,2|0,0:0|0:0,0:0:0:0:
125,109,107066,2,0,L|104:28,1,75.0000028610231,8|0,0:0|0:0,0:0:0:0:
30,256,107284,5,10,0:0:0:0:
30,256,107393,1,8,0:0:0:0:
30,256,107500,2,0,L|129:240,1,70,8|0,0:0|0:0,0:0:0:0:
293,111,107718,2,0,L|194:127,1,70,8|0,0:2|0:0,0:0:0:0:
41,160,107935,1,8,0:3:0:0:
142,320,108153,1,8,0:2:0:0:
139,136,108370,6,0,P|186:49|296:103,1,210,8|0,0:0|0:0,0:0:0:0:
320,179,108805,2,0,L|358:17,1,140,8|2,0:0|0:0,0:0:0:0:
445,120,109240,5,8,0:0:0:0:
468,149,109348,1,0,0:0:0:0:
481,184,109457,1,2,0:0:0:0:
484,221,109565,1,0,0:0:0:0:
475,257,109674,1,8,0:0:0:0:
456,289,109783,1,0,0:0:0:0:
429,315,109892,1,10,0:0:0:0:
395,331,110001,1,0,0:0:0:0:
358,336,110109,6,0,L|381:237,1,75.0000028610231,8|0,0:0|0:0,0:0:0:0:
337,106,110327,2,0,L|314:205,1,75.0000028610231,2|0,0:0|0:0,0:0:0:0:
226,304,110544,2,0,L|248:204,1,75.0000028610231,8|0,0:0|0:0,0:0:0:0:
199,80,110762,1,10,0:0:0:0:
199,80,110871,1,8,0:0:0:0:
199,80,110979,2,0,L|176:179,1,75.0000028610231,8|0,0:0|0:0,0:0:0:0:
126,324,111197,1,10,0:0:0:0:
18,246,111415,6,0,L|280:228,1,225.000008583069,8|0,0:0|0:0,0:0:0:0:
325,167,111848,6,0,P|321:210|316:265,1,75.0000028610231,8|0,0:0|0:0,0:0:0:0:
404,127,112066,2,0,L|395:225,1,75.0000028610231,10|0,0:0|0:0,0:0:0:0:
483,95,112283,2,0,L|211:119,1,210,8|0,0:0|0:0,0:0:0:0:
164,108,112718,6,0,L|203:35,1,75.0000028610231,8|0,0:0|0:0,0:0:0:0:
237,193,112936,1,2,0:0:0:0:
242,230,113045,1,0,0:0:0:0:
247,267,113153,2,0,P|238:311|199:351,1,75.0000028610231,8|0,0:0|0:0,0:0:0:0:
103,259,113371,2,0,P|69:229|54:175,1,75.0000028610231,2|0,0:0|0:0,0:0:0:0:
317,217,113587,1,0,0:0:0:0:
356,235,113695,1,0,0:0:0:0:
386,258,113805,1,2,0:0:0:0:
412,284,113913,1,0,0:0:0:0:
437,311,114022,2,0,L|336:316,1,75.0000028610231,8|0,0:0|0:0,0:0:0:0:
392,121,114240,1,10,0:0:0:0:
392,121,114349,1,8,0:0:0:0:
392,121,114457,6,0,L|418:31,1,75.0000028610231,8|0,0:0|0:0,0:0:0:0:
267,152,114675,1,8,0:2:0:0:
421,112,114892,2,0,L|448:23,1,70,8|0,0:0|0:0,0:0:0:0:
322,222,115110,1,10,0:0:0:0:
322,222,115219,1,8,0:0:0:0:
322,222,115326,6,0,P|302:288|440:233,1,280,8|8,0:0|0:0,0:0:0:0:
222,294,115979,1,2,0:0:0:0:
186,304,116088,1,0,0:0:0:0:
150,315,116196,2,0,P|151:276|187:227,1,75.0000028610231,8|0,0:0|0:0,0:0:0:0:
90,220,116414,2,0,P|110:186|166:162,1,75.0000028610231,2|0,0:0|0:0,0:0:0:0:
232,66,116631,2,0,P|231:105|195:154,1,75.0000028610231,8|0,0:0|0:0,0:0:0:0:
292,161,116849,2,0,P|271:194|215:218,1,75.0000028610231,10|0,0:0|0:0,0:0:0:0:
93,87,117066,5,8,0:0:0:0:
232,66,117284,1,2,0:0:0:0:
268,58,117393,1,0,0:0:0:0:
304,50,117502,2,0,L|386:32,1,75.0000028610231,8|0,0:0|0:0,0:0:0:0:
459,178,117719,2,0,L|432:273,1,75.0000028610231,10|0,0:0|0:0,0:0:0:0:
241,213,117935,6,0,L|268:118,1,75.0000028610231,8|0,0:0|0:0,0:0:0:0:
449,92,118153,1,10,0:0:0:0:
449,92,118262,1,8,0:0:0:0:
449,92,118370,2,0,L|354:116,1,75.0000028610231,8|0,0:0|0:0,0:0:0:0:
261,302,118588,1,10,0:0:0:0:
261,302,118697,1,8,0:0:0:0:
261,302,118805,6,0,L|356:278,1,75.0000028610231,8|0,0:0|0:0,0:0:0:0:
261,140,119023,2,0,L|356:116,1,75.0000028610231,10|0,0:0|0:0,0:0:0:0:
173,230,119240,2,0,B|24:263|24:263|47:301|102:300,1,210,8|0,0:0|0:0,0:0:0:0:
77,298,119676,2,0,P|119:222|85:135,1,140,8|2,0:0|0:0,0:0:0:0:
49,68,120001,1,0,0:0:0:0:
85,59,120109,2,0,L|181:36,1,75.0000028610231,8|0,0:0|0:0,0:0:0:0:
287,53,120327,1,10,0:0:0:0:
277,89,120436,1,8,0:0:0:0:
266,124,120544,6,0,L|245:204,1,75.0000028610231,8|0,0:0|0:0,0:0:0:0:
320,332,120762,1,2,0:0:0:0:
443,188,120979,1,8,0:0:0:0:
406,197,121088,1,8,0:0:0:0:
369,205,121197,2,0,L|396:111,1,75.0000028610231,10|0,0:0|0:0,0:0:0:0:
246,196,121415,5,8,0:0:0:0:
209,205,121523,1,8,0:0:0:0:
172,213,121632,2,0,L|199:119,1,75.0000028610231,10|0,0:0|0:0,0:0:0:0:
308,47,121850,1,8,0:0:0:0:
254,278,122066,1,8,0:2:0:0:
244,314,122175,1,8,0:2:0:0:
243,351,122283,6,0,B|286:325|327:333|327:333|337:304|337:304|458:280,1,210,8|0,0:0|0:0,0:0:0:0:
474,200,122718,2,0,L|294:233,1,140,8|2,0:0|0:0,0:0:0:0:
174,262,123153,2,0,L|203:178,1,75.0000028610231,8|0,0:0|0:0,0:0:0:0:
118,185,123371,2,0,L|147:101,1,75.0000028610231,2|0,0:0|0:0,0:0:0:0:
73,266,123589,2,0,L|102:350,1,75.0000028610231,8|0,0:0|0:0,0:0:0:0:
307,305,123806,1,10,0:0:0:0:
318,314,123915,1,8,0:0:0:0:
329,322,124022,6,0,P|286:340|206:340,1,75.0000028610231,8|0,0:0|0:0,0:0:0:0:
198,191,124240,1,10,0:0:0:0:
187,182,124349,1,8,0:0:0:0:
176,174,124457,2,0,P|221:155|296:163,1,75.0000028610231,8|0,0:0|0:0,0:0:0:0:
421,162,124675,1,10,0:0:0:0:
421,162,124784,1,8,0:0:0:0:
421,162,124892,5,8,0:0:0:0:
306,62,125110,1,10,0:0:0:0:
366,269,125328,1,10,0:2:0:0:
171,80,125545,1,2,0:0:0:0:
257,240,125761,6,0,L|252:304,1,36.749998878479,8|0,3:1|3:1,3:1:0:0:
410,177,125978,5,0,3:1:0:0:
410,177,126087,5,0,3:1:0:0:
410,177,126195,2,0,L|466:148,1,37.5000014305115,8|0,3:1|3:1,3:1:0:0:
282,170,126413,1,0,3:1:0:0:
282,170,126522,1,0,3:1:0:0:
282,170,126630,2,0,L|229:135,1,37.5000014305115,8|0,3:1|3:1,3:1:0:0:
354,42,126848,1,0,3:1:0:0:
354,42,126956,1,0,3:1:0:0:
354,42,127065,2,0,L|350:91,1,37.5000014305115,8|0,3:1|3:1,3:1:0:0:
335,272,127282,2,0,L|339:223,1,37.5000014305115,0|0,3:1|3:1,3:1:0:0:
257,63,127500,6,0,P|229:66|190:85,1,42.5000008106232,8|0,3:1|3:1,3:1:0:0:
150,217,127717,1,0,3:1:0:0:
150,217,127826,1,0,3:1:0:0:
150,217,127935,2,0,P|166:239|202:264,1,42.5000008106232,8|0,3:1|3:1,3:1:0:0:
339,235,128152,1,0,3:1:0:0:
339,235,128261,1,0,3:1:0:0:
339,235,128369,2,0,P|350:209|353:165,1,42.5000008106232,8|0,3:1|3:1,3:1:0:0:
257,63,128587,1,0,3:1:0:0:
257,63,128695,1,0,3:1:0:0:
257,63,128804,2,0,P|245:88|242:132,2,42.5000008106232,8|0|0,3:1|3:1|3:1,3:1:0:0:
98,210,129239,6,0,P|123:266|159:296,1,87.5
141,283,129565,1,0,0:0:0:0:
413,184,129674,2,0,P|381:253|347:288,1,87.5
374,261,130000,1,0,0:0:0:0:
147,69,130108,6,0,P|163:149|181:188,1,87.5
165,154,130435,1,0,0:0:0:0:
411,71,130543,2,0,P|387:132|346:178,1,87.5
374,149,130869,1,0,0:0:0:0:
253,262,130978,6,0,P|308:329|330:339,1,87.5
307,328,131304,1,0,0:0:0:0:
329,132,131413,2,0,P|265:78|236:71,1,87.5
262,77,131739,1,0,0:0:0:0:
92,129,131848,6,0,P|73:171|66:216,1,87.5
66,211,132174,1,0,0:0:0:0:
181,353,132282,2,0,P|240:320|261:282,1,87.5
341,108,132717,6,0,P|369:110|415:125,1,47.4999987316132,8|0,3:1|3:1,3:1:0:0:
384,274,132935,1,0,3:1:0:0:
384,274,133044,1,0,3:1:0:0:
384,274,133153,2,0,P|356:272|310:257,1,47.4999987316132,8|0,3:1|3:1,3:1:0:0:
236,177,133370,1,0,3:1:0:0:
236,177,133479,1,0,3:1:0:0:
236,177,133587,2,0,L|247:106,1,47.4999987316132,8|0,3:1|3:1,3:1:0:0:
223,315,133804,1,0,3:1:0:0:
223,315,133913,1,0,3:1:0:0:
223,315,134022,2,0,L|212:386,1,47.4999987316132,8|0,3:1|3:1,3:1:0:0:
81,220,134239,2,0,P|109:222|155:237,1,47.4999987316132,0|0,3:1|3:1,3:1:0:0:
290,123,134456,6,0,P|262:125|216:141,1,52.4999983978272,8|0,3:1|3:1,3:1:0:0:
99,171,134674,1,0,3:1:0:0:
99,171,134782,1,0,3:1:0:0:
99,171,134891,2,0,P|87:197|76:248,1,52.4999983978272,8|0,3:1|3:1,3:1:0:0:
144,42,135108,1,0,3:1:0:0:
144,42,135217,1,0,3:1:0:0:
144,42,135326,2,0,P|129:19|91:-12,1,52.4999983978272,8|0,3:1|3:1,3:1:0:0:
243,129,135543,1,0,3:1:0:0:
243,129,135652,1,0,3:1:0:0:
243,129,135761,2,0,P|270:127|314:111,1,52.4999983978272,8|0,3:1|3:1,3:1:0:0:
278,257,135978,2,0,P|251:259|207:275,1,52.4999983978272,8|0,3:1|3:1,3:1:0:0:
425,279,136196,1,0,3:1:0:0:
444,251,136304,1,0,3:1:0:0:
449,217,136413,1,0,3:1:0:0:
441,184,136522,1,0,3:1:0:0:
423,154,136630,1,0,3:1:0:0:
397,131,136739,1,0,3:1:0:0:
366,116,136848,1,0,3:1:0:0:
331,112,136956,1,0,3:1:0:0:
293,121,137065,1,0,3:1:0:0:
259,143,137174,1,0,3:1:0:0:
233,177,137282,1,0,3:1:0:0:
223,221,137391,1,0,3:1:0:0:
239,267,137500,6,0,P|260:292|293:306,1,62.5,8|0,3:1|3:1,3:1:0:0:
460,252,137717,2,0,P|439:227|406:213,1,62.5,0|0,3:1|3:1,3:1:0:0:
252,260,137935,6,0,P|282:271|318:266,1,62.5,8|0,3:1|3:1,3:1:0:0:
454,144,138152,2,0,P|423:132|387:137,1,62.5,0|0,3:1|3:1,3:1:0:0:
258,243,138369,6,0,P|290:237|318:215,1,62.5,8|0,3:1|3:1,3:1:0:0:
394,50,138587,2,0,P|361:55|333:77,1,62.5,0|0,3:1|3:1,3:1:0:0:
258,228,138804,6,0,P|283:207|296:174,1,62.5,8|0,3:1|3:1,3:1:0:0:
297,2,139022,2,0,P|272:23|258:56,1,62.5,0|0,3:1|3:1,3:1:0:0:
401,192,139239,6,0,P|418:198|443:200,8,31.25,8|0|0|0|0|0|0|0|0,0:0|2:0|2:0|2:0|2:0|2:0|2:0|2:0|2:0,2:0:0:0:
365,27,140978,5,12,0:1:0:0:
365,27,141195,1,0,1:2:0:0:
323,145,142717,5,10,0:2:0:0:
323,145,142935,1,0,1:2:0:0:
147,27,144456,5,10,0:2:0:0:
147,27,144674,1,0,1:2:0:0:
189,145,145326,5,10,0:2:0:0:
189,145,145543,1,0,1:2:0:0:
109,102,146195,5,14,0:2:0:0:
93,178,146413,1,0,1:2:0:0:
403,102,147935,5,10,0:2:0:0:
419,178,148152,1,0,1:2:0:0:
87,190,149674,5,10,0:2:0:0:
99,267,149891,1,0,1:2:0:0:
425,190,151413,5,10,0:2:0:0:
413,267,151630,1,0,1:2:0:0:
92,278,152282,5,14,0:2:0:0:
73,366,152499,1,0,1:2:0:0:
379,322,153152,5,6,1:2:0:0:
493,120,153369,1,0,0:0:0:0:
312,264,153587,5,10,1:0:0:0:
478,205,153804,1,0,0:0:0:0:
246,206,154022,5,2,1:0:0:0:
394,235,154239,1,0,0:0:0:0:
180,150,154456,5,10,1:0:0:0:
312,264,154674,1,2,0:0:0:0:
114,93,154891,5,2,1:0:0:0:
163,236,155108,1,0,0:0:0:0:
197,64,155326,5,10,1:0:0:0:
97,180,155543,1,0,0:0:0:0:
262,121,155761,5,2,1:0:0:0:
114,93,155978,5,2,0:0:0:0:
16,207,156195,5,10,1:0:0:0:
65,352,156413,5,2,0:0:0:0:
215,379,156630,5,2,1:0:0:0:
97,180,156848,1,0,0:0:0:0:
312,264,157065,5,10,1:0:0:0:
148,323,157282,1,0,0:0:0:0:
262,121,157500,5,2,1:0:0:0:
312,264,157717,5,2,0:0:0:0:
262,121,157935,5,10,1:0:0:0:
114,93,158152,5,2,0:0:0:0:
163,236,158369,5,2,1:0:0:0:
329,179,158587,1,0,0:0:0:0:
148,323,158804,5,10,1:0:0:0:
246,206,159022,1,0,0:0:0:0:
215,379,159239,5,2,1:0:0:0:
163,236,159456,1,0,0:0:0:0:
298,352,159674,5,10,1:0:0:0:
148,323,159891,5,2,0:0:0:0:
379,323,160108,5,2,1:0:0:0:
213,381,160326,1,0,0:0:0:0:
394,235,160543,5,10,1:0:0:0:
227,294,160761,1,0,0:0:0:0:
411,148,160978,5,2,1:0:0:0:
244,206,161195,1,0,0:0:0:0:
479,205,161413,5,10,1:0:0:0:
261,120,161630,1,2,0:0:0:0:
510,32,161848,5,2,1:0:0:0:
394,235,162065,1,0,0:0:0:0:
361,3,162282,5,10,1:0:0:0:
411,148,162500,1,0,0:0:0:0:
278,32,162717,5,2,1:0:0:0:
427,61,162935,5,2,0:0:0:0:
328,178,163152,5,10,1:0:0:0:
344,90,163369,5,2,0:0:0:0:
311,264,163587,5,2,1:0:0:0:
261,120,163804,1,2,0:0:0:0:
394,235,164022,5,10,1:0:0:0:
178,149,164239,1,0,0:0:0:0:
479,205,164456,5,2,1:0:0:0:
244,206,164674,5,2,0:0:0:0:
462,293,164891,5,10,1:0:0:0:
311,264,165108,5,2,0:0:0:0:
379,323,165326,5,2,1:0:0:0:
148,150,166413,5,0,0:0:0:0:
178,276,166630,1,0,0:0:0:0:
311,320,166848,1,0,0:0:0:0:
275,134,167065,2,0,L|276:215,2,70
237,314,167500,5,4,0:0:0:0:
107,166,167717,1,0,0:0:0:0:
145,344,167935,1,8,0:0:0:0:
145,344,168043,1,0,0:0:0:0:
145,344,168153,1,0,0:0:0:0:
304,265,168369,2,0,P|308:207|309:158,1,96
403,56,168805,1,8,0:0:0:0:
409,98,168913,1,0,0:0:0:0:
413,140,169021,1,0,0:0:0:0:
416,183,169131,1,0,0:0:0:0:
417,226,169239,6,0,P|368:220|314:210,1,96
198,122,169674,1,8,0:0:0:0:
156,109,169783,1,0,0:0:0:0:
113,118,169891,1,0,0:0:0:0:
79,145,170000,1,0,0:0:0:0:
67,186,170109,1,0,0:0:0:0:
148,301,170326,1,2,0:0:0:0:
231,145,170544,1,8,0:0:0:0:
334,339,170761,1,2,0:0:0:0:
70,272,170978,6,0,P|79:193|88:133,1,96,4|0,0:0|0:0,0:0:0:0:
268,55,171414,1,8,0:0:0:0:
277,87,171522,1,0,0:0:0:0:
284,119,171630,1,0,0:0:0:0:
294,322,171848,2,0,P|246:313|186:298,1,96
81,176,172282,2,0,L|91:130,1,48,8|0,0:0|0:0,0:0:0:0:
184,45,172500,2,0,L|194:91,1,48
229,218,172718,5,0,0:0:0:0:
405,151,172934,1,0,0:0:0:0:
325,334,173152,1,8,0:0:0:0:
282,355,173261,1,0,0:0:0:0:
233,357,173370,1,0,0:0:0:0:
187,341,173478,1,0,0:0:0:0:
155,305,173587,1,0,0:0:0:0:
291,182,173804,1,2,0:0:0:0:
91,130,174022,1,8,0:0:0:0:
233,337,174239,1,2,0:0:0:0:
447,203,174457,5,4,0:0:0:0:
244,89,174674,1,0,0:0:0:0:
314,317,174891,1,8,0:0:0:0:
314,317,175001,1,0,0:0:0:0:
314,317,175109,1,0,0:0:0:0:
459,197,175327,1,0,0:0:0:0:
221,280,175543,1,0,0:0:0:0:
189,29,175761,2,0,L|239:20,1,48,8|0,0:0|0:0,0:0:0:0:
397,117,175979,2,0,L|347:108,1,48
234,197,176195,5,0,0:0:0:0:
58,124,176413,1,0,0:0:0:0:
120,336,176631,1,8,0:0:0:0:
164,353,176739,1,0,0:0:0:0:
211,350,176848,1,0,0:0:0:0:
254,329,176957,1,0,0:0:0:0:
282,290,177065,1,0,0:0:0:0:
264,97,177283,2,0,L|260:53,3,32,2|0|0|8,0:0|0:0|0:0|0:0,0:0:0:0:
189,263,177718,1,2,0:0:0:0:
372,316,177935,6,0,P|382:244|385:207,1,96,6|0,0:0|0:0,0:0:0:0:
377,182,178261,1,0,0:0:0:0:
377,182,178370,1,8,0:0:0:0:
179,267,178588,1,0,0:0:0:0:
218,54,178804,1,6,0:0:0:0:
254,170,179022,1,0,0:0:0:0:
257,173,179130,1,0,0:0:0:0:
260,176,179240,1,8,0:0:0:0:
110,111,179456,1,0,0:0:0:0:
160,357,179674,5,6,0:0:0:0:
397,273,179892,1,0,0:0:0:0:
397,273,180000,1,0,0:0:0:0:
397,273,180108,2,0,L|406:202,1,48,14|0,0:0|2:0,0:0:0:0:
293,84,180326,2,0,L|286:154,1,48,0|0,0:0|2:0,0:0:0:0:
272,285,180544,1,6,0:0:0:0:
132,100,180761,1,0,0:0:0:0:
163,344,180978,1,8,0:0:0:0:
393,220,181196,1,0,0:0:0:0:
125,87,181413,6,0,P|132:157|137:195,1,96,4|0,0:0|0:0,0:0:0:0:
352,344,181848,1,8,0:0:0:0:
352,344,181958,1,0,0:0:0:0:
352,344,182066,1,0,0:0:0:0:
424,142,182283,2,0,P|376:132|329:124,1,96
90,231,182717,1,8,0:0:0:0:
128,228,182827,1,0,0:0:0:0:
165,222,182935,1,0,0:0:0:0:
201,212,183043,1,0,0:0:0:0:
236,195,183153,6,0,P|241:141|242:84,1,96
98,40,183587,2,0,P|101:70|106:111,1,48,8|0,0:0|0:0,0:0:0:0:
109,308,183805,2,0,P|139:305|180:300,1,48
314,253,184021,1,0,0:0:0:0:
164,139,184239,1,2,0:0:0:0:
239,324,184457,1,8,0:0:0:0:
306,94,184674,1,2,0:0:0:0:
445,236,184892,6,0,P|434:295|423:334,1,96
221,229,185326,1,8,0:0:0:0:
215,195,185435,1,0,0:0:0:0:
211,161,185544,1,0,0:0:0:0:
339,55,185762,2,0,P|388:62|439:77,1,96
320,217,186196,2,0,P|277:208|257:202,1,48,8|0,0:0|0:0,0:0:0:0:
133,229,186414,2,0,P|127:188|127:168,1,48
116,57,186630,5,0,0:0:0:0:
217,291,186848,1,0,0:0:0:0:
384,136,187066,1,8,0:0:0:0:
398,171,187174,1,0,0:0:0:0:
407,208,187282,1,0,0:0:0:0:
409,246,187392,1,0,0:0:0:0:
405,284,187500,1,0,0:0:0:0:
211,142,187718,1,2,0:0:0:0:
267,340,187935,1,8,0:0:0:0:
329,78,188152,1,2,0:0:0:0:
81,217,188370,6,0,P|90:280|97:315,1,96,6|0,0:0|0:0,0:0:0:0:
347,357,188805,1,8,0:0:0:0:
225,103,189022,1,2,0:0:0:0:
225,103,189131,1,0,0:0:0:0:
225,103,189239,1,0,0:0:0:0:
197,255,189457,1,2,0:0:0:0:
342,204,189675,1,8,0:0:0:0:
177,345,189891,1,2,0:0:0:0:
94,107,190109,5,0,0:0:0:0:
197,255,190327,1,2,0:0:0:0:
197,255,190435,1,0,0:0:0:0:
197,255,190543,1,8,0:0:0:0:
369,75,190761,1,2,0:0:0:0:
383,115,190869,1,0,0:0:0:0:
394,156,190979,1,0,0:0:0:0:
397,198,191087,1,0,0:0:0:0:
393,240,191195,1,2,0:0:0:0:
370,277,191305,1,0,0:0:0:0:
328,287,191413,2,0,P|296:283|257:276,1,48,8|0,0:0|2:0,0:0:0:0:
142,181,191631,2,0,P|174:177|213:170,1,48,2|0,0:0|2:0,0:0:0:0:
330,79,191848,5,6,0:0:0:0:
177,288,192065,1,0,0:0:0:0:
177,288,192174,1,0,0:0:0:0:
177,288,192283,1,8,0:0:0:0:
427,211,192500,1,2,0:0:0:0:
179,126,192718,1,4,0:0:0:0:
330,340,192935,1,2,0:0:0:0:
330,340,193044,1,0,0:0:0:0:
330,340,193152,1,8,0:0:0:0:
289,209,193370,1,2,0:0:0:0:
177,288,193588,6,0,P|164:246|158:209,1,48,6|0,0:0|2:0,0:0:0:0:
109,77,193804,1,0,0:0:0:0:
109,77,193914,1,0,0:0:0:0:
109,77,194022,2,0,P|151:64|188:58,1,48,12|0,0:0|2:0,0:0:0:0:
322,9,194240,1,0,0:0:0:0:
322,9,194349,1,0,0:0:0:0:
322,9,194458,2,0,P|335:51|305:141,1,97.9999970092774,4|0,0:0|2:0,0:0:0:0:
99,287,194891,5,6,0:0:0:0:
116,293,195000,1,2,0:0:0:0:
135,295,195109,1,2,0:0:0:0:
154,293,195218,1,2,0:0:0:0:
173,289,195326,1,2,0:0:0:0:
193,284,195435,1,2,0:0:0:0:
212,281,195544,1,10,0:0:0:0:
231,281,195653,1,2,0:0:0:0:
250,284,195761,2,0,P|286:297|309:316,3,50,10|2|10|2,0:0|0:0|0:0|0:0,0:0:0:0:
392,370,196196,2,0,L|405:231,1,100,10|10,0:0|0:0,0:0:0:0:
506,111,196631,5,14,0:0:0:0:
495,122,196739,1,2,0:0:0:0:
484,131,196848,1,2,0:0:0:0:
471,139,196957,1,2,0:0:0:0:
457,145,197066,1,10,0:0:0:0:
443,149,197174,1,2,0:0:0:0:
428,151,197283,1,10,0:0:0:0:
413,151,197392,1,2,0:0:0:0:
401,150,197500,2,0,P|342:125|322:121,3,50,10|2|10|2,0:0|0:0|0:0|0:0,0:0:0:0:
206,161,197934,1,10,0:0:0:0:
202,180,198043,1,2,0:0:0:0:
201,200,198151,1,10,0:0:0:0:
204,220,198260,1,2,0:0:0:0:
208,239,198369,6,0,P|240:250|281:253,3,50,10|2|10|2,0:0|0:0|0:0|0:0,0:0:0:0:
113,279,198803,2,0,P|125:306|146:331,3,50,10|2|10|2,0:0|0:0|0:0|0:0,0:0:0:0:
25,226,199238,2,0,P|12:253|6:285,3,50,10|2|10|2,0:0|0:0|0:0|0:0,0:0:0:0:
121,175,199673,5,14,0:0:0:0:
129,156,199782,1,2,0:0:0:0:
132,136,199890,1,10,0:0:0:0:
132,116,199999,1,2,0:0:0:0:
127,96,200108,1,10,0:0:0:0:
126,76,200217,1,2,0:0:0:0:
130,56,200325,1,10,0:0:0:0:
137,37,200434,1,2,0:0:0:0:
148,20,200543,2,0,P|190:8|228:11,3,50,10|2|10|2,0:0|0:0|0:0|0:0,0:0:0:0:
236,107,200977,2,0,L|365:121,1,99.9999999999999,14|14,0:0|0:0,0:0:0:0:
394,91,201413,1,10,0:0:0:0:
383,101,201521,1,2,0:0:0:0:
373,113,201630,1,10,0:0:0:0:
365,125,201739,1,2,0:0:0:0:
359,139,201848,1,10,0:0:0:0:
354,153,201956,1,2,0:0:0:0:
351,168,202065,1,10,0:0:0:0:
350,183,202174,1,2,0:0:0:0:
350,198,202282,1,10,0:0:0:0:
353,212,202391,1,2,0:0:0:0:
357,227,202500,1,10,0:0:0:0:
364,240,202608,1,2,0:0:0:0:
373,257,202717,6,0,B|414:287|414:287|506:292,1,100,10|6,0:0|0:0,0:0:0:0:
159,134,203152,2,0,B|98:154|98:154|65:221,1,97.9999970092774,6|6,0:0|0:0,0:0:0:0:
451,188,203587,2,0,B|459:103|459:103|433:66,1,97.9999970092774,6|6,0:0|0:0,0:0:0:0:
175,238,204021,5,6,0:0:0:0:
194,233,204130,1,2,0:0:0:0:
212,225,204239,1,2,0:0:0:0:
228,213,204348,1,2,0:0:0:0:
242,199,204456,1,2,0:0:0:0:
253,182,204565,1,2,0:0:0:0:
260,163,204674,1,10,0:0:0:0:
263,144,204782,1,2,0:0:0:0:
263,124,204891,2,0,L|255:60,3,50,10|2|10|2,0:0|0:0|0:0|0:0,0:0:0:0:
354,31,205326,2,0,L|372:168,1,100,14|14,0:0|0:0,0:0:0:0:
279,350,205761,5,0,0:0:0:0:
285,333,205869,1,0,0:0:0:0:
291,319,205978,1,14,0:0:0:0:
299,306,206086,1,2,0:0:0:0:
309,295,206195,1,10,0:0:0:0:
320,285,206304,1,2,0:0:0:0:
333,277,206412,1,10,0:0:0:0:
346,270,206521,1,2,0:0:0:0:
360,265,206630,2,0,P|393:260|435:264,3,50,14|2|10|2,0:0|0:0|0:0|0:0,0:0:0:0:
287,180,207065,5,14,0:0:0:0:
267,177,207173,1,2,0:0:0:0:
247,174,207282,1,10,0:0:0:0:
227,171,207391,1,2,0:0:0:0:
207,168,207499,1,10,0:0:0:0:
187,165,207608,1,2,0:0:0:0:
167,162,207717,1,10,0:0:0:0:
147,159,207825,1,2,0:0:0:0:
126,158,207935,6,0,B|97:203|97:203|108:274,2,100,10|10|10,0:0|0:0|0:0,0:0:0:0:
303,82,208588,1,10,0:0:0:0:
176,46,208805,1,4,0:0:0:0:
156,44,208914,1,2,0:0:0:0:
136,42,209022,1,4,0:0:0:0:
116,40,209131,1,2,0:0:0:0:
96,38,209240,2,0,B|44:93|44:93|53:154,1,97.9999970092774,2|8,0:0|0:0,0:0:0:0:
282,335,209674,5,8,0:0:0:0:
300,216,209891,1,10,0:0:0:0:
192,253,210109,1,10,0:0:0:0:
318,276,210326,5,10,0:0:0:0:
237,211,210544,1,10,0:0:0:0:
221,309,210761,1,10,0:0:0:0:
332,168,210978,6,0,L|345:63,2,100,10|10|10,0:0|0:0|0:0,0:0:0:0:
114,348,211631,5,6,0:0:0:0:
101,209,211848,1,6,0:0:0:0:
88,74,212065,1,6,0:0:0:0:
244,312,212282,5,6,0:0:0:0:
228,208,212499,1,6,0:0:0:0:
216,110,212717,1,6,0:0:0:0:
428,292,212935,5,6,0:0:0:0:
329,259,213152,1,6,0:0:0:0:
357,159,213369,1,6,0:0:0:0:
453,191,213587,1,6,0:0:0:0:
428,292,213804,1,0,0:0:0:0:
310,265,214022,6,0,P|279:260|254:247,11,50,14|2|2|2|2|2|10|2|0|0|0|0,0:0|0:0|0:0|0:0|0:0|0:0|0:0|0:0|0:0|0:0|0:0|0:0,0:0:0:0:
413,224,215326,2,0,P|467:226|520:253,1,100,10|10,0:0|0:0,0:0:0:0:
196,335,215761,1,10,0:0:0:0:
185,324,215869,1,2,0:0:0:0:
176,312,215978,1,10,0:0:0:0:
169,299,216087,1,2,0:0:0:0:
163,285,216196,1,10,0:0:0:0:
160,270,216304,1,2,0:0:0:0:
158,255,216413,1,10,0:0:0:0:
159,240,216522,1,2,0:0:0:0:
161,226,216630,2,0,L|171:132,7,50,10|2|10|2|10|2|10|2,0:0|0:0|0:0|0:0|0:0|0:0|0:0|0:0,0:0:0:0:
96,93,217500,6,0,P|44:77|15:79,3,50,10|2|10|2,0:0|0:0|0:0|0:0,0:0:0:0:
201,80,217935,2,0,P|184:28|166:5,3,50,10|2|10|2,0:0|0:0|0:0|0:0,0:0:0:0:
270,158,218370,2,0,P|302:114|310:86,3,50,10|2|10|2,0:0|0:0|0:0|0:0,0:0:0:0:
166,176,218805,5,14,0:0:0:0:
158,194,218913,1,2,0:0:0:0:
153,213,219022,1,10,0:0:0:0:
152,233,219131,1,2,0:0:0:0:
155,253,219239,1,10,0:0:0:0:
162,272,219348,1,2,0:0:0:0:
167,291,219457,1,10,0:0:0:0:
169,311,219565,1,2,0:0:0:0:
168,331,219674,2,0,P|135:342|92:348,3,50,10|2|10|2,0:0|0:0|0:0|0:0,0:0:0:0:
254,225,220109,2,0,P|335:236|373:267,1,100,10|10,0:0|0:0,0:0:0:0:
464,368,220544,1,10,0:0:0:0:
464,368,220652,1,2,0:0:0:0:
464,368,220761,2,0,L|451:248,1,100,10|10,0:0|0:0,0:0:0:0:
309,46,221413,5,0,0:0:0:0:
52,119,221848,1,0,0:0:0:0:
382,348,222282,2,0,L|282:251,1,97.9999970092774
