osu file format v14

[General]
AudioFilename: audio.mp3
AudioLeadIn: 0
PreviewTime: -1
Countdown: 0
SampleSet: Normal
StackLeniency: 0.7
Mode: 2
LetterboxInBreaks: 0
WidescreenStoryboard: 1

[Editor]
Bookmarks: 10200,13400,19800,23000,24600,27000,28600
DistanceSpacing: 0.2
BeatDivisor: 16
GridSize: 32
TimelineZoom: 8

[Metadata]
Title:Zoidberg The Cowboy
TitleUnicode:Zoidberg The Cowboy
Artist:Schmutz06
ArtistUnicode:Schmutz06
Creator:CrayZigg
Version:Hyperwalk
Source:
Tags:
BeatmapID:1965600
BeatmapSetID:941221

[Difficulty]
HPDrainRate:5
CircleSize:3.7
OverallDifficulty:3.7
ApproachRate:9.8
SliderMultiplier:1.8
SliderTickRate:1

[Events]
//Background and Video events
0,0,"zoidberg.jpg",0,0
//Break Periods
//Storyboard Layer 0 (Background)
//Storyboard Layer 1 (Fail)
//Storyboard Layer 2 (Pass)
//Storyboard Layer 3 (Foreground)
//Storyboard Sound Samples

[TimingPoints]
3000,400,4,1,0,40,1,0
3800,400,4,1,0,40,1,0
19000,133.333333333333,4,1,0,40,1,0
19200,400,4,1,0,40,1,0
19800,400,4,1,0,40,1,0
24600,100,4,1,0,40,1,0
26200,400,4,1,0,40,1,0

[Colours]
Combo1 : 255,0,0
Combo2 : 255,0,0

[HitObjects]
64,64,3000,5,0,0:0:0:0:
67,74,3025,1,0,0:0:0:0:
62,86,3050,1,0,0:0:0:0:
66,96,3075,1,0,0:0:0:0:
64,108,3100,1,0,0:0:0:0:
69,119,3125,1,0,0:0:0:0:
68,130,3150,1,0,0:0:0:0:
74,141,3175,1,0,0:0:0:0:
75,152,3200,1,0,0:0:0:0:
81,162,3225,1,0,0:0:0:0:
84,172,3250,1,0,0:0:0:0:
91,182,3275,1,0,0:0:0:0:
96,192,3300,1,0,0:0:0:0:
103,201,3325,1,0,0:0:0:0:
110,209,3350,1,0,0:0:0:0:
118,218,3375,1,0,0:0:0:0:
125,225,3400,1,0,0:0:0:0:
134,233,3425,1,0,0:0:0:0:
143,239,3450,1,0,0:0:0:0:
153,247,3475,1,0,0:0:0:0:
162,251,3500,1,0,0:0:0:0:
172,258,3525,1,0,0:0:0:0:
183,260,3550,1,0,0:0:0:0:
193,266,3575,1,0,0:0:0:0:
204,267,3600,1,0,0:0:0:0:
215,272,3625,1,0,0:0:0:0:
226,271,3650,1,0,0:0:0:0:
237,276,3675,1,0,0:0:0:0:
249,273,3700,1,0,0:0:0:0:
259,276,3725,1,0,0:0:0:0:
271,272,3750,1,0,0:0:0:0:
282,274,3775,1,0,0:0:0:0:
400,192,3800,5,0,0:0:0:0:
411,192,3825,1,0,0:0:0:0:
422,192,3850,1,0,0:0:0:0:
433,192,3875,1,0,0:0:0:0:
444,192,3900,1,0,0:0:0:0:
432,192,3925,1,0,0:0:0:0:
420,192,3950,1,0,0:0:0:0:
408,192,3975,1,0,0:0:0:0:
128,192,4000,5,0,0:0:0:0:
117,192,4025,1,0,0:0:0:0:
106,192,4050,1,0,0:0:0:0:
95,192,4075,1,0,0:0:0:0:
84,192,4100,1,0,0:0:0:0:
96,192,4125,1,0,0:0:0:0:
108,192,4150,1,0,0:0:0:0:
120,192,4175,1,0,0:0:0:0:
400,112,4200,5,0,0:0:0:0:
408,112,4225,1,0,0:0:0:0:
420,112,4250,1,0,0:0:0:0:
432,112,4275,1,0,0:0:0:0:
443,112,4300,1,0,0:0:0:0:
432,112,4325,1,0,0:0:0:0:
420,112,4350,1,0,0:0:0:0:
408,112,4375,1,0,0:0:0:0:
224,112,4400,5,0,0:0:0:0:
213,112,4425,1,0,0:0:0:0:
202,112,4450,1,0,0:0:0:0:
191,112,4475,1,0,0:0:0:0:
180,112,4500,1,0,0:0:0:0:
192,112,4525,1,0,0:0:0:0:
204,112,4550,1,0,0:0:0:0:
216,112,4575,1,0,0:0:0:0:
384,288,4600,5,0,0:0:0:0:
396,288,4625,1,0,0:0:0:0:
408,288,4650,1,0,0:0:0:0:
420,288,4675,1,0,0:0:0:0:
432,288,4700,1,0,0:0:0:0:
421,288,4725,1,0,0:0:0:0:
410,288,4750,1,0,0:0:0:0:
399,288,4775,1,0,0:0:0:0:
48,288,4800,5,0,0:0:0:0:
37,288,4825,1,0,0:0:0:0:
26,288,4850,1,0,0:0:0:0:
15,288,4875,1,0,0:0:0:0:
4,288,4900,1,0,0:0:0:0:
16,288,4925,1,0,0:0:0:0:
28,288,4950,1,0,0:0:0:0:
40,288,4975,1,0,0:0:0:0:
336,192,5000,5,0,0:0:0:0:
348,192,5025,1,0,0:0:0:0:
360,192,5050,1,0,0:0:0:0:
372,192,5075,1,0,0:0:0:0:
384,192,5100,1,0,0:0:0:0:
373,192,5125,1,0,0:0:0:0:
362,192,5150,1,0,0:0:0:0:
351,192,5175,1,0,0:0:0:0:
160,192,5200,5,0,0:0:0:0:
148,192,5225,1,0,0:0:0:0:
136,192,5250,1,0,0:0:0:0:
124,192,5275,1,0,0:0:0:0:
112,192,5300,1,0,0:0:0:0:
123,192,5325,1,0,0:0:0:0:
134,192,5350,1,0,0:0:0:0:
145,192,5375,1,0,0:0:0:0:
508,192,5400,5,0,0:0:0:0:
508,192,5425,1,0,0:0:0:0:
508,192,5450,1,0,0:0:0:0:
508,192,5475,1,0,0:0:0:0:
508,192,5500,1,0,0:0:0:0:
508,192,5525,1,0,0:0:0:0:
508,192,5550,1,0,0:0:0:0:
508,192,5575,1,0,0:0:0:0:
0,192,5600,5,0,0:0:0:0:
0,192,5625,1,0,0:0:0:0:
0,192,5650,1,0,0:0:0:0:
0,192,5675,1,0,0:0:0:0:
0,192,5700,1,0,0:0:0:0:
0,192,5725,1,0,0:0:0:0:
0,192,5750,1,0,0:0:0:0:
0,192,5775,1,0,0:0:0:0:
512,192,5800,5,0,0:0:0:0:
512,192,5825,1,0,0:0:0:0:
512,192,5850,1,0,0:0:0:0:
512,192,5875,1,0,0:0:0:0:
512,192,5900,1,0,0:0:0:0:
512,192,5925,1,0,0:0:0:0:
512,192,5950,1,0,0:0:0:0:
512,192,5975,1,0,0:0:0:0:
0,192,6000,5,0,0:0:0:0:
0,192,6025,1,0,0:0:0:0:
0,192,6050,1,0,0:0:0:0:
0,192,6075,1,0,0:0:0:0:
0,192,6100,1,0,0:0:0:0:
0,192,6125,1,0,0:0:0:0:
0,192,6150,1,0,0:0:0:0:
0,192,6175,1,0,0:0:0:0:
336,48,6200,5,0,0:0:0:0:
347,48,6225,1,0,0:0:0:0:
358,48,6250,1,0,0:0:0:0:
369,48,6275,1,0,0:0:0:0:
166,48,6300,5,0,0:0:0:0:
155,48,6325,1,0,0:0:0:0:
143,48,6350,1,0,0:0:0:0:
131,48,6375,1,0,0:0:0:0:
368,128,6400,5,0,0:0:0:0:
379,128,6425,1,0,0:0:0:0:
390,128,6450,1,0,0:0:0:0:
401,128,6475,1,0,0:0:0:0:
134,128,6500,5,0,0:0:0:0:
123,128,6525,1,0,0:0:0:0:
111,128,6550,1,0,0:0:0:0:
99,128,6575,1,0,0:0:0:0:
405,192,6600,5,0,0:0:0:0:
416,192,6625,1,0,0:0:0:0:
427,192,6650,1,0,0:0:0:0:
438,192,6675,1,0,0:0:0:0:
107,192,6700,5,0,0:0:0:0:
96,192,6725,1,0,0:0:0:0:
84,192,6750,1,0,0:0:0:0:
72,192,6775,1,0,0:0:0:0:
432,256,6800,5,0,0:0:0:0:
443,256,6825,1,0,0:0:0:0:
454,256,6850,1,0,0:0:0:0:
465,256,6875,1,0,0:0:0:0:
86,256,6900,5,0,0:0:0:0:
75,256,6925,1,0,0:0:0:0:
63,256,6950,1,0,0:0:0:0:
51,256,6975,1,0,0:0:0:0:
256,96,7000,5,0,0:0:0:0:
267,96,7025,1,0,0:0:0:0:
278,96,7050,1,0,0:0:0:0:
289,96,7075,1,0,0:0:0:0:
300,96,7100,1,0,0:0:0:0:
288,96,7125,1,0,0:0:0:0:
276,96,7150,1,0,0:0:0:0:
264,96,7175,1,0,0:0:0:0:
86,96,7200,5,0,0:0:0:0:
75,96,7225,1,0,0:0:0:0:
64,96,7250,1,0,0:0:0:0:
53,96,7275,1,0,0:0:0:0:
42,96,7300,1,0,0:0:0:0:
54,96,7325,1,0,0:0:0:0:
66,96,7350,1,0,0:0:0:0:
78,96,7375,1,0,0:0:0:0:
432,192,7400,5,0,0:0:0:0:
443,192,7425,1,0,0:0:0:0:
454,192,7450,1,0,0:0:0:0:
465,192,7475,1,0,0:0:0:0:
476,192,7500,1,0,0:0:0:0:
464,192,7525,1,0,0:0:0:0:
452,192,7550,1,0,0:0:0:0:
440,192,7575,1,0,0:0:0:0:
166,192,7600,5,0,0:0:0:0:
155,192,7625,1,0,0:0:0:0:
144,192,7650,1,0,0:0:0:0:
133,192,7675,1,0,0:0:0:0:
122,192,7700,1,0,0:0:0:0:
134,192,7725,1,0,0:0:0:0:
146,192,7750,1,0,0:0:0:0:
158,192,7775,1,0,0:0:0:0:
320,288,7800,5,0,0:0:0:0:
331,288,7825,1,0,0:0:0:0:
342,288,7850,1,0,0:0:0:0:
353,288,7875,1,0,0:0:0:0:
364,288,7900,1,0,0:0:0:0:
352,288,7925,1,0,0:0:0:0:
340,288,7950,1,0,0:0:0:0:
328,288,7975,1,0,0:0:0:0:
177,288,8000,5,0,0:0:0:0:
166,288,8025,1,0,0:0:0:0:
155,288,8050,1,0,0:0:0:0:
144,288,8075,1,0,0:0:0:0:
133,288,8100,1,0,0:0:0:0:
145,288,8125,1,0,0:0:0:0:
157,288,8150,1,0,0:0:0:0:
169,288,8175,1,0,0:0:0:0:
384,192,8200,5,0,0:0:0:0:
395,192,8225,1,0,0:0:0:0:
406,192,8250,1,0,0:0:0:0:
417,192,8275,1,0,0:0:0:0:
428,192,8300,1,0,0:0:0:0:
416,192,8325,1,0,0:0:0:0:
404,192,8350,1,0,0:0:0:0:
392,192,8375,1,0,0:0:0:0:
112,192,8400,5,0,0:0:0:0:
101,192,8425,1,0,0:0:0:0:
90,192,8450,1,0,0:0:0:0:
79,192,8475,1,0,0:0:0:0:
68,192,8500,1,0,0:0:0:0:
80,192,8525,1,0,0:0:0:0:
92,192,8550,1,0,0:0:0:0:
104,192,8575,1,0,0:0:0:0:
512,192,8600,5,0,0:0:0:0:
512,192,8625,1,0,0:0:0:0:
512,192,8650,1,0,0:0:0:0:
512,192,8675,1,0,0:0:0:0:
512,192,8700,1,0,0:0:0:0:
512,192,8725,1,0,0:0:0:0:
512,192,8750,1,0,0:0:0:0:
512,192,8775,1,0,0:0:0:0:
336,192,8800,5,0,0:0:0:0:
325,192,8825,1,0,0:0:0:0:
314,192,8850,1,0,0:0:0:0:
303,192,8875,1,0,0:0:0:0:
292,192,8900,1,0,0:0:0:0:
304,192,8925,1,0,0:0:0:0:
316,192,8950,1,0,0:0:0:0:
328,192,8975,1,0,0:0:0:0:
512,192,9000,5,0,0:0:0:0:
512,192,9025,1,0,0:0:0:0:
512,192,9050,1,0,0:0:0:0:
512,192,9075,1,0,0:0:0:0:
512,192,9100,1,0,0:0:0:0:
512,192,9125,1,0,0:0:0:0:
512,192,9150,1,0,0:0:0:0:
512,192,9175,1,0,0:0:0:0:
208,192,9200,5,0,0:0:0:0:
197,192,9225,1,0,0:0:0:0:
186,192,9250,1,0,0:0:0:0:
175,192,9275,1,0,0:0:0:0:
164,192,9300,1,0,0:0:0:0:
176,192,9325,1,0,0:0:0:0:
188,192,9350,1,0,0:0:0:0:
200,192,9375,1,0,0:0:0:0:
512,192,9400,5,0,0:0:0:0:
512,192,9425,1,0,0:0:0:0:
512,192,9450,1,0,0:0:0:0:
512,192,9475,1,0,0:0:0:0:
512,192,9500,1,0,0:0:0:0:
512,192,9525,1,0,0:0:0:0:
512,192,9550,1,0,0:0:0:0:
512,192,9575,1,0,0:0:0:0:
80,192,9600,5,0,0:0:0:0:
69,192,9625,1,0,0:0:0:0:
58,192,9650,1,0,0:0:0:0:
47,192,9675,1,0,0:0:0:0:
36,192,9700,1,0,0:0:0:0:
48,192,9725,1,0,0:0:0:0:
60,192,9750,1,0,0:0:0:0:
72,192,9775,1,0,0:0:0:0:
512,192,9800,5,0,0:0:0:0:
512,192,9825,1,0,0:0:0:0:
512,192,9850,1,0,0:0:0:0:
512,192,9875,1,0,0:0:0:0:
512,192,9900,1,0,0:0:0:0:
512,192,9925,1,0,0:0:0:0:
512,192,9950,1,0,0:0:0:0:
512,192,9975,1,0,0:0:0:0:
160,192,10000,5,0,0:0:0:0:
149,192,10025,1,0,0:0:0:0:
138,192,10050,1,0,0:0:0:0:
127,192,10075,1,0,0:0:0:0:
352,192,10100,1,0,0:0:0:0:
364,192,10125,1,0,0:0:0:0:
376,192,10150,1,0,0:0:0:0:
388,192,10175,1,0,0:0:0:0:
64,48,10200,5,0,0:0:0:0:
52,48,10225,1,0,0:0:0:0:
40,48,10250,1,0,0:0:0:0:
52,48,10275,1,0,0:0:0:0:
295,46,10300,5,0,0:0:0:0:
307,46,10325,1,0,0:0:0:0:
319,46,10350,1,0,0:0:0:0:
307,46,10375,1,0,0:0:0:0:
176,128,10400,5,0,0:0:0:0:
164,128,10425,1,0,0:0:0:0:
152,128,10450,1,0,0:0:0:0:
164,128,10475,1,0,0:0:0:0:
455,126,10500,5,0,0:0:0:0:
467,126,10525,1,0,0:0:0:0:
479,126,10550,1,0,0:0:0:0:
467,126,10575,1,0,0:0:0:0:
96,224,10600,5,0,0:0:0:0:
84,224,10625,1,0,0:0:0:0:
72,224,10650,1,0,0:0:0:0:
84,224,10675,1,0,0:0:0:0:
288,224,10700,5,0,0:0:0:0:
300,224,10725,1,0,0:0:0:0:
312,224,10750,1,0,0:0:0:0:
300,224,10775,1,0,0:0:0:0:
160,320,10800,5,0,0:0:0:0:
148,320,10825,1,0,0:0:0:0:
136,320,10850,1,0,0:0:0:0:
148,320,10875,1,0,0:0:0:0:
439,318,10900,5,0,0:0:0:0:
451,318,10925,1,0,0:0:0:0:
463,318,10950,1,0,0:0:0:0:
451,318,10975,1,0,0:0:0:0:
240,48,11000,5,0,0:0:0:0:
228,48,11025,1,0,0:0:0:0:
216,48,11050,1,0,0:0:0:0:
228,48,11075,1,0,0:0:0:0:
448,48,11100,5,0,0:0:0:0:
460,48,11125,1,0,0:0:0:0:
472,48,11150,1,0,0:0:0:0:
460,48,11175,1,0,0:0:0:0:
80,144,11200,5,0,0:0:0:0:
68,144,11225,1,0,0:0:0:0:
56,144,11250,1,0,0:0:0:0:
68,144,11275,1,0,0:0:0:0:
256,144,11300,5,0,0:0:0:0:
268,144,11325,1,0,0:0:0:0:
280,144,11350,1,0,0:0:0:0:
268,144,11375,1,0,0:0:0:0:
144,240,11400,5,0,0:0:0:0:
132,240,11425,1,0,0:0:0:0:
120,240,11450,1,0,0:0:0:0:
132,240,11475,1,0,0:0:0:0:
416,240,11500,5,0,0:0:0:0:
428,240,11525,1,0,0:0:0:0:
440,240,11550,1,0,0:0:0:0:
428,240,11575,1,0,0:0:0:0:
160,336,11600,5,0,0:0:0:0:
148,336,11625,1,0,0:0:0:0:
136,336,11650,1,0,0:0:0:0:
148,336,11675,1,0,0:0:0:0:
352,336,11700,5,0,0:0:0:0:
364,336,11725,1,0,0:0:0:0:
376,336,11750,1,0,0:0:0:0:
364,336,11775,1,0,0:0:0:0:
64,192,11800,5,0,0:0:0:0:
52,192,11825,1,0,0:0:0:0:
40,192,11850,1,0,0:0:0:0:
52,192,11875,1,0,0:0:0:0:
448,192,11900,5,0,0:0:0:0:
460,192,11925,1,0,0:0:0:0:
472,192,11950,1,0,0:0:0:0:
460,192,11975,1,0,0:0:0:0:
128,192,12000,5,0,0:0:0:0:
116,192,12025,1,0,0:0:0:0:
104,192,12050,1,0,0:0:0:0:
116,192,12075,1,0,0:0:0:0:
384,192,12100,5,0,0:0:0:0:
396,192,12125,1,0,0:0:0:0:
408,192,12150,1,0,0:0:0:0:
396,192,12175,1,0,0:0:0:0:
192,192,12200,5,0,0:0:0:0:
180,192,12225,1,0,0:0:0:0:
168,192,12250,1,0,0:0:0:0:
180,192,12275,1,0,0:0:0:0:
320,192,12300,5,0,0:0:0:0:
332,192,12325,1,0,0:0:0:0:
344,192,12350,1,0,0:0:0:0:
332,192,12375,1,0,0:0:0:0:
0,192,12400,5,0,0:0:0:0:
0,192,12575,1,0,0:0:0:0:
512,192,12600,1,0,0:0:0:0:
512,192,12875,1,0,0:0:0:0:
0,192,12900,1,0,0:0:0:0:
0,192,12975,1,0,0:0:0:0:
512,192,13000,1,0,0:0:0:0:
512,192,13175,1,0,0:0:0:0:
0,192,13200,1,0,0:0:0:0:
0,192,13375,1,0,0:0:0:0:
352,48,13400,5,0,0:0:0:0:
363,48,13425,1,0,0:0:0:0:
374,48,13450,1,0,0:0:0:0:
385,48,13475,1,0,0:0:0:0:
396,48,13500,1,0,0:0:0:0:
384,48,13525,1,0,0:0:0:0:
372,48,13550,1,0,0:0:0:0:
360,48,13575,1,0,0:0:0:0:
192,48,13600,5,0,0:0:0:0:
181,48,13625,1,0,0:0:0:0:
170,48,13650,1,0,0:0:0:0:
159,48,13675,1,0,0:0:0:0:
148,48,13700,1,0,0:0:0:0:
160,48,13725,1,0,0:0:0:0:
172,48,13750,1,0,0:0:0:0:
184,48,13775,1,0,0:0:0:0:
448,160,13800,5,0,0:0:0:0:
459,160,13825,1,0,0:0:0:0:
470,160,13850,1,0,0:0:0:0:
481,160,13875,1,0,0:0:0:0:
492,160,13900,1,0,0:0:0:0:
480,160,13925,1,0,0:0:0:0:
468,160,13950,1,0,0:0:0:0:
456,160,13975,1,0,0:0:0:0:
80,160,14000,5,0,0:0:0:0:
69,160,14025,1,0,0:0:0:0:
58,160,14050,1,0,0:0:0:0:
47,160,14075,1,0,0:0:0:0:
36,160,14100,1,0,0:0:0:0:
48,160,14125,1,0,0:0:0:0:
60,160,14150,1,0,0:0:0:0:
72,160,14175,1,0,0:0:0:0:
352,256,14200,5,0,0:0:0:0:
363,256,14225,1,0,0:0:0:0:
374,256,14250,1,0,0:0:0:0:
385,256,14275,1,0,0:0:0:0:
396,256,14300,1,0,0:0:0:0:
384,256,14325,1,0,0:0:0:0:
372,256,14350,1,0,0:0:0:0:
360,256,14375,1,0,0:0:0:0:
160,256,14400,5,0,0:0:0:0:
149,256,14425,1,0,0:0:0:0:
138,256,14450,1,0,0:0:0:0:
127,256,14475,1,0,0:0:0:0:
116,256,14500,1,0,0:0:0:0:
128,256,14525,1,0,0:0:0:0:
140,256,14550,1,0,0:0:0:0:
152,256,14575,1,0,0:0:0:0:
448,352,14600,5,0,0:0:0:0:
459,352,14625,1,0,0:0:0:0:
470,352,14650,1,0,0:0:0:0:
481,352,14675,1,0,0:0:0:0:
492,352,14700,1,0,0:0:0:0:
480,352,14725,1,0,0:0:0:0:
468,352,14750,1,0,0:0:0:0:
456,352,14775,1,0,0:0:0:0:
272,352,14800,5,0,0:0:0:0:
261,352,14825,1,0,0:0:0:0:
250,352,14850,1,0,0:0:0:0:
239,352,14875,1,0,0:0:0:0:
228,352,14900,1,0,0:0:0:0:
240,352,14925,1,0,0:0:0:0:
252,352,14950,1,0,0:0:0:0:
264,352,14975,1,0,0:0:0:0:
448,192,15000,5,0,0:0:0:0:
459,192,15025,1,0,0:0:0:0:
470,192,15050,1,0,0:0:0:0:
481,192,15075,1,0,0:0:0:0:
492,192,15100,1,0,0:0:0:0:
480,192,15125,1,0,0:0:0:0:
468,192,15150,1,0,0:0:0:0:
456,192,15175,1,0,0:0:0:0:
288,192,15200,5,0,0:0:0:0:
277,192,15225,1,0,0:0:0:0:
266,192,15250,1,0,0:0:0:0:
255,192,15275,1,0,0:0:0:0:
244,192,15300,1,0,0:0:0:0:
232,192,15325,1,0,0:0:0:0:
220,192,15350,1,0,0:0:0:0:
208,192,15375,1,0,0:0:0:0:
64,192,15400,5,0,0:0:0:0:
53,192,15425,1,0,0:0:0:0:
42,192,15450,1,0,0:0:0:0:
31,192,15475,1,0,0:0:0:0:
20,192,15500,1,0,0:0:0:0:
32,192,15525,1,0,0:0:0:0:
44,192,15550,1,0,0:0:0:0:
56,192,15575,1,0,0:0:0:0:
224,192,15600,5,0,0:0:0:0:
235,192,15625,1,0,0:0:0:0:
246,192,15650,1,0,0:0:0:0:
257,192,15675,1,0,0:0:0:0:
268,192,15700,1,0,0:0:0:0:
280,192,15725,1,0,0:0:0:0:
292,192,15750,1,0,0:0:0:0:
304,192,15775,1,0,0:0:0:0:
512,32,15800,5,0,0:0:0:0:
500,32,15825,1,0,0:0:0:0:
488,32,15850,1,0,0:0:0:0:
476,32,15875,1,0,0:0:0:0:
288,32,15900,5,0,0:0:0:0:
276,32,15925,1,0,0:0:0:0:
287,32,15950,1,0,0:0:0:0:
298,32,15975,1,0,0:0:0:0:
448,128,16000,5,0,0:0:0:0:
456,128,16025,1,0,0:0:0:0:
448,128,16050,1,0,0:0:0:0:
436,128,16075,1,0,0:0:0:0:
224,128,16100,5,0,0:0:0:0:
212,128,16125,1,0,0:0:0:0:
223,128,16150,1,0,0:0:0:0:
234,128,16175,1,0,0:0:0:0:
416,224,16200,5,0,0:0:0:0:
424,224,16225,1,0,0:0:0:0:
416,224,16250,1,0,0:0:0:0:
404,224,16275,1,0,0:0:0:0:
128,224,16300,5,0,0:0:0:0:
116,224,16325,1,0,0:0:0:0:
127,224,16350,1,0,0:0:0:0:
138,224,16375,1,0,0:0:0:0:
384,320,16400,5,0,0:0:0:0:
392,320,16425,1,0,0:0:0:0:
384,320,16450,1,0,0:0:0:0:
372,320,16475,1,0,0:0:0:0:
32,320,16500,5,0,0:0:0:0:
20,320,16525,1,0,0:0:0:0:
31,320,16550,1,0,0:0:0:0:
42,320,16575,1,0,0:0:0:0:
352,224,16600,5,0,0:0:0:0:
368,288,16600,5,0,0:0:0:0:
363,224,16625,1,0,0:0:0:0:
379,288,16625,1,0,0:0:0:0:
374,224,16650,1,0,0:0:0:0:
390,288,16650,1,0,0:0:0:0:
385,224,16675,1,0,0:0:0:0:
401,288,16675,1,0,0:0:0:0:
396,224,16700,1,0,0:0:0:0:
412,288,16700,1,0,0:0:0:0:
384,224,16725,1,0,0:0:0:0:
400,288,16725,1,0,0:0:0:0:
372,224,16750,1,0,0:0:0:0:
388,288,16750,1,0,0:0:0:0:
360,224,16775,1,0,0:0:0:0:
376,288,16775,1,0,0:0:0:0:
160,160,16800,5,0,0:0:0:0:
144,224,16800,5,0,0:0:0:0:
149,160,16825,1,0,0:0:0:0:
133,224,16825,1,0,0:0:0:0:
122,224,16850,1,0,0:0:0:0:
138,160,16850,1,0,0:0:0:0:
127,160,16875,1,0,0:0:0:0:
111,224,16875,1,0,0:0:0:0:
116,160,16900,1,0,0:0:0:0:
100,224,16900,1,0,0:0:0:0:
112,224,16925,1,0,0:0:0:0:
128,160,16925,1,0,0:0:0:0:
124,224,16950,1,0,0:0:0:0:
140,160,16950,1,0,0:0:0:0:
152,160,16975,1,0,0:0:0:0:
136,224,16975,1,0,0:0:0:0:
416,112,17000,5,0,0:0:0:0:
432,176,17000,5,0,0:0:0:0:
427,112,17025,1,0,0:0:0:0:
443,176,17025,1,0,0:0:0:0:
454,176,17050,1,0,0:0:0:0:
438,112,17050,1,0,0:0:0:0:
465,176,17075,1,0,0:0:0:0:
449,112,17075,1,0,0:0:0:0:
476,176,17100,1,0,0:0:0:0:
460,112,17100,1,0,0:0:0:0:
464,176,17125,1,0,0:0:0:0:
448,112,17125,1,0,0:0:0:0:
452,176,17150,1,0,0:0:0:0:
436,112,17150,1,0,0:0:0:0:
424,112,17175,1,0,0:0:0:0:
440,176,17175,1,0,0:0:0:0:
208,128,17200,5,0,0:0:0:0:
224,64,17200,5,0,0:0:0:0:
213,64,17225,1,0,0:0:0:0:
197,128,17225,1,0,0:0:0:0:
186,128,17250,1,0,0:0:0:0:
202,64,17250,1,0,0:0:0:0:
191,64,17275,1,0,0:0:0:0:
175,128,17275,1,0,0:0:0:0:
180,64,17300,1,0,0:0:0:0:
164,128,17300,1,0,0:0:0:0:
176,128,17325,1,0,0:0:0:0:
192,64,17325,1,0,0:0:0:0:
204,64,17350,1,0,0:0:0:0:
188,128,17350,1,0,0:0:0:0:
200,128,17375,1,0,0:0:0:0:
216,64,17375,1,0,0:0:0:0:
336,288,17400,5,0,0:0:0:0:
347,288,17425,1,0,0:0:0:0:
358,288,17450,1,0,0:0:0:0:
369,288,17475,1,0,0:0:0:0:
380,288,17500,1,0,0:0:0:0:
368,288,17525,1,0,0:0:0:0:
356,288,17550,1,0,0:0:0:0:
344,288,17575,1,0,0:0:0:0:
176,288,17600,5,0,0:0:0:0:
165,288,17625,1,0,0:0:0:0:
154,288,17650,1,0,0:0:0:0:
143,288,17675,1,0,0:0:0:0:
132,288,17700,1,0,0:0:0:0:
144,288,17725,1,0,0:0:0:0:
156,288,17750,1,0,0:0:0:0:
168,288,17775,1,0,0:0:0:0:
416,128,17800,5,0,0:0:0:0:
432,192,17800,5,0,0:0:0:0:
427,128,17825,1,0,0:0:0:0:
443,192,17825,1,0,0:0:0:0:
454,192,17850,1,0,0:0:0:0:
438,128,17850,1,0,0:0:0:0:
465,192,17875,1,0,0:0:0:0:
449,128,17875,1,0,0:0:0:0:
476,192,17900,1,0,0:0:0:0:
460,128,17900,1,0,0:0:0:0:
464,192,17925,1,0,0:0:0:0:
448,128,17925,1,0,0:0:0:0:
452,192,17950,1,0,0:0:0:0:
436,128,17950,1,0,0:0:0:0:
424,128,17975,1,0,0:0:0:0:
440,192,17975,1,0,0:0:0:0:
80,192,18000,5,0,0:0:0:0:
96,128,18000,5,0,0:0:0:0:
85,128,18025,1,0,0:0:0:0:
69,192,18025,1,0,0:0:0:0:
58,192,18050,1,0,0:0:0:0:
74,128,18050,1,0,0:0:0:0:
63,128,18075,1,0,0:0:0:0:
47,192,18075,1,0,0:0:0:0:
52,128,18100,1,0,0:0:0:0:
36,192,18100,1,0,0:0:0:0:
48,192,18125,1,0,0:0:0:0:
64,128,18125,1,0,0:0:0:0:
76,128,18150,1,0,0:0:0:0:
60,192,18150,1,0,0:0:0:0:
72,192,18175,1,0,0:0:0:0:
88,128,18175,1,0,0:0:0:0:
336,48,18200,5,0,0:0:0:0:
347,48,18225,1,0,0:0:0:0:
358,48,18250,1,0,0:0:0:0:
369,48,18275,1,0,0:0:0:0:
380,48,18300,1,0,0:0:0:0:
368,48,18325,1,0,0:0:0:0:
356,48,18350,1,0,0:0:0:0:
344,48,18375,1,0,0:0:0:0:
224,48,18400,5,0,0:0:0:0:
213,48,18425,1,0,0:0:0:0:
202,48,18450,1,0,0:0:0:0:
191,48,18475,1,0,0:0:0:0:
180,48,18500,1,0,0:0:0:0:
192,48,18525,1,0,0:0:0:0:
204,48,18550,1,0,0:0:0:0:
216,48,18575,1,0,0:0:0:0:
384,176,18600,5,0,0:0:0:0:
395,176,18625,1,0,0:0:0:0:
406,176,18650,1,0,0:0:0:0:
417,176,18675,1,0,0:0:0:0:
428,176,18700,1,0,0:0:0:0:
416,176,18725,1,0,0:0:0:0:
404,176,18750,1,0,0:0:0:0:
392,176,18775,1,0,0:0:0:0:
128,176,18800,5,0,0:0:0:0:
117,176,18825,1,0,0:0:0:0:
106,176,18850,1,0,0:0:0:0:
95,176,18875,1,0,0:0:0:0:
84,176,18900,1,0,0:0:0:0:
96,176,18925,1,0,0:0:0:0:
108,176,18950,1,0,0:0:0:0:
120,176,18975,1,0,0:0:0:0:
512,304,19000,5,0,0:0:0:0:
512,304,19008,5,0,0:0:0:0:
512,304,19016,5,0,0:0:0:0:
512,304,19025,5,0,0:0:0:0:
512,304,19033,5,0,0:0:0:0:
512,304,19041,5,0,0:0:0:0:
512,304,19050,5,0,0:0:0:0:
512,304,19058,5,0,0:0:0:0:
512,304,19066,5,0,0:0:0:0:
512,304,19075,5,0,0:0:0:0:
512,304,19083,5,0,0:0:0:0:
512,304,19091,5,0,0:0:0:0:
512,304,19100,5,0,0:0:0:0:
512,304,19108,5,0,0:0:0:0:
512,304,19116,5,0,0:0:0:0:
512,304,19125,5,0,0:0:0:0:
512,304,19133,5,0,0:0:0:0:
512,112,19175,1,0,0:0:0:0:
176,112,19200,5,0,0:0:0:0:
164,112,19225,1,0,0:0:0:0:
164,112,19250,1,0,0:0:0:0:
176,160,19275,1,0,0:0:0:0:
416,160,19300,5,0,0:0:0:0:
427,160,19325,1,0,0:0:0:0:
427,160,19350,1,0,0:0:0:0:
416,240,19375,1,0,0:0:0:0:
96,240,19400,5,0,0:0:0:0:
84,240,19425,1,0,0:0:0:0:
84,240,19450,1,0,0:0:0:0:
96,304,19475,1,0,0:0:0:0:
384,304,19500,5,0,0:0:0:0:
395,304,19525,1,0,0:0:0:0:
395,304,19550,1,0,0:0:0:0:
384,96,19575,1,0,0:0:0:0:
112,96,19600,5,0,0:0:0:0:
100,96,19625,1,0,0:0:0:0:
100,96,19650,1,0,0:0:0:0:
112,176,19675,1,0,0:0:0:0:
288,176,19700,5,0,0:0:0:0:
299,176,19725,1,0,0:0:0:0:
299,176,19750,1,0,0:0:0:0:
288,176,19775,1,0,0:0:0:0:
0,192,19800,6,0,L|16:192,7,11.25
512,192,20000,6,0,L|496:192,7,11.25
0,192,20200,6,0,L|16:192,7,11.25
512,192,20400,6,0,L|496:192,7,11.25
0,192,20600,6,0,L|16:192,7,11.25
512,192,20800,6,0,L|496:192,7,11.25
0,192,21000,6,0,L|16:192,7,11.25
512,192,21200,6,0,L|496:192,7,11.25
0,192,21400,6,0,L|0:112,1,78.75
272,112,21600,1,0,0:0:0:0:
224,192,21800,1,0,0:0:0:0:
224,192,22000,1,0,0:0:0:0:
272,192,22200,1,0,0:0:0:0:
272,192,22400,1,0,0:0:0:0:
272,192,22600,1,0,0:0:0:0:
224,192,22800,1,0,0:0:0:0:
288,192,23000,6,0,L|288:144,1,45
224,192,23200,6,0,L|224:144,1,45
288,192,23400,6,0,L|288:144,1,45
224,192,23600,6,0,L|224:144,1,45
288,192,23800,6,0,L|288:144,1,45
224,192,24000,6,0,L|224:144,1,45
288,192,24200,5,0,0:0:0:0:
288,192,24375,5,0,0:0:0:0:
288,192,24575,5,0,0:0:0:0:
416,32,24600,5,0,0:0:0:0:
418,32,24606,1,0,0:0:0:0:
420,32,24612,1,0,0:0:0:0:
422,32,24618,1,0,0:0:0:0:
424,32,24625,1,0,0:0:0:0:
426,32,24631,1,0,0:0:0:0:
428,32,24637,1,0,0:0:0:0:
430,32,24643,1,0,0:0:0:0:
432,32,24650,1,0,0:0:0:0:
434,32,24656,1,0,0:0:0:0:
436,32,24662,1,0,0:0:0:0:
438,32,24668,1,0,0:0:0:0:
440,32,24675,1,0,0:0:0:0:
442,32,24681,1,0,0:0:0:0:
444,32,24687,1,0,0:0:0:0:
446,32,24693,1,0,0:0:0:0:
448,32,24700,1,0,0:0:0:0:
445,32,24706,1,0,0:0:0:0:
442,32,24712,1,0,0:0:0:0:
439,32,24718,1,0,0:0:0:0:
436,32,24725,1,0,0:0:0:0:
433,32,24731,1,0,0:0:0:0:
430,32,24737,1,0,0:0:0:0:
427,32,24743,1,0,0:0:0:0:
424,32,24750,1,0,0:0:0:0:
421,32,24756,1,0,0:0:0:0:
418,32,24762,1,0,0:0:0:0:
415,32,24768,1,0,0:0:0:0:
412,32,24775,1,0,0:0:0:0:
409,32,24781,1,0,0:0:0:0:
406,32,24787,1,0,0:0:0:0:
96,32,24800,5,0,0:0:0:0:
94,32,24806,1,0,0:0:0:0:
92,32,24812,1,0,0:0:0:0:
90,32,24818,1,0,0:0:0:0:
88,32,24825,1,0,0:0:0:0:
86,32,24831,1,0,0:0:0:0:
84,32,24837,1,0,0:0:0:0:
82,32,24843,1,0,0:0:0:0:
80,32,24850,1,0,0:0:0:0:
78,32,24856,1,0,0:0:0:0:
76,32,24862,1,0,0:0:0:0:
74,32,24868,1,0,0:0:0:0:
72,32,24875,1,0,0:0:0:0:
70,32,24881,1,0,0:0:0:0:
68,32,24887,1,0,0:0:0:0:
66,32,24893,1,0,0:0:0:0:
64,32,24900,1,0,0:0:0:0:
67,32,24906,1,0,0:0:0:0:
70,32,24912,1,0,0:0:0:0:
73,32,24918,1,0,0:0:0:0:
76,32,24925,1,0,0:0:0:0:
79,32,24931,1,0,0:0:0:0:
82,32,24937,1,0,0:0:0:0:
85,32,24943,1,0,0:0:0:0:
88,32,24950,1,0,0:0:0:0:
91,32,24956,1,0,0:0:0:0:
94,32,24962,1,0,0:0:0:0:
97,32,24968,1,0,0:0:0:0:
100,32,24975,1,0,0:0:0:0:
103,32,24981,1,0,0:0:0:0:
106,32,24987,1,0,0:0:0:0:
416,128,25000,5,0,0:0:0:0:
418,128,25006,1,0,0:0:0:0:
420,128,25012,1,0,0:0:0:0:
422,128,25018,1,0,0:0:0:0:
424,128,25025,1,0,0:0:0:0:
426,128,25031,1,0,0:0:0:0:
428,128,25037,1,0,0:0:0:0:
430,128,25043,1,0,0:0:0:0:
432,128,25050,1,0,0:0:0:0:
434,128,25056,1,0,0:0:0:0:
436,128,25062,1,0,0:0:0:0:
438,128,25068,1,0,0:0:0:0:
440,128,25075,1,0,0:0:0:0:
442,128,25081,1,0,0:0:0:0:
444,128,25087,1,0,0:0:0:0:
446,128,25093,1,0,0:0:0:0:
448,128,25100,1,0,0:0:0:0:
445,128,25106,1,0,0:0:0:0:
442,128,25112,1,0,0:0:0:0:
439,128,25118,1,0,0:0:0:0:
436,128,25125,1,0,0:0:0:0:
433,128,25131,1,0,0:0:0:0:
430,128,25137,1,0,0:0:0:0:
427,128,25143,1,0,0:0:0:0:
424,128,25150,1,0,0:0:0:0:
421,128,25156,1,0,0:0:0:0:
418,128,25162,1,0,0:0:0:0:
415,128,25168,1,0,0:0:0:0:
412,128,25175,1,0,0:0:0:0:
409,128,25181,1,0,0:0:0:0:
406,128,25187,1,0,0:0:0:0:
96,128,25200,5,0,0:0:0:0:
94,128,25206,1,0,0:0:0:0:
92,128,25212,1,0,0:0:0:0:
90,128,25218,1,0,0:0:0:0:
88,128,25225,1,0,0:0:0:0:
86,128,25231,1,0,0:0:0:0:
84,128,25237,1,0,0:0:0:0:
82,128,25243,1,0,0:0:0:0:
80,128,25250,1,0,0:0:0:0:
78,128,25256,1,0,0:0:0:0:
76,128,25262,1,0,0:0:0:0:
74,128,25268,1,0,0:0:0:0:
72,128,25275,1,0,0:0:0:0:
70,128,25281,1,0,0:0:0:0:
68,128,25287,1,0,0:0:0:0:
66,128,25293,1,0,0:0:0:0:
64,128,25300,1,0,0:0:0:0:
67,128,25306,1,0,0:0:0:0:
70,128,25312,1,0,0:0:0:0:
73,128,25318,1,0,0:0:0:0:
76,128,25325,1,0,0:0:0:0:
79,128,25331,1,0,0:0:0:0:
82,128,25337,1,0,0:0:0:0:
85,128,25343,1,0,0:0:0:0:
88,128,25350,1,0,0:0:0:0:
91,128,25356,1,0,0:0:0:0:
94,128,25362,1,0,0:0:0:0:
97,128,25368,1,0,0:0:0:0:
100,128,25375,1,0,0:0:0:0:
103,128,25381,1,0,0:0:0:0:
106,128,25387,1,0,0:0:0:0:
416,224,25400,5,0,0:0:0:0:
418,224,25406,1,0,0:0:0:0:
420,224,25412,1,0,0:0:0:0:
422,224,25418,1,0,0:0:0:0:
424,224,25425,1,0,0:0:0:0:
426,224,25431,1,0,0:0:0:0:
428,224,25437,1,0,0:0:0:0:
430,224,25443,1,0,0:0:0:0:
432,224,25450,1,0,0:0:0:0:
434,224,25456,1,0,0:0:0:0:
436,224,25462,1,0,0:0:0:0:
438,224,25468,1,0,0:0:0:0:
440,224,25475,1,0,0:0:0:0:
442,224,25481,1,0,0:0:0:0:
444,224,25487,1,0,0:0:0:0:
446,224,25493,1,0,0:0:0:0:
448,224,25500,1,0,0:0:0:0:
445,224,25506,1,0,0:0:0:0:
442,224,25512,1,0,0:0:0:0:
439,224,25518,1,0,0:0:0:0:
436,224,25525,1,0,0:0:0:0:
433,224,25531,1,0,0:0:0:0:
430,224,25537,1,0,0:0:0:0:
427,224,25543,1,0,0:0:0:0:
424,224,25550,1,0,0:0:0:0:
421,224,25556,1,0,0:0:0:0:
418,224,25562,1,0,0:0:0:0:
415,224,25568,1,0,0:0:0:0:
412,224,25575,1,0,0:0:0:0:
409,224,25581,1,0,0:0:0:0:
406,224,25587,1,0,0:0:0:0:
96,224,25600,5,0,0:0:0:0:
94,224,25606,1,0,0:0:0:0:
92,224,25612,1,0,0:0:0:0:
90,224,25618,1,0,0:0:0:0:
88,224,25625,1,0,0:0:0:0:
86,224,25631,1,0,0:0:0:0:
84,224,25637,1,0,0:0:0:0:
82,224,25643,1,0,0:0:0:0:
80,224,25650,1,0,0:0:0:0:
78,224,25656,1,0,0:0:0:0:
76,224,25662,1,0,0:0:0:0:
74,224,25668,1,0,0:0:0:0:
72,224,25675,1,0,0:0:0:0:
70,224,25681,1,0,0:0:0:0:
68,224,25687,1,0,0:0:0:0:
66,224,25693,1,0,0:0:0:0:
64,224,25700,1,0,0:0:0:0:
67,224,25706,1,0,0:0:0:0:
70,224,25712,1,0,0:0:0:0:
73,224,25718,1,0,0:0:0:0:
76,224,25725,1,0,0:0:0:0:
79,224,25731,1,0,0:0:0:0:
82,224,25737,1,0,0:0:0:0:
85,224,25743,1,0,0:0:0:0:
88,224,25750,1,0,0:0:0:0:
91,224,25756,1,0,0:0:0:0:
94,224,25762,1,0,0:0:0:0:
97,224,25768,1,0,0:0:0:0:
100,224,25775,1,0,0:0:0:0:
103,224,25781,1,0,0:0:0:0:
106,224,25787,1,0,0:0:0:0:
416,320,25800,5,0,0:0:0:0:
418,320,25806,1,0,0:0:0:0:
420,320,25812,1,0,0:0:0:0:
422,320,25818,1,0,0:0:0:0:
424,320,25825,1,0,0:0:0:0:
426,320,25831,1,0,0:0:0:0:
428,320,25837,1,0,0:0:0:0:
430,320,25843,1,0,0:0:0:0:
432,320,25850,1,0,0:0:0:0:
434,320,25856,1,0,0:0:0:0:
436,320,25862,1,0,0:0:0:0:
438,320,25868,1,0,0:0:0:0:
440,320,25875,1,0,0:0:0:0:
442,320,25881,1,0,0:0:0:0:
444,320,25887,1,0,0:0:0:0:
446,320,25893,1,0,0:0:0:0:
448,320,25900,1,0,0:0:0:0:
445,320,25906,1,0,0:0:0:0:
442,320,25912,1,0,0:0:0:0:
439,320,25918,1,0,0:0:0:0:
436,320,25925,1,0,0:0:0:0:
433,320,25931,1,0,0:0:0:0:
430,320,25937,1,0,0:0:0:0:
427,320,25943,1,0,0:0:0:0:
424,320,25950,1,0,0:0:0:0:
421,320,25956,1,0,0:0:0:0:
418,320,25962,1,0,0:0:0:0:
415,320,25968,1,0,0:0:0:0:
412,320,25975,1,0,0:0:0:0:
409,320,25981,1,0,0:0:0:0:
406,320,25987,1,0,0:0:0:0:
96,320,26000,5,0,0:0:0:0:
94,320,26006,1,0,0:0:0:0:
92,320,26012,1,0,0:0:0:0:
90,320,26018,1,0,0:0:0:0:
88,320,26025,1,0,0:0:0:0:
86,320,26031,1,0,0:0:0:0:
84,320,26037,1,0,0:0:0:0:
82,320,26043,1,0,0:0:0:0:
80,320,26050,1,0,0:0:0:0:
78,320,26056,1,0,0:0:0:0:
76,320,26062,1,0,0:0:0:0:
74,320,26068,1,0,0:0:0:0:
72,320,26075,1,0,0:0:0:0:
70,320,26081,1,0,0:0:0:0:
68,320,26087,1,0,0:0:0:0:
66,320,26093,1,0,0:0:0:0:
64,320,26100,1,0,0:0:0:0:
67,320,26106,1,0,0:0:0:0:
70,320,26112,1,0,0:0:0:0:
73,320,26118,1,0,0:0:0:0:
76,320,26125,1,0,0:0:0:0:
79,320,26131,1,0,0:0:0:0:
82,320,26137,1,0,0:0:0:0:
85,320,26143,1,0,0:0:0:0:
88,320,26150,1,0,0:0:0:0:
91,320,26156,1,0,0:0:0:0:
94,320,26162,1,0,0:0:0:0:
97,320,26168,1,0,0:0:0:0:
100,320,26175,1,0,0:0:0:0:
103,320,26181,1,0,0:0:0:0:
106,320,26187,1,0,0:0:0:0:
512,336,26200,5,0,0:0:0:0:
512,320,26975,1,0,0:0:0:0:
208,192,27000,5,0,0:0:0:0:
199,192,27025,1,0,0:0:0:0:
187,192,27050,1,0,0:0:0:0:
175,192,27075,1,0,0:0:0:0:
304,192,27100,5,0,0:0:0:0:
313,192,27125,1,0,0:0:0:0:
325,192,27150,1,0,0:0:0:0:
337,192,27175,1,0,0:0:0:0:
208,192,27200,5,0,0:0:0:0:
199,192,27225,1,0,0:0:0:0:
187,192,27250,1,0,0:0:0:0:
175,192,27275,1,0,0:0:0:0:
304,192,27300,5,0,0:0:0:0:
313,192,27325,1,0,0:0:0:0:
325,192,27350,1,0,0:0:0:0:
337,192,27375,1,0,0:0:0:0:
48,192,27400,5,0,0:0:0:0:
39,192,27425,1,0,0:0:0:0:
27,192,27450,1,0,0:0:0:0:
15,192,27475,1,0,0:0:0:0:
304,192,27500,5,0,0:0:0:0:
313,192,27525,1,0,0:0:0:0:
325,192,27550,1,0,0:0:0:0:
337,192,27575,1,0,0:0:0:0:
208,192,27600,5,0,0:0:0:0:
199,192,27625,1,0,0:0:0:0:
187,192,27650,1,0,0:0:0:0:
175,192,27675,1,0,0:0:0:0:
464,192,27700,5,0,0:0:0:0:
473,192,27725,1,0,0:0:0:0:
485,192,27750,1,0,0:0:0:0:
497,192,27775,1,0,0:0:0:0:
32,64,27800,5,0,0:0:0:0:
20,64,27825,1,0,0:0:0:0:
8,64,27850,1,0,0:0:0:0:
19,64,27875,1,0,0:0:0:0:
480,64,27900,5,0,0:0:0:0:
492,64,27925,1,0,0:0:0:0:
504,64,27950,1,0,0:0:0:0:
493,64,27975,1,0,0:0:0:0:
64,128,28000,5,0,0:0:0:0:
52,128,28025,1,0,0:0:0:0:
40,128,28050,1,0,0:0:0:0:
51,128,28075,1,0,0:0:0:0:
448,128,28100,5,0,0:0:0:0:
460,128,28125,1,0,0:0:0:0:
472,128,28150,1,0,0:0:0:0:
461,128,28175,1,0,0:0:0:0:
96,192,28200,5,0,0:0:0:0:
84,192,28225,1,0,0:0:0:0:
72,192,28250,1,0,0:0:0:0:
83,192,28275,1,0,0:0:0:0:
416,192,28300,5,0,0:0:0:0:
428,192,28325,1,0,0:0:0:0:
440,192,28350,1,0,0:0:0:0:
429,192,28375,1,0,0:0:0:0:
128,256,28400,5,0,0:0:0:0:
116,256,28425,1,0,0:0:0:0:
104,256,28450,1,0,0:0:0:0:
115,256,28475,1,0,0:0:0:0:
384,256,28500,5,0,0:0:0:0:
396,256,28525,1,0,0:0:0:0:
408,256,28550,1,0,0:0:0:0:
397,256,28575,1,0,0:0:0:0:
264,192,28600,6,0,L|248:192,32,11.25
