osu file format v14

[General]
AudioFilename: audio.mp3
AudioLeadIn: 0
PreviewTime: 257259
Countdown: 0
SampleSet: None
StackLeniency: 0.7
Mode: 1
LetterboxInBreaks: 0
WidescreenStoryboard: 1

[Editor]
Bookmarks: 7180,19011,32532,49011,68870,91687,117884,147462,180414,216327,257311,298295
DistanceSpacing: 0.5
BeatDivisor: 4
GridSize: 32
TimelineZoom: 1.7

[Metadata]
Title:12 Clusterfucks of Christmas
TitleUnicode:12 Clusterfucks of Christmas
Artist:Schmutz06
ArtistUnicode:Schmutz06
Creator:k3v227
Version:Nice Oni
Source:
Tags:
BeatmapID:1154282
BeatmapSetID:544717

[Difficulty]
HPDrainRate:5
CircleSize:2
OverallDifficulty:6
ApproachRate:5
SliderMultiplier:1.4
SliderTickRate:1

[Events]
//Background and Video events
0,0,"12 clusterfucks (bg).jpg",0,0
//Break Periods
//Storyboard Layer 0 (Background)
//Storyboard Layer 1 (Fail)
//Storyboard Layer 2 (Pass)
//Storyboard Layer 3 (Foreground)
//Storyboard Sound Samples

[TimingPoints]
420,422.535211267606,4,1,0,85,1,0
420,-100,4,1,0,60,0,0
7180,-83.3333333333333,4,1,0,85,0,0
38870,422.535211267606,4,1,0,85,1,0
38870,-83.3333333333333,4,1,0,85,0,0
58729,422.535211267606,4,1,0,85,1,0
58729,-83.3333333333333,4,1,0,85,0,0
78588,422.535211267606,4,1,0,85,1,0
78588,-83.3333333333333,4,1,0,85,0,0
81545,422.535211267606,4,1,0,85,1,0
81545,-83.3333333333333,4,1,0,85,0,0
104784,422.535211267606,4,1,0,85,1,0
104784,-83.3333333333333,4,1,0,85,0,0
107741,422.535211267606,4,1,0,85,1,0
107741,-83.3333333333333,4,1,0,85,0,0
134360,422.535211267606,4,1,0,85,1,0
134360,-83.3333333333333,4,1,0,85,0,0
137317,422.535211267606,4,1,0,85,1,0
137317,-83.3333333333333,4,1,0,85,0,0
167317,422.535211267606,4,1,0,85,1,0
167317,-83.3333333333333,4,1,0,85,0,0
170274,422.535211267606,4,1,0,85,1,0
170274,-83.3333333333333,4,1,0,85,0,0
180626,-90.9090909090909,4,1,0,65,0,0
182950,-83.3333333333333,4,1,0,85,0,0
186752,422.535211267606,4,1,0,85,1,0
186752,-83.3333333333333,4,1,0,85,0,0
203230,422.535211267606,4,1,0,85,1,0
203230,-83.3333333333333,4,1,0,85,0,0
206187,422.535211267606,4,1,0,85,1,0
206187,-83.3333333333333,4,1,0,85,0,0
226046,422.535211267606,4,1,0,85,1,0
226046,-83.3333333333333,4,1,0,85,0,0
242524,422.535211267606,4,1,0,85,1,0
242524,-83.3333333333333,4,1,0,85,0,0
245481,422.535211267606,4,1,0,85,1,0
245481,-83.3333333333333,4,1,0,85,0,0
257311,-83.3333333333333,4,1,0,65,0,0
260269,-83.3333333333333,4,1,0,85,0,0
268720,422.535211267606,4,1,0,85,1,0
268720,-83.3333333333333,4,1,0,85,0,0
285198,422.535211267606,4,1,0,85,1,0
285198,-83.3333333333333,4,1,0,85,0,0
288155,422.535211267606,4,1,0,85,1,0
288155,-83.3333333333333,4,1,0,85,0,0
301781,-100,4,1,0,85,0,0
304528,-66.6666666666667,4,1,0,85,0,0

[HitObjects]
256,192,420,5,8,0:0:0:0:
256,192,842,1,8,0:0:0:0:
256,192,1053,1,8,0:0:0:0:
256,192,1265,1,8,0:0:0:0:
256,192,1687,1,0,0:0:0:0:
256,192,1898,1,8,0:0:0:0:
256,192,2110,1,0,0:0:0:0:
256,192,2321,1,8,0:0:0:0:
256,192,2532,1,8,0:0:0:0:
256,192,2743,1,0,0:0:0:0:
256,192,2955,1,8,0:0:0:0:
256,192,3589,1,0,0:0:0:0:
256,192,3800,1,8,0:0:0:0:
256,192,4222,1,0,0:0:0:0:
256,192,4434,1,8,0:0:0:0:
256,192,4645,1,8,0:0:0:0:
256,192,4856,1,0,0:0:0:0:
256,192,5067,1,8,0:0:0:0:
256,192,5490,1,0,0:0:0:0:
256,192,5701,8,0,6969,0:0:0:0:
256,192,7180,5,0,0:0:0:0:
256,192,7250,1,8,0:0:0:0:
256,192,7391,1,0,0:0:0:0:
256,192,7462,1,8,0:0:0:0:
256,192,7603,1,0,0:0:0:0:
256,192,7673,1,8,0:0:0:0:
256,192,7814,1,0,0:0:0:0:
256,192,7884,1,8,0:0:0:0:
256,192,8025,1,0,0:0:0:0:
256,192,8096,1,8,0:0:0:0:
256,192,8236,1,0,0:0:0:0:
256,192,8307,1,8,0:0:0:0:
256,192,8448,1,0,0:0:0:0:
256,192,8518,1,8,0:0:0:0:
256,192,8659,1,0,0:0:0:0:
256,192,8729,1,8,0:0:0:0:
256,192,8870,1,0,0:0:0:0:
256,192,9293,1,8,0:0:0:0:
256,192,9504,1,8,0:0:0:0:
256,192,9715,1,8,0:0:0:0:
256,192,10138,1,0,0:0:0:0:
256,192,10349,1,8,0:0:0:0:
256,192,10560,1,0,0:0:0:0:
256,192,10772,1,8,0:0:0:0:
256,192,10983,1,8,0:0:0:0:
256,192,11194,1,0,0:0:0:0:
256,192,11405,1,8,0:0:0:0:
256,192,12250,1,8,0:0:0:0:
256,192,12673,1,0,0:0:0:0:
256,192,12884,1,8,0:0:0:0:
256,192,13096,1,8,0:0:0:0:
256,192,13307,1,8,0:0:0:0:
256,192,13518,1,0,0:0:0:0:
256,192,13729,1,12,0:0:0:0:
256,192,13941,1,8,0:0:0:0:
256,192,14046,1,8,0:0:0:0:
256,192,14152,1,0,0:0:0:0:
256,192,14258,1,8,0:0:0:0:
256,192,14363,1,8,0:0:0:0:
256,192,14469,1,8,0:0:0:0:
256,192,14574,1,0,0:0:0:0:
256,192,14680,1,8,0:0:0:0:
256,192,14786,1,8,0:0:0:0:
256,192,14891,1,8,0:0:0:0:
256,192,14997,1,0,0:0:0:0:
256,192,15103,1,0,0:0:0:0:
256,192,15208,1,8,0:0:0:0:
256,192,15631,1,0,0:0:0:0:
256,192,16053,1,8,0:0:0:0:
256,192,16265,1,8,0:0:0:0:
256,192,16476,1,0,0:0:0:0:
256,192,16687,1,0,0:0:0:0:
256,192,16898,1,8,0:0:0:0:
256,192,17321,1,0,0:0:0:0:
256,192,17391,1,8,0:0:0:0:
256,192,17532,1,0,0:0:0:0:
256,192,17603,1,8,0:0:0:0:
256,192,17743,1,0,0:0:0:0:
256,192,17814,1,8,0:0:0:0:
256,192,17955,1,0,0:0:0:0:
256,192,18025,1,8,0:0:0:0:
256,192,18166,1,0,0:0:0:0:
256,192,18236,1,8,0:0:0:0:
256,192,18377,1,0,0:0:0:0:
256,192,18448,1,8,0:0:0:0:
256,192,18589,1,0,0:0:0:0:
256,192,18659,1,8,0:0:0:0:
256,192,18800,1,0,0:0:0:0:
256,192,18870,1,8,0:0:0:0:
256,192,19011,1,0,0:0:0:0:
256,192,19434,1,8,0:0:0:0:
256,192,19645,1,8,0:0:0:0:
256,192,19856,1,8,0:0:0:0:
256,192,20279,1,0,0:0:0:0:
256,192,20490,1,8,0:0:0:0:
256,192,20701,1,0,0:0:0:0:
256,192,20912,1,8,0:0:0:0:
256,192,21124,1,8,0:0:0:0:
256,192,21335,1,0,0:0:0:0:
256,192,21546,1,8,0:0:0:0:
256,192,22391,1,8,0:0:0:0:
256,192,22814,1,0,0:0:0:0:
256,192,23025,1,8,0:0:0:0:
256,192,23236,1,8,0:0:0:0:
256,192,23448,1,0,0:0:0:0:
256,192,23659,1,0,0:0:0:0:
256,192,23870,1,8,0:0:0:0:
256,192,24081,1,0,0:0:0:0:
256,192,24187,1,0,0:0:0:0:
256,192,24293,1,8,0:0:0:0:
256,192,24398,1,0,0:0:0:0:
256,192,24504,1,8,0:0:0:0:
256,192,24610,1,8,0:0:0:0:
256,192,24715,1,0,0:0:0:0:
256,192,24821,1,8,0:0:0:0:
256,192,24927,1,0,0:0:0:0:
256,192,25032,1,0,0:0:0:0:
256,192,25138,1,8,0:0:0:0:
256,192,25243,1,0,0:0:0:0:
256,192,25349,1,8,0:0:0:0:
256,192,25455,1,8,0:0:0:0:
256,192,25560,1,8,0:0:0:0:
256,192,25666,1,8,0:0:0:0:
256,192,25772,1,0,0:0:0:0:
256,192,26194,1,0,0:0:0:0:
256,192,26300,1,8,0:0:0:0:
256,192,26405,1,8,0:0:0:0:
256,192,26511,1,8,0:0:0:0:
256,192,26617,1,0,0:0:0:0:
256,192,26722,1,8,0:0:0:0:
256,192,26828,1,8,0:0:0:0:
256,192,26934,1,8,0:0:0:0:
256,192,27039,1,0,0:0:0:0:
256,192,27250,1,12,0:0:0:0:
256,192,27462,1,8,0:0:0:0:
256,192,27567,1,8,0:0:0:0:
256,192,27673,1,0,0:0:0:0:
256,192,27779,1,8,0:0:0:0:
256,192,27884,1,8,0:0:0:0:
256,192,27990,1,8,0:0:0:0:
256,192,28096,1,0,0:0:0:0:
256,192,28201,1,8,0:0:0:0:
256,192,28307,1,8,0:0:0:0:
256,192,28412,1,8,0:0:0:0:
256,192,28518,1,0,0:0:0:0:
256,192,28624,1,0,0:0:0:0:
256,192,28729,1,8,0:0:0:0:
256,192,28941,1,8,0:0:0:0:
256,192,29152,1,0,0:0:0:0:
256,192,29574,1,8,0:0:0:0:
256,192,29786,1,8,0:0:0:0:
256,192,29997,1,0,0:0:0:0:
256,192,30208,1,0,0:0:0:0:
256,192,30420,1,8,0:0:0:0:
256,192,30842,1,0,0:0:0:0:
256,192,30912,1,8,0:0:0:0:
256,192,31053,1,0,0:0:0:0:
256,192,31124,1,8,0:0:0:0:
256,192,31265,1,0,0:0:0:0:
256,192,31335,1,8,0:0:0:0:
256,192,31476,1,0,0:0:0:0:
256,192,31546,1,8,0:0:0:0:
256,192,31687,1,0,0:0:0:0:
256,192,31758,1,8,0:0:0:0:
256,192,31898,1,0,0:0:0:0:
256,192,31969,1,8,0:0:0:0:
256,192,32110,1,0,0:0:0:0:
256,192,32180,1,8,0:0:0:0:
256,192,32321,1,0,0:0:0:0:
256,192,32391,1,8,0:0:0:0:
256,192,32532,1,0,0:0:0:0:
256,192,32955,1,8,0:0:0:0:
256,192,33166,1,8,0:0:0:0:
256,192,33377,1,8,0:0:0:0:
256,192,33800,1,0,0:0:0:0:
256,192,34011,1,8,0:0:0:0:
256,192,34222,1,0,0:0:0:0:
256,192,34434,1,8,0:0:0:0:
256,192,34645,1,8,0:0:0:0:
256,192,34856,1,0,0:0:0:0:
256,192,35067,1,8,0:0:0:0:
256,192,35912,1,8,0:0:0:0:
256,192,36124,1,8,0:0:0:0:
256,192,36335,1,0,0:0:0:0:
256,192,36546,1,8,0:0:0:0:
256,192,36758,1,8,0:0:0:0:
256,192,36969,1,8,0:0:0:0:
256,192,37180,1,0,0:0:0:0:
256,192,37391,1,12,0:0:0:0:
256,192,37603,1,8,0:0:0:0:
256,192,37708,1,0,0:0:0:0:
256,192,37814,1,8,0:0:0:0:
256,192,37920,1,8,0:0:0:0:
256,192,38025,1,0,0:0:0:0:
256,192,38131,1,8,0:0:0:0:
256,192,38236,1,8,0:0:0:0:
256,192,38342,1,0,0:0:0:0:
256,192,38448,1,8,0:0:0:0:
256,192,38553,1,0,0:0:0:0:
256,192,38659,1,0,0:0:0:0:
256,192,38765,1,0,0:0:0:0:
256,192,38870,1,8,0:0:0:0:
256,192,39081,1,8,0:0:0:0:
256,192,39292,1,0,0:0:0:0:
256,192,39503,1,8,0:0:0:0:
256,192,39715,1,8,0:0:0:0:
256,192,39926,1,0,0:0:0:0:
256,192,40137,1,0,0:0:0:0:
256,192,40348,1,8,0:0:0:0:
256,192,40560,1,0,0:0:0:0:
256,192,40665,1,0,0:0:0:0:
256,192,40771,1,8,0:0:0:0:
256,192,40877,1,0,0:0:0:0:
256,192,40982,1,8,0:0:0:0:
256,192,41088,1,8,0:0:0:0:
256,192,41193,1,0,0:0:0:0:
256,192,41299,1,8,0:0:0:0:
256,192,41405,1,0,0:0:0:0:
256,192,41510,1,0,0:0:0:0:
256,192,41616,1,8,0:0:0:0:
256,192,41722,1,0,0:0:0:0:
256,192,41827,1,8,0:0:0:0:
256,192,41933,1,8,0:0:0:0:
256,192,42039,1,8,0:0:0:0:
256,192,42144,1,8,0:0:0:0:
256,192,42250,1,0,0:0:0:0:
256,192,42461,1,8,0:0:0:0:
256,192,42672,1,0,0:0:0:0:
256,192,42884,1,8,0:0:0:0:
256,192,43095,1,8,0:0:0:0:
256,192,43306,1,8,0:0:0:0:
256,192,43517,1,0,0:0:0:0:
256,192,43729,1,12,0:0:0:0:
256,192,43940,1,8,0:0:0:0:
256,192,44046,1,8,0:0:0:0:
256,192,44151,1,0,0:0:0:0:
256,192,44257,1,8,0:0:0:0:
256,192,44362,1,8,0:0:0:0:
256,192,44468,1,8,0:0:0:0:
256,192,44574,1,0,0:0:0:0:
256,192,44679,1,8,0:0:0:0:
256,192,44785,1,8,0:0:0:0:
256,192,44891,1,8,0:0:0:0:
256,192,44996,1,0,0:0:0:0:
256,192,45102,1,0,0:0:0:0:
256,192,45208,1,8,0:0:0:0:
256,192,45313,1,8,0:0:0:0:
256,192,45419,1,0,0:0:0:0:
256,192,45630,1,0,0:0:0:0:
256,192,46053,1,8,0:0:0:0:
256,192,46264,1,8,0:0:0:0:
256,192,46475,1,0,0:0:0:0:
256,192,46686,1,0,0:0:0:0:
256,192,46898,1,8,0:0:0:0:
256,192,47320,1,0,0:0:0:0:
256,192,47391,1,8,0:0:0:0:
256,192,47531,1,0,0:0:0:0:
256,192,47602,1,8,0:0:0:0:
256,192,47743,1,0,0:0:0:0:
256,192,47813,1,8,0:0:0:0:
256,192,47954,1,0,0:0:0:0:
256,192,48024,1,8,0:0:0:0:
256,192,48165,1,0,0:0:0:0:
256,192,48236,1,8,0:0:0:0:
256,192,48377,1,0,0:0:0:0:
256,192,48447,1,8,0:0:0:0:
256,192,48588,1,0,0:0:0:0:
256,192,48658,1,8,0:0:0:0:
256,192,48799,1,0,0:0:0:0:
256,192,48870,1,8,0:0:0:0:
256,192,49010,1,0,0:0:0:0:
256,192,49433,1,8,0:0:0:0:
256,192,49644,1,8,0:0:0:0:
256,192,49855,1,8,0:0:0:0:
256,192,50278,1,0,0:0:0:0:
256,192,50489,1,8,0:0:0:0:
256,192,50700,1,0,0:0:0:0:
256,192,50912,1,8,0:0:0:0:
256,192,51123,1,8,0:0:0:0:
256,192,51334,1,0,0:0:0:0:
256,192,51546,1,8,0:0:0:0:
256,192,52391,1,8,0:0:0:0:
256,192,52496,1,0,0:0:0:0:
256,192,52602,1,8,0:0:0:0:
256,192,52708,1,8,0:0:0:0:
256,192,52813,1,0,0:0:0:0:
256,192,52919,1,0,0:0:0:0:
256,192,53024,1,8,0:0:0:0:
256,192,53130,1,8,0:0:0:0:
256,192,53236,1,0,0:0:0:0:
256,192,53341,1,8,0:0:0:0:
256,192,53447,1,0,0:0:0:0:
256,192,53553,1,8,0:0:0:0:
256,192,53658,1,8,0:0:0:0:
256,192,53764,1,0,0:0:0:0:
256,192,53870,1,8,0:0:0:0:
256,192,53975,1,8,0:0:0:0:
256,192,54081,1,0,0:0:0:0:
256,192,54186,1,0,0:0:0:0:
256,192,54292,1,8,0:0:0:0:
256,192,54398,1,8,0:0:0:0:
256,192,54503,1,0,0:0:0:0:
256,192,54609,1,0,0:0:0:0:
256,192,54715,1,8,0:0:0:0:
256,192,54820,1,8,0:0:0:0:
256,192,54926,1,0,0:0:0:0:
256,192,55031,1,0,0:0:0:0:
256,192,55137,1,8,0:0:0:0:
256,192,55243,1,8,0:0:0:0:
256,192,55348,1,8,0:0:0:0:
256,192,55771,1,8,0:0:0:0:
256,192,56193,1,0,0:0:0:0:
256,192,56405,1,8,0:0:0:0:
256,192,56616,1,8,0:0:0:0:
256,192,56827,1,8,0:0:0:0:
256,192,57039,1,0,0:0:0:0:
256,192,57250,1,12,0:0:0:0:
256,192,57461,1,8,0:0:0:0:
256,192,57567,1,0,0:0:0:0:
256,192,57672,1,8,0:0:0:0:
256,192,57778,1,8,0:0:0:0:
256,192,57884,1,0,0:0:0:0:
256,192,57989,1,8,0:0:0:0:
256,192,58095,1,8,0:0:0:0:
256,192,58200,1,0,0:0:0:0:
256,192,58306,1,8,0:0:0:0:
256,192,58412,1,0,0:0:0:0:
256,192,58517,1,0,0:0:0:0:
256,192,58623,1,0,0:0:0:0:
256,192,58729,1,8,0:0:0:0:
256,192,59151,1,0,0:0:0:0:
256,192,59362,1,8,0:0:0:0:
256,192,59574,1,8,0:0:0:0:
256,192,59785,1,0,0:0:0:0:
256,192,59996,1,0,0:0:0:0:
256,192,60207,1,8,0:0:0:0:
256,192,60419,1,0,0:0:0:0:
256,192,60524,1,0,0:0:0:0:
256,192,60630,1,8,0:0:0:0:
256,192,60736,1,0,0:0:0:0:
256,192,60841,1,8,0:0:0:0:
256,192,60947,1,8,0:0:0:0:
256,192,61052,1,0,0:0:0:0:
256,192,61158,1,8,0:0:0:0:
256,192,61264,1,0,0:0:0:0:
256,192,61369,1,0,0:0:0:0:
256,192,61475,1,8,0:0:0:0:
256,192,61581,1,0,0:0:0:0:
256,192,61686,1,8,0:0:0:0:
256,192,61792,1,8,0:0:0:0:
256,192,61898,1,8,0:0:0:0:
256,192,62003,1,8,0:0:0:0:
256,192,62109,1,0,0:0:0:0:
256,192,62531,1,0,0:0:0:0:
256,192,62743,1,8,0:0:0:0:
256,192,62954,1,8,0:0:0:0:
256,192,63165,1,8,0:0:0:0:
256,192,63376,1,0,0:0:0:0:
256,192,63588,1,12,0:0:0:0:
256,192,63799,1,8,0:0:0:0:
256,192,63905,1,8,0:0:0:0:
256,192,64010,1,0,0:0:0:0:
256,192,64116,1,8,0:0:0:0:
256,192,64221,1,8,0:0:0:0:
256,192,64327,1,8,0:0:0:0:
256,192,64433,1,0,0:0:0:0:
256,192,64538,1,8,0:0:0:0:
256,192,64644,1,8,0:0:0:0:
256,192,64750,1,8,0:0:0:0:
256,192,64855,1,0,0:0:0:0:
256,192,64961,1,0,0:0:0:0:
256,192,65067,1,8,0:0:0:0:
256,192,65172,1,8,0:0:0:0:
256,192,65278,1,0,0:0:0:0:
256,192,65489,1,0,0:0:0:0:
256,192,65912,1,8,0:0:0:0:
256,192,66123,1,8,0:0:0:0:
256,192,66334,1,0,0:0:0:0:
256,192,66545,1,0,0:0:0:0:
256,192,66757,1,8,0:0:0:0:
256,192,67179,1,0,0:0:0:0:
256,192,67250,1,8,0:0:0:0:
256,192,67390,1,0,0:0:0:0:
256,192,67461,1,8,0:0:0:0:
256,192,67602,1,0,0:0:0:0:
256,192,67672,1,8,0:0:0:0:
256,192,67813,1,0,0:0:0:0:
256,192,67883,1,8,0:0:0:0:
256,192,68024,1,0,0:0:0:0:
256,192,68095,1,8,0:0:0:0:
256,192,68236,1,0,0:0:0:0:
256,192,68306,1,8,0:0:0:0:
256,192,68447,1,0,0:0:0:0:
256,192,68517,1,8,0:0:0:0:
256,192,68658,1,0,0:0:0:0:
256,192,68729,1,8,0:0:0:0:
256,192,68869,1,0,0:0:0:0:
256,192,69292,1,8,0:0:0:0:
256,192,69503,1,8,0:0:0:0:
256,192,69714,1,8,0:0:0:0:
256,192,70137,1,0,0:0:0:0:
256,192,70348,1,8,0:0:0:0:
256,192,70559,1,0,0:0:0:0:
256,192,70771,1,8,0:0:0:0:
256,192,70982,1,8,0:0:0:0:
256,192,71193,1,0,0:0:0:0:
256,192,71405,1,8,0:0:0:0:
256,192,72250,1,0,0:0:0:0:
256,192,72461,1,8,0:0:0:0:
256,192,72567,1,8,0:0:0:0:
256,192,72672,1,0,0:0:0:0:
256,192,72883,1,8,0:0:0:0:
256,192,73095,1,0,0:0:0:0:
256,192,73200,1,8,0:0:0:0:
256,192,73306,1,8,0:0:0:0:
256,192,73412,1,8,0:0:0:0:
256,192,73517,1,0,0:0:0:0:
256,192,73729,1,12,0:0:0:0:
256,192,73940,1,8,0:0:0:0:
256,192,74010,1,0,0:0:0:0:
256,192,74151,1,8,0:0:0:0:
256,192,74221,1,0,0:0:0:0:
256,192,74362,1,8,0:0:0:0:
256,192,74433,1,0,0:0:0:0:
256,192,74574,1,8,0:0:0:0:
256,192,74644,1,0,0:0:0:0:
256,192,74785,1,8,0:0:0:0:
256,192,74855,1,0,0:0:0:0:
256,192,74996,1,8,0:0:0:0:
256,192,75067,1,0,0:0:0:0:
256,192,75207,1,8,0:0:0:0:
256,192,75278,1,0,0:0:0:0:
256,192,75419,1,8,0:0:0:0:
256,192,75489,1,0,0:0:0:0:
256,192,75630,1,8,0:0:0:0:
256,192,75736,1,0,0:0:0:0:
256,192,75841,1,8,0:0:0:0:
256,192,75947,1,8,0:0:0:0:
256,192,76052,1,0,0:0:0:0:
256,192,76158,1,0,0:0:0:0:
256,192,76264,1,8,0:0:0:0:
256,192,76369,1,8,0:0:0:0:
256,192,76475,1,0,0:0:0:0:
256,192,76581,1,8,0:0:0:0:
256,192,76686,1,0,0:0:0:0:
256,192,76792,1,8,0:0:0:0:
256,192,76898,1,8,0:0:0:0:
256,192,77003,1,0,0:0:0:0:
256,192,77109,1,8,0:0:0:0:
256,192,77214,1,8,0:0:0:0:
256,192,77320,1,0,0:0:0:0:
256,192,77426,1,0,0:0:0:0:
256,192,77531,1,8,0:0:0:0:
256,192,77637,1,8,0:0:0:0:
256,192,77743,1,0,0:0:0:0:
256,192,77848,1,0,0:0:0:0:
256,192,77954,1,8,0:0:0:0:
256,192,78059,1,8,0:0:0:0:
256,192,78165,1,0,0:0:0:0:
256,192,78271,1,0,0:0:0:0:
256,192,78376,1,8,0:0:0:0:
256,192,78482,1,8,0:0:0:0:
256,192,78588,1,8,0:0:0:0:
256,192,79010,1,0,0:0:0:0:
256,192,79221,1,8,0:0:0:0:
256,192,79433,1,8,0:0:0:0:
256,192,79644,1,8,0:0:0:0:
256,192,79855,1,0,0:0:0:0:
256,192,80066,1,12,0:0:0:0:
256,192,80278,1,8,0:0:0:0:
256,192,80383,1,0,0:0:0:0:
256,192,80489,1,8,0:0:0:0:
256,192,80595,1,8,0:0:0:0:
256,192,80700,1,0,0:0:0:0:
256,192,80806,1,8,0:0:0:0:
256,192,80911,1,8,0:0:0:0:
256,192,81017,1,0,0:0:0:0:
256,192,81123,1,8,0:0:0:0:
256,192,81228,1,0,0:0:0:0:
256,192,81334,1,0,0:0:0:0:
256,192,81440,1,0,0:0:0:0:
256,192,81545,1,8,0:0:0:0:
256,192,81967,1,0,0:0:0:0:
256,192,82178,1,8,0:0:0:0:
256,192,82390,1,8,0:0:0:0:
256,192,82601,1,0,0:0:0:0:
256,192,82812,1,0,0:0:0:0:
256,192,83023,1,8,0:0:0:0:
256,192,83235,1,0,0:0:0:0:
256,192,83340,1,0,0:0:0:0:
256,192,83446,1,8,0:0:0:0:
256,192,83552,1,0,0:0:0:0:
256,192,83657,1,8,0:0:0:0:
256,192,83763,1,8,0:0:0:0:
256,192,83868,1,0,0:0:0:0:
256,192,83974,1,8,0:0:0:0:
256,192,84080,1,0,0:0:0:0:
256,192,84185,1,0,0:0:0:0:
256,192,84291,1,8,0:0:0:0:
256,192,84397,1,0,0:0:0:0:
256,192,84502,1,8,0:0:0:0:
256,192,84608,1,8,0:0:0:0:
256,192,84714,1,8,0:0:0:0:
256,192,84819,1,8,0:0:0:0:
256,192,84925,1,0,0:0:0:0:
256,192,85347,1,0,0:0:0:0:
256,192,85559,1,8,0:0:0:0:
256,192,85770,1,8,0:0:0:0:
256,192,85981,1,8,0:0:0:0:
256,192,86192,1,0,0:0:0:0:
256,192,86404,1,12,0:0:0:0:
256,192,86615,1,8,0:0:0:0:
256,192,86721,1,8,0:0:0:0:
256,192,86826,1,0,0:0:0:0:
256,192,86932,1,8,0:0:0:0:
256,192,87037,1,8,0:0:0:0:
256,192,87143,1,8,0:0:0:0:
256,192,87249,1,0,0:0:0:0:
256,192,87354,1,8,0:0:0:0:
256,192,87460,1,8,0:0:0:0:
256,192,87566,1,8,0:0:0:0:
256,192,87671,1,0,0:0:0:0:
256,192,87777,1,0,0:0:0:0:
256,192,87883,1,8,0:0:0:0:
256,192,88094,1,8,0:0:0:0:
256,192,88305,1,0,0:0:0:0:
256,192,88728,1,8,0:0:0:0:
256,192,88939,1,8,0:0:0:0:
256,192,89150,1,0,0:0:0:0:
256,192,89361,1,0,0:0:0:0:
256,192,89573,1,8,0:0:0:0:
256,192,89995,1,0,0:0:0:0:
256,192,90066,1,8,0:0:0:0:
256,192,90206,1,0,0:0:0:0:
256,192,90277,1,8,0:0:0:0:
256,192,90418,1,0,0:0:0:0:
256,192,90488,1,8,0:0:0:0:
256,192,90629,1,0,0:0:0:0:
256,192,90699,1,8,0:0:0:0:
256,192,90840,1,0,0:0:0:0:
256,192,90911,1,8,0:0:0:0:
256,192,91052,1,0,0:0:0:0:
256,192,91122,1,8,0:0:0:0:
256,192,91263,1,0,0:0:0:0:
256,192,91333,1,8,0:0:0:0:
256,192,91474,1,0,0:0:0:0:
256,192,91545,1,8,0:0:0:0:
256,192,91685,1,0,0:0:0:0:
256,192,92108,1,8,0:0:0:0:
256,192,92319,1,8,0:0:0:0:
256,192,92530,1,8,0:0:0:0:
256,192,92953,1,0,0:0:0:0:
256,192,93164,1,8,0:0:0:0:
256,192,93375,1,0,0:0:0:0:
256,192,93587,1,8,0:0:0:0:
256,192,93798,1,8,0:0:0:0:
256,192,94009,1,0,0:0:0:0:
256,192,94221,1,8,0:0:0:0:
256,192,95066,1,8,0:0:0:0:
256,192,95488,1,0,0:0:0:0:
256,192,95699,1,8,0:0:0:0:
256,192,95911,1,8,0:0:0:0:
256,192,96122,1,8,0:0:0:0:
256,192,96333,1,0,0:0:0:0:
256,192,96545,1,12,0:0:0:0:
256,192,96756,1,0,0:0:0:0:
256,192,96861,1,0,0:0:0:0:
256,192,96967,1,0,0:0:0:0:
256,192,97073,1,0,0:0:0:0:
256,192,97178,1,8,0:0:0:0:
256,192,97284,1,8,0:0:0:0:
256,192,97390,1,8,0:0:0:0:
256,192,97495,1,8,0:0:0:0:
256,192,97601,1,0,0:0:0:0:
256,192,97706,1,0,0:0:0:0:
256,192,97812,1,0,0:0:0:0:
256,192,97918,1,0,0:0:0:0:
256,192,98023,1,8,0:0:0:0:
256,192,98129,1,8,0:0:0:0:
256,192,98235,1,8,0:0:0:0:
256,192,98340,1,8,0:0:0:0:
256,192,98446,1,0,0:0:0:0:
256,192,98657,1,8,0:0:0:0:
256,192,98763,1,8,0:0:0:0:
256,192,98868,1,0,0:0:0:0:
256,192,99080,1,8,0:0:0:0:
256,192,99291,1,0,0:0:0:0:
256,192,99397,1,8,0:0:0:0:
256,192,99502,1,8,0:0:0:0:
256,192,99608,1,8,0:0:0:0:
256,192,99714,1,0,0:0:0:0:
256,192,99925,1,12,0:0:0:0:
256,192,100136,1,8,0:0:0:0:
256,192,100206,1,0,0:0:0:0:
256,192,100347,1,8,0:0:0:0:
256,192,100418,1,0,0:0:0:0:
256,192,100559,1,8,0:0:0:0:
256,192,100629,1,0,0:0:0:0:
256,192,100770,1,8,0:0:0:0:
256,192,100840,1,0,0:0:0:0:
256,192,100981,1,8,0:0:0:0:
256,192,101052,1,0,0:0:0:0:
256,192,101192,1,8,0:0:0:0:
256,192,101263,1,0,0:0:0:0:
256,192,101404,1,8,0:0:0:0:
256,192,101474,1,0,0:0:0:0:
256,192,101615,1,8,0:0:0:0:
256,192,101685,1,0,0:0:0:0:
256,192,101826,1,8,0:0:0:0:
256,192,101932,1,0,0:0:0:0:
256,192,102037,1,8,0:0:0:0:
256,192,102143,1,8,0:0:0:0:
256,192,102249,1,0,0:0:0:0:
256,192,102354,1,0,0:0:0:0:
256,192,102460,1,8,0:0:0:0:
256,192,102566,1,8,0:0:0:0:
256,192,102671,1,0,0:0:0:0:
256,192,102777,1,8,0:0:0:0:
256,192,102883,1,0,0:0:0:0:
256,192,102988,1,8,0:0:0:0:
256,192,103094,1,8,0:0:0:0:
256,192,103199,1,0,0:0:0:0:
256,192,103305,1,8,0:0:0:0:
256,192,103411,1,8,0:0:0:0:
256,192,103516,1,0,0:0:0:0:
256,192,103622,1,0,0:0:0:0:
256,192,103728,1,8,0:0:0:0:
256,192,103833,1,8,0:0:0:0:
256,192,103939,1,0,0:0:0:0:
256,192,104045,1,0,0:0:0:0:
256,192,104150,1,8,0:0:0:0:
256,192,104256,1,8,0:0:0:0:
256,192,104361,1,0,0:0:0:0:
256,192,104467,1,0,0:0:0:0:
256,192,104573,1,8,0:0:0:0:
256,192,104678,1,8,0:0:0:0:
256,192,104784,1,8,0:0:0:0:
256,192,105206,1,0,0:0:0:0:
256,192,105417,1,8,0:0:0:0:
256,192,105629,1,8,0:0:0:0:
256,192,105840,1,8,0:0:0:0:
256,192,106051,1,0,0:0:0:0:
256,192,106262,1,12,0:0:0:0:
256,192,106474,1,8,0:0:0:0:
256,192,106579,1,0,0:0:0:0:
256,192,106685,1,8,0:0:0:0:
256,192,106791,1,8,0:0:0:0:
256,192,106896,1,0,0:0:0:0:
256,192,107002,1,8,0:0:0:0:
256,192,107107,1,8,0:0:0:0:
256,192,107213,1,0,0:0:0:0:
256,192,107319,1,8,0:0:0:0:
256,192,107424,1,0,0:0:0:0:
256,192,107530,1,0,0:0:0:0:
256,192,107600,1,0,0:0:0:0:
256,192,107671,1,0,0:0:0:0:
256,192,107741,1,8,0:0:0:0:
256,192,108163,1,0,0:0:0:0:
256,192,108374,1,8,0:0:0:0:
256,192,108586,1,12,0:0:0:0:
256,192,108797,1,0,0:0:0:0:
256,192,108867,1,0,0:0:0:0:
256,192,108938,1,0,0:0:0:0:
256,192,109008,1,0,0:0:0:0:
256,192,109431,1,0,0:0:0:0:
256,192,109536,1,0,0:0:0:0:
256,192,109642,1,8,0:0:0:0:
256,192,109748,1,0,0:0:0:0:
256,192,109853,1,8,0:0:0:0:
256,192,109959,1,8,0:0:0:0:
256,192,110064,1,0,0:0:0:0:
256,192,110170,1,8,0:0:0:0:
256,192,110276,1,0,0:0:0:0:
256,192,110381,1,0,0:0:0:0:
256,192,110487,1,8,0:0:0:0:
256,192,110593,1,0,0:0:0:0:
256,192,110698,1,8,0:0:0:0:
256,192,110804,1,8,0:0:0:0:
256,192,110910,1,8,0:0:0:0:
256,192,111015,1,8,0:0:0:0:
256,192,111121,1,0,0:0:0:0:
256,192,111543,1,0,0:0:0:0:
256,192,111755,1,8,0:0:0:0:
256,192,111966,1,8,0:0:0:0:
256,192,112177,1,8,0:0:0:0:
256,192,112388,1,0,0:0:0:0:
256,192,112600,1,12,0:0:0:0:
256,192,112811,1,8,0:0:0:0:
256,192,112917,1,8,0:0:0:0:
256,192,113022,1,0,0:0:0:0:
256,192,113128,1,8,0:0:0:0:
256,192,113233,1,8,0:0:0:0:
256,192,113339,1,8,0:0:0:0:
256,192,113445,1,0,0:0:0:0:
256,192,113550,1,8,0:0:0:0:
256,192,113656,1,8,0:0:0:0:
256,192,113762,1,8,0:0:0:0:
256,192,113867,1,0,0:0:0:0:
256,192,113973,1,0,0:0:0:0:
256,192,114079,1,8,0:0:0:0:
256,192,114184,1,8,0:0:0:0:
256,192,114290,1,0,0:0:0:0:
256,192,114501,1,0,0:0:0:0:
256,192,114924,1,8,0:0:0:0:
256,192,115135,1,8,0:0:0:0:
256,192,115346,1,0,0:0:0:0:
256,192,115557,1,0,0:0:0:0:
256,192,115769,1,8,0:0:0:0:
256,192,116191,1,0,0:0:0:0:
256,192,116262,1,8,0:0:0:0:
256,192,116402,1,0,0:0:0:0:
256,192,116473,1,8,0:0:0:0:
256,192,116614,1,0,0:0:0:0:
256,192,116684,1,8,0:0:0:0:
256,192,116825,1,0,0:0:0:0:
256,192,116895,1,8,0:0:0:0:
256,192,117036,1,0,0:0:0:0:
256,192,117107,1,8,0:0:0:0:
256,192,117248,1,0,0:0:0:0:
256,192,117318,1,8,0:0:0:0:
256,192,117459,1,0,0:0:0:0:
256,192,117529,1,8,0:0:0:0:
256,192,117670,1,0,0:0:0:0:
256,192,117741,1,8,0:0:0:0:
256,192,117881,1,0,0:0:0:0:
256,192,118304,1,8,0:0:0:0:
256,192,118515,1,8,0:0:0:0:
256,192,118726,1,8,0:0:0:0:
256,192,119149,1,0,0:0:0:0:
256,192,119360,1,8,0:0:0:0:
256,192,119571,1,0,0:0:0:0:
256,192,119783,1,8,0:0:0:0:
256,192,119994,1,8,0:0:0:0:
256,192,120205,1,0,0:0:0:0:
256,192,120417,1,8,0:0:0:0:
256,192,121262,1,0,0:0:0:0:
256,192,121367,1,8,0:0:0:0:
256,192,121473,1,8,0:0:0:0:
256,192,121684,1,0,0:0:0:0:
256,192,121790,1,8,0:0:0:0:
256,192,121895,1,8,0:0:0:0:
256,192,122001,1,0,0:0:0:0:
256,192,122107,1,8,0:0:0:0:
256,192,122318,1,12,0:0:0:0:
256,192,122529,1,0,0:0:0:0:
256,192,122741,1,12,0:0:0:0:
256,192,122952,1,8,0:0:0:0:
256,192,123057,1,8,0:0:0:0:
256,192,123163,1,8,0:0:0:0:
256,192,123269,1,8,0:0:0:0:
256,192,123374,1,0,0:0:0:0:
256,192,123480,1,0,0:0:0:0:
256,192,123586,1,0,0:0:0:0:
256,192,123691,1,0,0:0:0:0:
256,192,123797,1,8,0:0:0:0:
256,192,123902,1,8,0:0:0:0:
256,192,124008,1,8,0:0:0:0:
256,192,124114,1,8,0:0:0:0:
256,192,124219,1,0,0:0:0:0:
256,192,124325,1,0,0:0:0:0:
256,192,124431,1,0,0:0:0:0:
256,192,124536,1,0,0:0:0:0:
256,192,124642,1,8,0:0:0:0:
256,192,125064,1,0,0:0:0:0:
256,192,125276,1,8,0:0:0:0:
256,192,125487,1,8,0:0:0:0:
256,192,125698,1,0,0:0:0:0:
256,192,125910,1,0,0:0:0:0:
256,192,126121,1,12,0:0:0:0:
256,192,126332,1,0,0:0:0:0:
256,192,126438,1,0,0:0:0:0:
256,192,126543,1,0,0:0:0:0:
256,192,126649,1,0,0:0:0:0:
256,192,126755,1,8,0:0:0:0:
256,192,126860,1,8,0:0:0:0:
256,192,126966,1,8,0:0:0:0:
256,192,127071,1,8,0:0:0:0:
256,192,127177,1,0,0:0:0:0:
256,192,127283,1,0,0:0:0:0:
256,192,127388,1,0,0:0:0:0:
256,192,127494,1,0,0:0:0:0:
256,192,127600,1,8,0:0:0:0:
256,192,127705,1,8,0:0:0:0:
256,192,127811,1,8,0:0:0:0:
256,192,127917,1,8,0:0:0:0:
256,192,128022,1,0,0:0:0:0:
256,192,128233,1,8,0:0:0:0:
256,192,128339,1,8,0:0:0:0:
256,192,128445,1,0,0:0:0:0:
256,192,128656,1,8,0:0:0:0:
256,192,128867,1,0,0:0:0:0:
256,192,128973,1,8,0:0:0:0:
256,192,129079,1,8,0:0:0:0:
256,192,129184,1,8,0:0:0:0:
256,192,129290,1,0,0:0:0:0:
256,192,129501,1,12,0:0:0:0:
256,192,129712,1,8,0:0:0:0:
256,192,129783,1,0,0:0:0:0:
256,192,129924,1,8,0:0:0:0:
256,192,129994,1,0,0:0:0:0:
256,192,130135,1,8,0:0:0:0:
256,192,130205,1,0,0:0:0:0:
256,192,130346,1,8,0:0:0:0:
256,192,130417,1,0,0:0:0:0:
256,192,130557,1,8,0:0:0:0:
256,192,130628,1,0,0:0:0:0:
256,192,130769,1,8,0:0:0:0:
256,192,130839,1,0,0:0:0:0:
256,192,130980,1,8,0:0:0:0:
256,192,131050,1,0,0:0:0:0:
256,192,131191,1,8,0:0:0:0:
256,192,131262,1,0,0:0:0:0:
256,192,131402,1,8,0:0:0:0:
256,192,131508,1,0,0:0:0:0:
256,192,131614,1,8,0:0:0:0:
256,192,131719,1,8,0:0:0:0:
256,192,131825,1,0,0:0:0:0:
256,192,131931,1,0,0:0:0:0:
256,192,132036,1,8,0:0:0:0:
256,192,132142,1,8,0:0:0:0:
256,192,132248,1,0,0:0:0:0:
256,192,132353,1,8,0:0:0:0:
256,192,132459,1,0,0:0:0:0:
256,192,132564,1,8,0:0:0:0:
256,192,132670,1,8,0:0:0:0:
256,192,132776,1,0,0:0:0:0:
256,192,132881,1,8,0:0:0:0:
256,192,132987,1,8,0:0:0:0:
256,192,133093,1,0,0:0:0:0:
256,192,133198,1,0,0:0:0:0:
256,192,133304,1,8,0:0:0:0:
256,192,133410,1,8,0:0:0:0:
256,192,133515,1,0,0:0:0:0:
256,192,133621,1,0,0:0:0:0:
256,192,133726,1,8,0:0:0:0:
256,192,133832,1,8,0:0:0:0:
256,192,133938,1,0,0:0:0:0:
256,192,134043,1,0,0:0:0:0:
256,192,134149,1,8,0:0:0:0:
256,192,134255,1,8,0:0:0:0:
256,192,134360,1,8,0:0:0:0:
256,192,134782,1,0,0:0:0:0:
256,192,134993,1,8,0:0:0:0:
256,192,135205,1,8,0:0:0:0:
256,192,135416,1,8,0:0:0:0:
256,192,135627,1,0,0:0:0:0:
256,192,135838,1,12,0:0:0:0:
256,192,136050,1,8,0:0:0:0:
256,192,136155,1,0,0:0:0:0:
256,192,136261,1,8,0:0:0:0:
256,192,136367,1,8,0:0:0:0:
256,192,136472,1,0,0:0:0:0:
256,192,136578,1,8,0:0:0:0:
256,192,136683,1,8,0:0:0:0:
256,192,136789,1,0,0:0:0:0:
256,192,136895,1,8,0:0:0:0:
256,192,137000,1,0,0:0:0:0:
256,192,137106,1,0,0:0:0:0:
256,192,137212,1,0,0:0:0:0:
256,192,137317,1,8,0:0:0:0:
256,192,137739,1,0,0:0:0:0:
256,192,137950,1,8,0:0:0:0:
256,192,138162,1,8,0:0:0:0:
256,192,138373,1,0,0:0:0:0:
256,192,138584,1,0,0:0:0:0:
256,192,138795,1,8,0:0:0:0:
256,192,139007,1,0,0:0:0:0:
256,192,139112,1,0,0:0:0:0:
256,192,139218,1,8,0:0:0:0:
256,192,139324,1,0,0:0:0:0:
256,192,139429,1,8,0:0:0:0:
256,192,139535,1,8,0:0:0:0:
256,192,139640,1,0,0:0:0:0:
256,192,139746,1,8,0:0:0:0:
256,192,139852,1,0,0:0:0:0:
256,192,139957,1,0,0:0:0:0:
256,192,140063,1,8,0:0:0:0:
256,192,140169,1,0,0:0:0:0:
256,192,140274,1,8,0:0:0:0:
256,192,140380,1,8,0:0:0:0:
256,192,140486,1,8,0:0:0:0:
256,192,140591,1,8,0:0:0:0:
256,192,140697,1,0,0:0:0:0:
256,192,140908,1,8,0:0:0:0:
256,192,141119,1,0,0:0:0:0:
256,192,141331,1,8,0:0:0:0:
256,192,141542,1,8,0:0:0:0:
256,192,141753,1,8,0:0:0:0:
256,192,141964,1,0,0:0:0:0:
256,192,142176,1,12,0:0:0:0:
256,192,142387,1,8,0:0:0:0:
256,192,142493,1,8,0:0:0:0:
256,192,142598,1,0,0:0:0:0:
256,192,142704,1,8,0:0:0:0:
256,192,142809,1,8,0:0:0:0:
256,192,142915,1,8,0:0:0:0:
256,192,143021,1,0,0:0:0:0:
256,192,143126,1,8,0:0:0:0:
256,192,143232,1,8,0:0:0:0:
256,192,143338,1,8,0:0:0:0:
256,192,143443,1,0,0:0:0:0:
256,192,143549,1,0,0:0:0:0:
256,192,143655,1,8,0:0:0:0:
256,192,143760,1,8,0:0:0:0:
256,192,143866,1,0,0:0:0:0:
256,192,144077,1,0,0:0:0:0:
256,192,144500,1,8,0:0:0:0:
256,192,144711,1,8,0:0:0:0:
256,192,144922,1,0,0:0:0:0:
256,192,145133,1,0,0:0:0:0:
256,192,145345,1,8,0:0:0:0:
256,192,145767,1,0,0:0:0:0:
256,192,145838,1,8,0:0:0:0:
256,192,145978,1,0,0:0:0:0:
256,192,146049,1,8,0:0:0:0:
256,192,146190,1,0,0:0:0:0:
256,192,146260,1,8,0:0:0:0:
256,192,146401,1,0,0:0:0:0:
256,192,146471,1,8,0:0:0:0:
256,192,146612,1,0,0:0:0:0:
256,192,146683,1,8,0:0:0:0:
256,192,146824,1,0,0:0:0:0:
256,192,146894,1,8,0:0:0:0:
256,192,147035,1,0,0:0:0:0:
256,192,147105,1,8,0:0:0:0:
256,192,147246,1,0,0:0:0:0:
256,192,147317,1,8,0:0:0:0:
256,192,147457,1,0,0:0:0:0:
256,192,147880,1,8,0:0:0:0:
256,192,148091,1,8,0:0:0:0:
256,192,148302,1,8,0:0:0:0:
256,192,148725,1,0,0:0:0:0:
256,192,148936,1,8,0:0:0:0:
256,192,149147,1,0,0:0:0:0:
256,192,149359,1,8,0:0:0:0:
256,192,149570,1,8,0:0:0:0:
256,192,149781,1,0,0:0:0:0:
256,192,149993,1,8,0:0:0:0:
256,192,150838,1,8,0:0:0:0:
256,192,151260,1,0,0:0:0:0:
256,192,151471,1,0,0:0:0:0:
256,192,151683,1,8,0:0:0:0:
256,192,151894,1,8,0:0:0:0:
256,192,152105,1,0,0:0:0:0:
256,192,152317,1,12,0:0:0:0:
256,192,152528,1,8,0:0:0:0:
256,192,152633,1,8,0:0:0:0:
256,192,152739,1,0,0:0:0:0:
256,192,152845,1,0,0:0:0:0:
256,192,152950,1,8,0:0:0:0:
256,192,153056,1,8,0:0:0:0:
256,192,153162,1,0,0:0:0:0:
256,192,153267,1,0,0:0:0:0:
256,192,153373,1,8,0:0:0:0:
256,192,153478,1,0,0:0:0:0:
256,192,153584,1,8,0:0:0:0:
256,192,153690,1,8,0:0:0:0:
256,192,153795,1,8,0:0:0:0:
256,192,153901,1,0,0:0:0:0:
256,192,154007,1,8,0:0:0:0:
256,192,154112,1,8,0:0:0:0:
256,192,154218,1,0,0:0:0:0:
256,192,154429,1,8,0:0:0:0:
256,192,154640,1,0,0:0:0:0:
256,192,154746,1,8,0:0:0:0:
256,192,154852,1,8,0:0:0:0:
256,192,154957,1,0,0:0:0:0:
256,192,155063,1,8,0:0:0:0:
256,192,155274,1,12,0:0:0:0:
256,192,155486,1,0,0:0:0:0:
256,192,155697,1,12,0:0:0:0:
256,192,155908,1,8,0:0:0:0:
256,192,156014,1,8,0:0:0:0:
256,192,156119,1,8,0:0:0:0:
256,192,156225,1,8,0:0:0:0:
256,192,156331,1,0,0:0:0:0:
256,192,156436,1,0,0:0:0:0:
256,192,156542,1,0,0:0:0:0:
256,192,156647,1,0,0:0:0:0:
256,192,156753,1,8,0:0:0:0:
256,192,156859,1,8,0:0:0:0:
256,192,156964,1,8,0:0:0:0:
256,192,157070,1,8,0:0:0:0:
256,192,157176,1,0,0:0:0:0:
256,192,157281,1,0,0:0:0:0:
256,192,157387,1,0,0:0:0:0:
256,192,157493,1,0,0:0:0:0:
256,192,157598,1,8,0:0:0:0:
256,192,158021,1,0,0:0:0:0:
256,192,158232,1,8,0:0:0:0:
256,192,158443,1,8,0:0:0:0:
256,192,158655,1,0,0:0:0:0:
256,192,158866,1,0,0:0:0:0:
256,192,159077,1,12,0:0:0:0:
256,192,159288,1,0,0:0:0:0:
256,192,159394,1,0,0:0:0:0:
256,192,159500,1,0,0:0:0:0:
256,192,159605,1,0,0:0:0:0:
256,192,159711,1,8,0:0:0:0:
256,192,159817,1,8,0:0:0:0:
256,192,159922,1,8,0:0:0:0:
256,192,160028,1,8,0:0:0:0:
256,192,160133,1,0,0:0:0:0:
256,192,160239,1,0,0:0:0:0:
256,192,160345,1,0,0:0:0:0:
256,192,160450,1,0,0:0:0:0:
256,192,160556,1,8,0:0:0:0:
256,192,160662,1,8,0:0:0:0:
256,192,160767,1,8,0:0:0:0:
256,192,160873,1,8,0:0:0:0:
256,192,160978,1,0,0:0:0:0:
256,192,161190,1,8,0:0:0:0:
256,192,161295,1,8,0:0:0:0:
256,192,161401,1,0,0:0:0:0:
256,192,161612,1,8,0:0:0:0:
256,192,161824,1,0,0:0:0:0:
256,192,161929,1,8,0:0:0:0:
256,192,162035,1,8,0:0:0:0:
256,192,162140,1,8,0:0:0:0:
256,192,162246,1,0,0:0:0:0:
256,192,162457,1,12,0:0:0:0:
256,192,162669,1,8,0:0:0:0:
256,192,162739,1,0,0:0:0:0:
256,192,162880,1,8,0:0:0:0:
256,192,162950,1,0,0:0:0:0:
256,192,163091,1,8,0:0:0:0:
256,192,163162,1,0,0:0:0:0:
256,192,163302,1,8,0:0:0:0:
256,192,163373,1,0,0:0:0:0:
256,192,163514,1,8,0:0:0:0:
256,192,163584,1,0,0:0:0:0:
256,192,163725,1,8,0:0:0:0:
256,192,163795,1,0,0:0:0:0:
256,192,163936,1,8,0:0:0:0:
256,192,164007,1,0,0:0:0:0:
256,192,164147,1,8,0:0:0:0:
256,192,164218,1,0,0:0:0:0:
256,192,164359,1,8,0:0:0:0:
256,192,164464,1,0,0:0:0:0:
256,192,164570,1,8,0:0:0:0:
256,192,164676,1,8,0:0:0:0:
256,192,164781,1,0,0:0:0:0:
256,192,164887,1,0,0:0:0:0:
256,192,164993,1,8,0:0:0:0:
256,192,165098,1,8,0:0:0:0:
256,192,165204,1,0,0:0:0:0:
256,192,165309,1,8,0:0:0:0:
256,192,165415,1,0,0:0:0:0:
256,192,165521,1,8,0:0:0:0:
256,192,165626,1,8,0:0:0:0:
256,192,165732,1,0,0:0:0:0:
256,192,165838,1,8,0:0:0:0:
256,192,165943,1,8,0:0:0:0:
256,192,166049,1,0,0:0:0:0:
256,192,166155,1,0,0:0:0:0:
256,192,166260,1,8,0:0:0:0:
256,192,166366,1,8,0:0:0:0:
256,192,166471,1,0,0:0:0:0:
256,192,166577,1,0,0:0:0:0:
256,192,166683,1,8,0:0:0:0:
256,192,166788,1,8,0:0:0:0:
256,192,166894,1,0,0:0:0:0:
256,192,167000,1,0,0:0:0:0:
256,192,167105,1,8,0:0:0:0:
256,192,167211,1,8,0:0:0:0:
256,192,167317,1,8,0:0:0:0:
256,192,167739,1,0,0:0:0:0:
256,192,167950,1,8,0:0:0:0:
256,192,168162,1,8,0:0:0:0:
256,192,168373,1,8,0:0:0:0:
256,192,168584,1,0,0:0:0:0:
256,192,168795,1,12,0:0:0:0:
256,192,169007,1,8,0:0:0:0:
256,192,169112,1,0,0:0:0:0:
256,192,169218,1,8,0:0:0:0:
256,192,169324,1,8,0:0:0:0:
256,192,169429,1,0,0:0:0:0:
256,192,169535,1,8,0:0:0:0:
256,192,169640,1,8,0:0:0:0:
256,192,169746,1,0,0:0:0:0:
256,192,169852,1,8,0:0:0:0:
256,192,169957,1,0,0:0:0:0:
256,192,170063,1,0,0:0:0:0:
256,192,170169,1,0,0:0:0:0:
256,192,170274,1,8,0:0:0:0:
256,192,170485,1,8,0:0:0:0:
256,192,170590,1,8,0:0:0:0:
256,192,170696,1,0,0:0:0:0:
256,192,170907,1,8,0:0:0:0:
256,192,171013,1,8,0:0:0:0:
256,192,171119,1,8,0:0:0:0:
256,192,171330,1,0,0:0:0:0:
256,192,171541,1,0,0:0:0:0:
256,192,171752,1,8,0:0:0:0:
256,192,171858,1,8,0:0:0:0:
256,192,171964,1,0,0:0:0:0:
256,192,172069,1,0,0:0:0:0:
256,192,172175,1,8,0:0:0:0:
256,192,172281,1,0,0:0:0:0:
256,192,172386,1,8,0:0:0:0:
256,192,172492,1,8,0:0:0:0:
256,192,172597,1,0,0:0:0:0:
256,192,172703,1,8,0:0:0:0:
256,192,172809,1,0,0:0:0:0:
256,192,172914,1,0,0:0:0:0:
256,192,173020,1,8,0:0:0:0:
256,192,173126,1,0,0:0:0:0:
256,192,173231,1,8,0:0:0:0:
256,192,173337,1,8,0:0:0:0:
256,192,173443,1,8,0:0:0:0:
256,192,173548,1,8,0:0:0:0:
256,192,173654,1,0,0:0:0:0:
256,192,174076,1,0,0:0:0:0:
256,192,174288,1,8,0:0:0:0:
256,192,174499,1,8,0:0:0:0:
256,192,174710,1,0,0:0:0:0:
256,192,174921,1,0,0:0:0:0:
256,192,175344,1,8,0:0:0:0:
256,192,175450,1,8,0:0:0:0:
256,192,175555,1,0,0:0:0:0:
256,192,175661,1,8,0:0:0:0:
256,192,175766,1,8,0:0:0:0:
256,192,175872,1,8,0:0:0:0:
256,192,175978,1,0,0:0:0:0:
256,192,176083,1,8,0:0:0:0:
256,192,176189,1,8,0:0:0:0:
256,192,176295,1,8,0:0:0:0:
256,192,176400,1,0,0:0:0:0:
256,192,176506,1,0,0:0:0:0:
256,192,176612,1,8,0:0:0:0:
256,192,176823,1,8,0:0:0:0:
256,192,177034,1,0,0:0:0:0:
256,192,177457,1,8,0:0:0:0:
256,192,177668,1,8,0:0:0:0:
256,192,177879,1,0,0:0:0:0:
256,192,178090,1,0,0:0:0:0:
256,192,178302,1,8,0:0:0:0:
256,192,178724,1,0,0:0:0:0:
256,192,178795,1,0,0:0:0:0:
256,192,178935,1,0,0:0:0:0:
256,192,179006,1,8,0:0:0:0:
256,192,179147,1,0,0:0:0:0:
256,192,179217,1,0,0:0:0:0:
256,192,179358,1,0,0:0:0:0:
256,192,179428,1,8,0:0:0:0:
256,192,179569,1,0,0:0:0:0:
256,192,179640,1,8,0:0:0:0:
256,192,179781,1,0,0:0:0:0:
256,192,179851,1,8,0:0:0:0:
256,192,179992,1,0,0:0:0:0:
256,192,180097,1,0,0:0:0:0:
256,192,180203,1,8,0:0:0:0:
256,192,180309,1,8,0:0:0:0:
256,192,180414,1,0,0:0:0:0:
256,192,180626,1,0,0:0:0:0:
256,192,180731,1,0,0:0:0:0:
256,192,180837,1,8,0:0:0:0:
256,192,181048,1,8,0:0:0:0:
256,192,181259,1,8,0:0:0:0:
256,192,181471,1,8,0:0:0:0:
256,192,181576,1,8,0:0:0:0:
256,192,181682,1,0,0:0:0:0:
256,192,181893,1,8,0:0:0:0:
256,192,182104,1,0,0:0:0:0:
256,192,182316,1,8,0:0:0:0:
256,192,182527,1,8,0:0:0:0:
256,192,182738,1,0,0:0:0:0:
256,192,182950,1,8,0:0:0:0:
256,192,183795,1,8,0:0:0:0:
256,192,184217,1,0,0:0:0:0:
256,192,184428,1,0,0:0:0:0:
256,192,184640,1,8,0:0:0:0:
256,192,184851,1,8,0:0:0:0:
256,192,185062,1,0,0:0:0:0:
256,192,185274,1,12,0:0:0:0:
256,192,185485,1,8,0:0:0:0:
256,192,185590,1,0,0:0:0:0:
256,192,185696,1,8,0:0:0:0:
256,192,185802,1,0,0:0:0:0:
256,192,185907,1,8,0:0:0:0:
256,192,186013,1,8,0:0:0:0:
256,192,186119,1,8,0:0:0:0:
256,192,186224,1,8,0:0:0:0:
256,192,186330,1,8,0:0:0:0:
256,192,186435,1,0,0:0:0:0:
256,192,186541,1,8,0:0:0:0:
256,192,186647,1,0,0:0:0:0:
256,192,186752,1,8,0:0:0:0:
256,192,186857,1,8,0:0:0:0:
256,192,186963,1,8,0:0:0:0:
256,192,187068,1,8,0:0:0:0:
256,192,187174,1,0,0:0:0:0:
256,192,187385,1,0,0:0:0:0:
256,192,187597,1,8,0:0:0:0:
256,192,187808,1,8,0:0:0:0:
256,192,188019,1,0,0:0:0:0:
256,192,188230,1,12,0:0:0:0:
256,192,188442,1,8,0:0:0:0:
256,192,188547,1,8,0:0:0:0:
256,192,188653,1,0,0:0:0:0:
256,192,188759,1,0,0:0:0:0:
256,192,188864,1,8,0:0:0:0:
256,192,188970,1,8,0:0:0:0:
256,192,189075,1,0,0:0:0:0:
256,192,189181,1,0,0:0:0:0:
256,192,189287,1,8,0:0:0:0:
256,192,189392,1,0,0:0:0:0:
256,192,189498,1,8,0:0:0:0:
256,192,189604,1,8,0:0:0:0:
256,192,189709,1,8,0:0:0:0:
256,192,189815,1,0,0:0:0:0:
256,192,189921,1,8,0:0:0:0:
256,192,190026,1,8,0:0:0:0:
256,192,190132,1,0,0:0:0:0:
256,192,190343,1,8,0:0:0:0:
256,192,190554,1,0,0:0:0:0:
256,192,190660,1,8,0:0:0:0:
256,192,190766,1,8,0:0:0:0:
256,192,190871,1,0,0:0:0:0:
256,192,190977,1,8,0:0:0:0:
256,192,191188,1,12,0:0:0:0:
256,192,191399,1,0,0:0:0:0:
256,192,191611,1,12,0:0:0:0:
256,192,191822,1,8,0:0:0:0:
256,192,191928,1,8,0:0:0:0:
256,192,192033,1,8,0:0:0:0:
256,192,192139,1,8,0:0:0:0:
256,192,192244,1,0,0:0:0:0:
256,192,192350,1,0,0:0:0:0:
256,192,192456,1,0,0:0:0:0:
256,192,192561,1,0,0:0:0:0:
256,192,192667,1,8,0:0:0:0:
256,192,192773,1,8,0:0:0:0:
256,192,192878,1,8,0:0:0:0:
256,192,192984,1,8,0:0:0:0:
256,192,193090,1,0,0:0:0:0:
256,192,193195,1,0,0:0:0:0:
256,192,193301,1,0,0:0:0:0:
256,192,193406,1,0,0:0:0:0:
256,192,193512,1,8,0:0:0:0:
256,192,193723,1,8,0:0:0:0:
256,192,193935,1,0,0:0:0:0:
256,192,194146,1,8,0:0:0:0:
256,192,194357,1,8,0:0:0:0:
256,192,194568,1,0,0:0:0:0:
256,192,194780,1,0,0:0:0:0:
256,192,194991,1,12,0:0:0:0:
256,192,195202,1,0,0:0:0:0:
256,192,195308,1,0,0:0:0:0:
256,192,195413,1,0,0:0:0:0:
256,192,195519,1,0,0:0:0:0:
256,192,195625,1,8,0:0:0:0:
256,192,195730,1,8,0:0:0:0:
256,192,195836,1,8,0:0:0:0:
256,192,195942,1,8,0:0:0:0:
256,192,196047,1,0,0:0:0:0:
256,192,196153,1,0,0:0:0:0:
256,192,196259,1,0,0:0:0:0:
256,192,196364,1,0,0:0:0:0:
256,192,196470,1,8,0:0:0:0:
256,192,196575,1,8,0:0:0:0:
256,192,196681,1,8,0:0:0:0:
256,192,196787,1,8,0:0:0:0:
256,192,196892,1,0,0:0:0:0:
256,192,197104,1,8,0:0:0:0:
256,192,197209,1,8,0:0:0:0:
256,192,197315,1,0,0:0:0:0:
256,192,197526,1,8,0:0:0:0:
256,192,197737,1,0,0:0:0:0:
256,192,197843,1,8,0:0:0:0:
256,192,197949,1,8,0:0:0:0:
256,192,198054,1,8,0:0:0:0:
256,192,198160,1,0,0:0:0:0:
256,192,198371,1,12,0:0:0:0:
256,192,198582,1,8,0:0:0:0:
256,192,198653,1,0,0:0:0:0:
256,192,198794,1,8,0:0:0:0:
256,192,198864,1,0,0:0:0:0:
256,192,199005,1,8,0:0:0:0:
256,192,199075,1,0,0:0:0:0:
256,192,199216,1,8,0:0:0:0:
256,192,199287,1,0,0:0:0:0:
256,192,199428,1,8,0:0:0:0:
256,192,199498,1,0,0:0:0:0:
256,192,199639,1,8,0:0:0:0:
256,192,199709,1,0,0:0:0:0:
256,192,199850,1,8,0:0:0:0:
256,192,199921,1,0,0:0:0:0:
256,192,200061,1,8,0:0:0:0:
256,192,200132,1,0,0:0:0:0:
256,192,200273,1,8,0:0:0:0:
256,192,200378,1,0,0:0:0:0:
256,192,200484,1,8,0:0:0:0:
256,192,200590,1,8,0:0:0:0:
256,192,200695,1,0,0:0:0:0:
256,192,200801,1,0,0:0:0:0:
256,192,200906,1,8,0:0:0:0:
256,192,201012,1,8,0:0:0:0:
256,192,201118,1,0,0:0:0:0:
256,192,201223,1,8,0:0:0:0:
256,192,201329,1,0,0:0:0:0:
256,192,201435,1,8,0:0:0:0:
256,192,201540,1,8,0:0:0:0:
256,192,201646,1,0,0:0:0:0:
256,192,201752,1,8,0:0:0:0:
256,192,201857,1,8,0:0:0:0:
256,192,201963,1,0,0:0:0:0:
256,192,202068,1,0,0:0:0:0:
256,192,202174,1,8,0:0:0:0:
256,192,202280,1,8,0:0:0:0:
256,192,202385,1,0,0:0:0:0:
256,192,202491,1,0,0:0:0:0:
256,192,202597,1,8,0:0:0:0:
256,192,202702,1,8,0:0:0:0:
256,192,202808,1,0,0:0:0:0:
256,192,202913,1,0,0:0:0:0:
256,192,203019,1,8,0:0:0:0:
256,192,203125,1,8,0:0:0:0:
256,192,203230,1,8,0:0:0:0:
256,192,203441,1,8,0:0:0:0:
256,192,203652,1,0,0:0:0:0:
256,192,203863,1,8,0:0:0:0:
256,192,204075,1,8,0:0:0:0:
256,192,204286,1,8,0:0:0:0:
256,192,204497,1,0,0:0:0:0:
256,192,204708,1,12,0:0:0:0:
256,192,204920,1,8,0:0:0:0:
256,192,205025,1,0,0:0:0:0:
256,192,205131,1,8,0:0:0:0:
256,192,205237,1,8,0:0:0:0:
256,192,205342,1,0,0:0:0:0:
256,192,205448,1,8,0:0:0:0:
256,192,205553,1,8,0:0:0:0:
256,192,205659,1,0,0:0:0:0:
256,192,205765,1,8,0:0:0:0:
256,192,205870,1,0,0:0:0:0:
256,192,205976,1,0,0:0:0:0:
256,192,206082,1,0,0:0:0:0:
256,192,206187,1,8,0:0:0:0:
256,192,206609,1,0,0:0:0:0:
256,192,206820,1,8,0:0:0:0:
256,192,207032,1,8,0:0:0:0:
256,192,207243,1,0,0:0:0:0:
256,192,207454,1,0,0:0:0:0:
256,192,207665,1,8,0:0:0:0:
256,192,207877,1,0,0:0:0:0:
256,192,207982,1,0,0:0:0:0:
256,192,208088,1,8,0:0:0:0:
256,192,208194,1,0,0:0:0:0:
256,192,208299,1,8,0:0:0:0:
256,192,208405,1,8,0:0:0:0:
256,192,208510,1,0,0:0:0:0:
256,192,208616,1,8,0:0:0:0:
256,192,208722,1,0,0:0:0:0:
256,192,208827,1,0,0:0:0:0:
256,192,208933,1,8,0:0:0:0:
256,192,209039,1,0,0:0:0:0:
256,192,209144,1,8,0:0:0:0:
256,192,209250,1,8,0:0:0:0:
256,192,209356,1,8,0:0:0:0:
256,192,209461,1,8,0:0:0:0:
256,192,209567,1,0,0:0:0:0:
256,192,209778,1,8,0:0:0:0:
256,192,209989,1,0,0:0:0:0:
256,192,210201,1,8,0:0:0:0:
256,192,210412,1,8,0:0:0:0:
256,192,210623,1,8,0:0:0:0:
256,192,210834,1,0,0:0:0:0:
256,192,211046,1,12,0:0:0:0:
256,192,211257,1,8,0:0:0:0:
256,192,211363,1,8,0:0:0:0:
256,192,211468,1,0,0:0:0:0:
256,192,211574,1,8,0:0:0:0:
256,192,211679,1,8,0:0:0:0:
256,192,211785,1,8,0:0:0:0:
256,192,211891,1,0,0:0:0:0:
256,192,211996,1,8,0:0:0:0:
256,192,212102,1,8,0:0:0:0:
256,192,212208,1,8,0:0:0:0:
256,192,212313,1,0,0:0:0:0:
256,192,212419,1,0,0:0:0:0:
256,192,212525,1,8,0:0:0:0:
256,192,212630,1,8,0:0:0:0:
256,192,212736,1,0,0:0:0:0:
256,192,212841,1,0,0:0:0:0:
256,192,212947,1,0,0:0:0:0:
256,192,213370,1,8,0:0:0:0:
256,192,213581,1,8,0:0:0:0:
256,192,213792,1,0,0:0:0:0:
256,192,214003,1,0,0:0:0:0:
256,192,214215,1,8,0:0:0:0:
256,192,214637,1,0,0:0:0:0:
256,192,214708,1,8,0:0:0:0:
256,192,214848,1,0,0:0:0:0:
256,192,214919,1,8,0:0:0:0:
256,192,215060,1,0,0:0:0:0:
256,192,215130,1,8,0:0:0:0:
256,192,215271,1,0,0:0:0:0:
256,192,215341,1,8,0:0:0:0:
256,192,215482,1,0,0:0:0:0:
256,192,215553,1,8,0:0:0:0:
256,192,215694,1,0,0:0:0:0:
256,192,215764,1,8,0:0:0:0:
256,192,215905,1,0,0:0:0:0:
256,192,215975,1,8,0:0:0:0:
256,192,216116,1,0,0:0:0:0:
256,192,216187,1,8,0:0:0:0:
256,192,216327,1,0,0:0:0:0:
256,192,216750,1,8,0:0:0:0:
256,192,216961,1,8,0:0:0:0:
256,192,217172,1,8,0:0:0:0:
256,192,217595,1,0,0:0:0:0:
256,192,217806,1,8,0:0:0:0:
256,192,218017,1,0,0:0:0:0:
256,192,218229,1,8,0:0:0:0:
256,192,218334,1,0,0:0:0:0:
256,192,218440,1,8,0:0:0:0:
256,192,218651,1,0,0:0:0:0:
256,192,218863,1,8,0:0:0:0:
256,192,219074,1,8,0:0:0:0:
256,192,219179,1,8,0:0:0:0:
256,192,219285,1,0,0:0:0:0:
256,192,219496,1,8,0:0:0:0:
256,192,219602,1,0,0:0:0:0:
256,192,219708,1,8,0:0:0:0:
256,192,219848,1,8,0:0:0:0:
256,192,219989,1,8,0:0:0:0:
256,192,220130,1,0,0:0:0:0:
256,192,220341,1,0,0:0:0:0:
256,192,220553,1,8,0:0:0:0:
256,192,220764,1,0,0:0:0:0:
256,192,220975,1,8,0:0:0:0:
256,192,221187,1,8,0:0:0:0:
256,192,221292,1,8,0:0:0:0:
256,192,221398,1,0,0:0:0:0:
256,192,221503,1,8,0:0:0:0:
256,192,221820,1,8,0:0:0:0:
256,192,222032,1,8,0:0:0:0:
256,192,222243,1,0,0:0:0:0:
256,192,222665,1,0,0:0:0:0:
256,192,222877,1,12,0:0:0:0:
256,192,223088,1,8,0:0:0:0:
256,192,223510,1,0,0:0:0:0:
256,192,223722,1,0,0:0:0:0:
256,192,223933,1,8,0:0:0:0:
256,192,224144,1,8,0:0:0:0:
256,192,224356,1,0,0:0:0:0:
256,192,224567,1,12,0:0:0:0:
256,192,224778,1,8,0:0:0:0:
256,192,224884,1,0,0:0:0:0:
256,192,224989,1,8,0:0:0:0:
256,192,225095,1,0,0:0:0:0:
256,192,225201,1,8,0:0:0:0:
256,192,225306,1,8,0:0:0:0:
256,192,225412,1,8,0:0:0:0:
256,192,225517,1,8,0:0:0:0:
256,192,225623,1,8,0:0:0:0:
256,192,225729,1,0,0:0:0:0:
256,192,225834,1,8,0:0:0:0:
256,192,225940,1,0,0:0:0:0:
256,192,226046,1,8,0:0:0:0:
256,192,226151,1,8,0:0:0:0:
256,192,226257,1,8,0:0:0:0:
256,192,226362,1,8,0:0:0:0:
256,192,226468,1,0,0:0:0:0:
256,192,226679,1,0,0:0:0:0:
256,192,226891,1,8,0:0:0:0:
256,192,227102,1,8,0:0:0:0:
256,192,227313,1,0,0:0:0:0:
256,192,227524,1,12,0:0:0:0:
256,192,227736,1,8,0:0:0:0:
256,192,227841,1,8,0:0:0:0:
256,192,227947,1,0,0:0:0:0:
256,192,228053,1,0,0:0:0:0:
256,192,228158,1,8,0:0:0:0:
256,192,228264,1,8,0:0:0:0:
256,192,228369,1,0,0:0:0:0:
256,192,228475,1,0,0:0:0:0:
256,192,228581,1,8,0:0:0:0:
256,192,228686,1,0,0:0:0:0:
256,192,228792,1,8,0:0:0:0:
256,192,228898,1,8,0:0:0:0:
256,192,229003,1,8,0:0:0:0:
256,192,229109,1,0,0:0:0:0:
256,192,229215,1,8,0:0:0:0:
256,192,229320,1,8,0:0:0:0:
256,192,229426,1,0,0:0:0:0:
256,192,229637,1,8,0:0:0:0:
256,192,229848,1,0,0:0:0:0:
256,192,229954,1,8,0:0:0:0:
256,192,230060,1,8,0:0:0:0:
256,192,230165,1,0,0:0:0:0:
256,192,230271,1,8,0:0:0:0:
256,192,230482,1,12,0:0:0:0:
256,192,230693,1,0,0:0:0:0:
256,192,230905,1,12,0:0:0:0:
256,192,231116,1,8,0:0:0:0:
256,192,231222,1,8,0:0:0:0:
256,192,231327,1,8,0:0:0:0:
256,192,231433,1,8,0:0:0:0:
256,192,231538,1,0,0:0:0:0:
256,192,231644,1,0,0:0:0:0:
256,192,231750,1,0,0:0:0:0:
256,192,231855,1,0,0:0:0:0:
256,192,231961,1,8,0:0:0:0:
256,192,232067,1,8,0:0:0:0:
256,192,232172,1,8,0:0:0:0:
256,192,232278,1,8,0:0:0:0:
256,192,232384,1,0,0:0:0:0:
256,192,232489,1,0,0:0:0:0:
256,192,232595,1,0,0:0:0:0:
256,192,232700,1,0,0:0:0:0:
256,192,232806,1,8,0:0:0:0:
256,192,233017,1,8,0:0:0:0:
256,192,233229,1,0,0:0:0:0:
256,192,233440,1,8,0:0:0:0:
256,192,233651,1,8,0:0:0:0:
256,192,233862,1,0,0:0:0:0:
256,192,234074,1,0,0:0:0:0:
256,192,234285,1,12,0:0:0:0:
256,192,234496,1,0,0:0:0:0:
256,192,234602,1,0,0:0:0:0:
256,192,234707,1,0,0:0:0:0:
256,192,234813,1,0,0:0:0:0:
256,192,234919,1,8,0:0:0:0:
256,192,235024,1,8,0:0:0:0:
256,192,235130,1,8,0:0:0:0:
256,192,235236,1,8,0:0:0:0:
256,192,235341,1,0,0:0:0:0:
256,192,235447,1,0,0:0:0:0:
256,192,235553,1,0,0:0:0:0:
256,192,235658,1,0,0:0:0:0:
256,192,235764,1,8,0:0:0:0:
256,192,235869,1,8,0:0:0:0:
256,192,235975,1,8,0:0:0:0:
256,192,236081,1,8,0:0:0:0:
256,192,236186,1,0,0:0:0:0:
256,192,236398,1,8,0:0:0:0:
256,192,236503,1,8,0:0:0:0:
256,192,236609,1,0,0:0:0:0:
256,192,236820,1,8,0:0:0:0:
256,192,237031,1,0,0:0:0:0:
256,192,237137,1,8,0:0:0:0:
256,192,237243,1,8,0:0:0:0:
256,192,237348,1,8,0:0:0:0:
256,192,237454,1,0,0:0:0:0:
256,192,237665,1,12,0:0:0:0:
256,192,237876,1,8,0:0:0:0:
256,192,237947,1,0,0:0:0:0:
256,192,238088,1,8,0:0:0:0:
256,192,238158,1,0,0:0:0:0:
256,192,238299,1,8,0:0:0:0:
256,192,238369,1,0,0:0:0:0:
256,192,238510,1,8,0:0:0:0:
256,192,238581,1,0,0:0:0:0:
256,192,238722,1,8,0:0:0:0:
256,192,238792,1,0,0:0:0:0:
256,192,238933,1,8,0:0:0:0:
256,192,239003,1,0,0:0:0:0:
256,192,239144,1,8,0:0:0:0:
256,192,239215,1,0,0:0:0:0:
256,192,239355,1,8,0:0:0:0:
256,192,239426,1,0,0:0:0:0:
256,192,239567,1,8,0:0:0:0:
256,192,239672,1,0,0:0:0:0:
256,192,239778,1,8,0:0:0:0:
256,192,239884,1,8,0:0:0:0:
256,192,239989,1,0,0:0:0:0:
256,192,240095,1,0,0:0:0:0:
256,192,240200,1,8,0:0:0:0:
256,192,240306,1,8,0:0:0:0:
256,192,240412,1,0,0:0:0:0:
256,192,240517,1,8,0:0:0:0:
256,192,240623,1,0,0:0:0:0:
256,192,240729,1,8,0:0:0:0:
256,192,240834,1,8,0:0:0:0:
256,192,240940,1,0,0:0:0:0:
256,192,241046,1,8,0:0:0:0:
256,192,241151,1,8,0:0:0:0:
256,192,241257,1,0,0:0:0:0:
256,192,241362,1,0,0:0:0:0:
256,192,241468,1,8,0:0:0:0:
256,192,241574,1,8,0:0:0:0:
256,192,241679,1,0,0:0:0:0:
256,192,241785,1,0,0:0:0:0:
256,192,241891,1,8,0:0:0:0:
256,192,241996,1,8,0:0:0:0:
256,192,242102,1,0,0:0:0:0:
256,192,242207,1,0,0:0:0:0:
256,192,242313,1,8,0:0:0:0:
256,192,242419,1,8,0:0:0:0:
256,192,242524,1,8,0:0:0:0:
256,192,242735,1,8,0:0:0:0:
256,192,242946,1,0,0:0:0:0:
256,192,243157,1,8,0:0:0:0:
256,192,243369,1,8,0:0:0:0:
256,192,243580,1,8,0:0:0:0:
256,192,243791,1,0,0:0:0:0:
256,192,244002,1,12,0:0:0:0:
256,192,244214,1,8,0:0:0:0:
256,192,244319,1,0,0:0:0:0:
256,192,244425,1,8,0:0:0:0:
256,192,244531,1,8,0:0:0:0:
256,192,244636,1,0,0:0:0:0:
256,192,244742,1,8,0:0:0:0:
256,192,244847,1,8,0:0:0:0:
256,192,244953,1,0,0:0:0:0:
256,192,245059,1,8,0:0:0:0:
256,192,245164,1,0,0:0:0:0:
256,192,245270,1,0,0:0:0:0:
256,192,245376,1,0,0:0:0:0:
256,192,245481,1,8,0:0:0:0:
256,192,245903,1,0,0:0:0:0:
256,192,246114,1,8,0:0:0:0:
256,192,246326,1,8,0:0:0:0:
256,192,246537,1,0,0:0:0:0:
256,192,246748,1,0,0:0:0:0:
256,192,246959,1,8,0:0:0:0:
256,192,247171,1,0,0:0:0:0:
256,192,247276,1,0,0:0:0:0:
256,192,247382,1,8,0:0:0:0:
256,192,247488,1,0,0:0:0:0:
256,192,247593,1,8,0:0:0:0:
256,192,247699,1,8,0:0:0:0:
256,192,247804,1,0,0:0:0:0:
256,192,247910,1,8,0:0:0:0:
256,192,248016,1,0,0:0:0:0:
256,192,248121,1,0,0:0:0:0:
256,192,248227,1,8,0:0:0:0:
256,192,248333,1,0,0:0:0:0:
256,192,248438,1,8,0:0:0:0:
256,192,248544,1,8,0:0:0:0:
256,192,248650,1,8,0:0:0:0:
256,192,248755,1,8,0:0:0:0:
256,192,248861,1,0,0:0:0:0:
256,192,249072,1,8,0:0:0:0:
256,192,249283,1,0,0:0:0:0:
256,192,249495,1,8,0:0:0:0:
256,192,249706,1,8,0:0:0:0:
256,192,249917,1,8,0:0:0:0:
256,192,250128,1,0,0:0:0:0:
256,192,250340,1,12,0:0:0:0:
256,192,250551,1,8,0:0:0:0:
256,192,250657,1,8,0:0:0:0:
256,192,250762,1,0,0:0:0:0:
256,192,250868,1,8,0:0:0:0:
256,192,250973,1,8,0:0:0:0:
256,192,251079,1,8,0:0:0:0:
256,192,251185,1,0,0:0:0:0:
256,192,251290,1,8,0:0:0:0:
256,192,251396,1,8,0:0:0:0:
256,192,251502,1,8,0:0:0:0:
256,192,251607,1,0,0:0:0:0:
256,192,251713,1,0,0:0:0:0:
256,192,251819,1,8,0:0:0:0:
256,192,251924,1,8,0:0:0:0:
256,192,252030,1,0,0:0:0:0:
256,192,252135,1,0,0:0:0:0:
256,192,252241,1,0,0:0:0:0:
256,192,252664,1,8,0:0:0:0:
256,192,252875,1,8,0:0:0:0:
256,192,253086,1,0,0:0:0:0:
256,192,253297,1,0,0:0:0:0:
256,192,253509,1,8,0:0:0:0:
256,192,253931,1,0,0:0:0:0:
256,192,254002,1,8,0:0:0:0:
256,192,254142,1,0,0:0:0:0:
256,192,254213,1,8,0:0:0:0:
256,192,254354,1,0,0:0:0:0:
256,192,254424,1,8,0:0:0:0:
256,192,254565,1,0,0:0:0:0:
256,192,254635,1,8,0:0:0:0:
256,192,254776,1,0,0:0:0:0:
256,192,254847,1,8,0:0:0:0:
256,192,254988,1,0,0:0:0:0:
256,192,255058,1,8,0:0:0:0:
256,192,255199,1,0,0:0:0:0:
256,192,255269,1,8,0:0:0:0:
256,192,255410,1,0,0:0:0:0:
256,192,255481,1,8,0:0:0:0:
256,192,255621,1,0,0:0:0:0:
256,192,255692,1,8,0:0:0:0:
256,192,255833,1,0,0:0:0:0:
256,192,255903,1,8,0:0:0:0:
256,192,256044,1,0,0:0:0:0:
256,192,256114,1,8,0:0:0:0:
256,192,256255,1,0,0:0:0:0:
256,192,256326,1,8,0:0:0:0:
256,192,256466,1,0,0:0:0:0:
256,192,256537,1,8,0:0:0:0:
256,192,256678,1,0,0:0:0:0:
256,192,256748,1,8,0:0:0:0:
256,192,256889,1,0,0:0:0:0:
256,192,256959,1,8,0:0:0:0:
256,192,257100,1,0,0:0:0:0:
256,192,257171,1,8,0:0:0:0:
256,192,257311,1,8,0:0:0:0:
256,192,257734,1,8,0:0:0:0:
256,192,257945,1,8,0:0:0:0:
256,192,258157,1,8,0:0:0:0:
256,192,258579,1,0,0:0:0:0:
256,192,258790,1,8,0:0:0:0:
256,192,259002,1,0,0:0:0:0:
256,192,259213,1,8,0:0:0:0:
256,192,259424,1,8,0:0:0:0:
256,192,259635,1,0,0:0:0:0:
256,192,259847,1,8,0:0:0:0:
256,192,260269,1,0,0:0:0:0:
256,192,260375,1,0,0:0:0:0:
256,192,260481,1,8,0:0:0:0:
256,192,260586,1,0,0:0:0:0:
256,192,260692,1,8,0:0:0:0:
256,192,260797,1,8,0:0:0:0:
256,192,260903,1,0,0:0:0:0:
256,192,261009,1,0,0:0:0:0:
256,192,261114,1,8,0:0:0:0:
256,192,261220,1,8,0:0:0:0:
256,192,261326,1,0,0:0:0:0:
256,192,261431,1,8,0:0:0:0:
256,192,261537,1,0,0:0:0:0:
256,192,261642,1,0,0:0:0:0:
256,192,261748,1,8,0:0:0:0:
256,192,261854,1,8,0:0:0:0:
256,192,261959,1,0,0:0:0:0:
256,192,262065,1,8,0:0:0:0:
256,192,262171,1,8,0:0:0:0:
256,192,262276,1,8,0:0:0:0:
256,192,262382,1,8,0:0:0:0:
256,192,262523,1,8,0:0:0:0:
256,192,262664,1,8,0:0:0:0:
256,192,262804,1,0,0:0:0:0:
256,192,263016,1,0,0:0:0:0:
256,192,263227,1,8,0:0:0:0:
256,192,263438,1,0,0:0:0:0:
256,192,263650,1,8,0:0:0:0:
256,192,263861,1,8,0:0:0:0:
256,192,263966,1,8,0:0:0:0:
256,192,264072,1,0,0:0:0:0:
256,192,264178,1,8,0:0:0:0:
256,192,264495,1,8,0:0:0:0:
256,192,264706,1,8,0:0:0:0:
256,192,264811,1,8,0:0:0:0:
256,192,264917,1,0,0:0:0:0:
256,192,265128,1,0,0:0:0:0:
256,192,265234,1,0,0:0:0:0:
256,192,265340,1,8,0:0:0:0:
256,192,265551,1,12,0:0:0:0:
256,192,265762,1,8,0:0:0:0:
256,192,265973,1,8,0:0:0:0:
256,192,266185,1,0,0:0:0:0:
256,192,266396,1,0,0:0:0:0:
256,192,266607,1,8,0:0:0:0:
256,192,266819,1,8,0:0:0:0:
256,192,267030,1,0,0:0:0:0:
256,192,267241,1,12,0:0:0:0:
256,192,267452,1,8,0:0:0:0:
256,192,267558,1,0,0:0:0:0:
256,192,267664,1,8,0:0:0:0:
256,192,267769,1,0,0:0:0:0:
256,192,267875,1,8,0:0:0:0:
256,192,267981,1,8,0:0:0:0:
256,192,268086,1,8,0:0:0:0:
256,192,268192,1,8,0:0:0:0:
256,192,268297,1,8,0:0:0:0:
256,192,268403,1,0,0:0:0:0:
256,192,268509,1,8,0:0:0:0:
256,192,268614,1,0,0:0:0:0:
256,192,268720,1,8,0:0:0:0:
256,192,268825,1,8,0:0:0:0:
256,192,268931,1,8,0:0:0:0:
256,192,269036,1,8,0:0:0:0:
256,192,269142,1,0,0:0:0:0:
256,192,269353,1,0,0:0:0:0:
256,192,269565,1,8,0:0:0:0:
256,192,269776,1,8,0:0:0:0:
256,192,269987,1,0,0:0:0:0:
256,192,270198,1,12,0:0:0:0:
256,192,270410,1,8,0:0:0:0:
256,192,270515,1,8,0:0:0:0:
256,192,270621,1,0,0:0:0:0:
256,192,270727,1,0,0:0:0:0:
256,192,270832,1,8,0:0:0:0:
256,192,270938,1,8,0:0:0:0:
256,192,271043,1,0,0:0:0:0:
256,192,271149,1,0,0:0:0:0:
256,192,271255,1,8,0:0:0:0:
256,192,271360,1,0,0:0:0:0:
256,192,271466,1,8,0:0:0:0:
256,192,271572,1,8,0:0:0:0:
256,192,271677,1,8,0:0:0:0:
256,192,271783,1,0,0:0:0:0:
256,192,271889,1,8,0:0:0:0:
256,192,271994,1,8,0:0:0:0:
256,192,272100,1,0,0:0:0:0:
256,192,272311,1,8,0:0:0:0:
256,192,272522,1,0,0:0:0:0:
256,192,272628,1,8,0:0:0:0:
256,192,272734,1,8,0:0:0:0:
256,192,272839,1,0,0:0:0:0:
256,192,272945,1,8,0:0:0:0:
256,192,273156,1,12,0:0:0:0:
256,192,273367,1,0,0:0:0:0:
256,192,273579,1,12,0:0:0:0:
256,192,273790,1,8,0:0:0:0:
256,192,273896,1,8,0:0:0:0:
256,192,274001,1,8,0:0:0:0:
256,192,274107,1,8,0:0:0:0:
256,192,274212,1,0,0:0:0:0:
256,192,274318,1,0,0:0:0:0:
256,192,274424,1,0,0:0:0:0:
256,192,274529,1,0,0:0:0:0:
256,192,274635,1,8,0:0:0:0:
256,192,274741,1,8,0:0:0:0:
256,192,274846,1,8,0:0:0:0:
256,192,274952,1,8,0:0:0:0:
256,192,275058,1,0,0:0:0:0:
256,192,275163,1,0,0:0:0:0:
256,192,275269,1,0,0:0:0:0:
256,192,275374,1,0,0:0:0:0:
256,192,275480,1,8,0:0:0:0:
256,192,275691,1,8,0:0:0:0:
256,192,275903,1,0,0:0:0:0:
256,192,276114,1,8,0:0:0:0:
256,192,276325,1,8,0:0:0:0:
256,192,276536,1,0,0:0:0:0:
256,192,276748,1,0,0:0:0:0:
256,192,276959,1,12,0:0:0:0:
256,192,277170,1,0,0:0:0:0:
256,192,277276,1,0,0:0:0:0:
256,192,277381,1,0,0:0:0:0:
256,192,277487,1,0,0:0:0:0:
256,192,277593,1,8,0:0:0:0:
256,192,277698,1,8,0:0:0:0:
256,192,277804,1,8,0:0:0:0:
256,192,277910,1,8,0:0:0:0:
256,192,278015,1,0,0:0:0:0:
256,192,278121,1,0,0:0:0:0:
256,192,278227,1,0,0:0:0:0:
256,192,278332,1,0,0:0:0:0:
256,192,278438,1,8,0:0:0:0:
256,192,278543,1,8,0:0:0:0:
256,192,278649,1,8,0:0:0:0:
256,192,278755,1,8,0:0:0:0:
256,192,278860,1,0,0:0:0:0:
256,192,279072,1,8,0:0:0:0:
256,192,279177,1,8,0:0:0:0:
256,192,279283,1,0,0:0:0:0:
256,192,279494,1,8,0:0:0:0:
256,192,279705,1,0,0:0:0:0:
256,192,279811,1,8,0:0:0:0:
256,192,279917,1,8,0:0:0:0:
256,192,280022,1,8,0:0:0:0:
256,192,280128,1,0,0:0:0:0:
256,192,280339,1,12,0:0:0:0:
256,192,280550,1,8,0:0:0:0:
256,192,280621,1,0,0:0:0:0:
256,192,280762,1,8,0:0:0:0:
256,192,280832,1,0,0:0:0:0:
256,192,280973,1,8,0:0:0:0:
256,192,281043,1,0,0:0:0:0:
256,192,281184,1,8,0:0:0:0:
256,192,281255,1,0,0:0:0:0:
256,192,281396,1,8,0:0:0:0:
256,192,281466,1,0,0:0:0:0:
256,192,281607,1,8,0:0:0:0:
256,192,281677,1,0,0:0:0:0:
256,192,281818,1,8,0:0:0:0:
256,192,281889,1,0,0:0:0:0:
256,192,282029,1,8,0:0:0:0:
256,192,282100,1,0,0:0:0:0:
256,192,282241,1,8,0:0:0:0:
256,192,282346,1,0,0:0:0:0:
256,192,282452,1,8,0:0:0:0:
256,192,282558,1,8,0:0:0:0:
256,192,282663,1,0,0:0:0:0:
256,192,282769,1,0,0:0:0:0:
256,192,282874,1,8,0:0:0:0:
256,192,282980,1,8,0:0:0:0:
256,192,283086,1,0,0:0:0:0:
256,192,283191,1,8,0:0:0:0:
256,192,283297,1,0,0:0:0:0:
256,192,283403,1,8,0:0:0:0:
256,192,283508,1,8,0:0:0:0:
256,192,283614,1,0,0:0:0:0:
256,192,283720,1,8,0:0:0:0:
256,192,283825,1,8,0:0:0:0:
256,192,283931,1,0,0:0:0:0:
256,192,284036,1,0,0:0:0:0:
256,192,284142,1,8,0:0:0:0:
256,192,284248,1,8,0:0:0:0:
256,192,284353,1,0,0:0:0:0:
256,192,284459,1,0,0:0:0:0:
256,192,284565,1,8,0:0:0:0:
256,192,284670,1,8,0:0:0:0:
256,192,284776,1,0,0:0:0:0:
256,192,284881,1,0,0:0:0:0:
256,192,284987,1,8,0:0:0:0:
256,192,285093,1,8,0:0:0:0:
256,192,285198,1,8,0:0:0:0:
256,192,285409,1,8,0:0:0:0:
256,192,285620,1,0,0:0:0:0:
256,192,285831,1,8,0:0:0:0:
256,192,286043,1,8,0:0:0:0:
256,192,286254,1,8,0:0:0:0:
256,192,286465,1,0,0:0:0:0:
256,192,286676,1,12,0:0:0:0:
256,192,286888,1,8,0:0:0:0:
256,192,286993,1,0,0:0:0:0:
256,192,287099,1,8,0:0:0:0:
256,192,287205,1,8,0:0:0:0:
256,192,287310,1,0,0:0:0:0:
256,192,287416,1,8,0:0:0:0:
256,192,287521,1,8,0:0:0:0:
256,192,287627,1,0,0:0:0:0:
256,192,287733,1,8,0:0:0:0:
256,192,287838,1,0,0:0:0:0:
256,192,287944,1,0,0:0:0:0:
256,192,288050,1,0,0:0:0:0:
256,192,288155,1,8,0:0:0:0:
256,192,288577,1,0,0:0:0:0:
256,192,288788,1,8,0:0:0:0:
256,192,289000,1,8,0:0:0:0:
256,192,289211,1,0,0:0:0:0:
256,192,289422,1,0,0:0:0:0:
256,192,289633,1,8,0:0:0:0:
256,192,289845,1,0,0:0:0:0:
256,192,289950,1,0,0:0:0:0:
256,192,290056,1,8,0:0:0:0:
256,192,290162,1,0,0:0:0:0:
256,192,290267,1,8,0:0:0:0:
256,192,290373,1,8,0:0:0:0:
256,192,290478,1,0,0:0:0:0:
256,192,290584,1,8,0:0:0:0:
256,192,290690,1,0,0:0:0:0:
256,192,290795,1,0,0:0:0:0:
256,192,290901,1,8,0:0:0:0:
256,192,291007,1,0,0:0:0:0:
256,192,291112,1,8,0:0:0:0:
256,192,291218,1,8,0:0:0:0:
256,192,291324,1,8,0:0:0:0:
256,192,291429,1,8,0:0:0:0:
256,192,291535,1,0,0:0:0:0:
256,192,291746,1,8,0:0:0:0:
256,192,291957,1,0,0:0:0:0:
256,192,292169,1,8,0:0:0:0:
256,192,292380,1,8,0:0:0:0:
256,192,292591,1,8,0:0:0:0:
256,192,292802,1,0,0:0:0:0:
256,192,293014,1,12,0:0:0:0:
256,192,293225,1,8,0:0:0:0:
256,192,293331,1,8,0:0:0:0:
256,192,293436,1,0,0:0:0:0:
256,192,293542,1,8,0:0:0:0:
256,192,293647,1,8,0:0:0:0:
256,192,293753,1,8,0:0:0:0:
256,192,293859,1,0,0:0:0:0:
256,192,293964,1,8,0:0:0:0:
256,192,294070,1,8,0:0:0:0:
256,192,294176,1,8,0:0:0:0:
256,192,294281,1,0,0:0:0:0:
256,192,294387,1,0,0:0:0:0:
256,192,294493,1,8,0:0:0:0:
256,192,294598,1,8,0:0:0:0:
256,192,294704,1,0,0:0:0:0:
256,192,294915,1,0,0:0:0:0:
256,192,295338,1,8,0:0:0:0:
256,192,295549,1,8,0:0:0:0:
256,192,295760,1,0,0:0:0:0:
256,192,295971,1,0,0:0:0:0:
256,192,296183,1,8,0:0:0:0:
256,192,296605,1,0,0:0:0:0:
256,192,296676,1,8,0:0:0:0:
256,192,296816,1,0,0:0:0:0:
256,192,296887,1,8,0:0:0:0:
256,192,297028,1,0,0:0:0:0:
256,192,297098,1,8,0:0:0:0:
256,192,297239,1,0,0:0:0:0:
256,192,297309,1,8,0:0:0:0:
256,192,297450,1,0,0:0:0:0:
256,192,297521,1,8,0:0:0:0:
256,192,297662,1,0,0:0:0:0:
256,192,297732,1,8,0:0:0:0:
256,192,297873,1,0,0:0:0:0:
256,192,297943,1,8,0:0:0:0:
256,192,298084,1,0,0:0:0:0:
256,192,298155,1,8,0:0:0:0:
256,192,298295,1,0,0:0:0:0:
256,192,298507,1,8,0:0:0:0:
256,192,298718,1,8,0:0:0:0:
256,192,298824,1,0,0:0:0:0:
256,192,298929,1,8,0:0:0:0:
256,192,299035,1,0,0:0:0:0:
256,192,299140,1,8,0:0:0:0:
256,192,299246,1,8,0:0:0:0:
256,192,299352,1,0,0:0:0:0:
256,192,299457,1,8,0:0:0:0:
256,192,299563,1,8,0:0:0:0:
256,192,299774,1,0,0:0:0:0:
256,192,299880,1,8,0:0:0:0:
256,192,299985,1,0,0:0:0:0:
256,192,300091,1,0,0:0:0:0:
256,192,300302,1,8,0:0:0:0:
256,192,300408,1,8,0:0:0:0:
256,192,300619,1,8,0:0:0:0:
256,192,300725,1,0,0:0:0:0:
256,192,301042,1,8,0:0:0:0:
256,192,301253,1,8,0:0:0:0:
256,192,301359,1,8,0:0:0:0:
256,192,301464,1,0,0:0:0:0:
256,192,301570,1,0,0:0:0:0:
256,192,301676,1,8,0:0:0:0:
256,192,304528,1,4,0:0:0:0:
256,192,304739,1,4,0:0:0:0:
256,192,304950,1,4,0:0:0:0:
256,192,305162,1,4,0:0:0:0:
