osu file format v14

[General]
AudioFilename: audio.mp3
AudioLeadIn: 0
PreviewTime: 257259
Countdown: 0
SampleSet: Normal
StackLeniency: 0.7
Mode: 1
LetterboxInBreaks: 0
WidescreenStoryboard: 0

[Editor]
Bookmarks: 7180,19011,32532,49011,68870,91687,117884,147462,180414,216327,257311,298295
DistanceSpacing: 0.5
BeatDivisor: 4
GridSize: 32
TimelineZoom: 1.7

[Metadata]
Title:12 Clusterfucks of Christmas
TitleUnicode:12 Clusterfucks of Christmas
Artist:Schmutz06
ArtistUnicode:Schmutz06
Creator:k3v227
Version:Naughty Oni
Source:
Tags:
BeatmapID:1154281
BeatmapSetID:544717

[Difficulty]
HPDrainRate:3
CircleSize:2
OverallDifficulty:6.5
ApproachRate:5
SliderMultiplier:1.4
SliderTickRate:1

[Events]
//Background and Video events
0,0,"12 clusterfucks (bg).jpg",0,0
//Break Periods
//Storyboard Layer 0 (Background)
//Storyboard Layer 1 (Fail)
//Storyboard Layer 2 (Pass)
//Storyboard Layer 3 (Foreground)
//Storyboard Sound Samples

[TimingPoints]
420,422.535211267606,4,1,0,85,1,0
420,-100,4,1,0,60,0,0
7180,-83.3333333333333,4,1,0,85,0,0
38870,422.535211267606,4,1,0,85,1,0
38870,-83.3333333333333,4,1,0,85,0,0
58729,422.535211267606,4,1,0,85,1,0
58729,-83.3333333333333,4,1,0,85,0,0
78588,422.535211267606,4,1,0,85,1,0
78588,-83.3333333333333,4,1,0,85,0,0
81545,422.535211267606,4,1,0,85,1,0
81545,-83.3333333333333,4,1,0,85,0,0
104784,422.535211267606,4,1,0,85,1,0
104784,-83.3333333333333,4,1,0,85,0,0
107741,422.535211267606,4,1,0,85,1,0
107741,-83.3333333333333,4,1,0,85,0,0
134360,422.535211267606,4,1,0,85,1,0
134360,-83.3333333333333,4,1,0,85,0,0
137317,422.535211267606,4,1,0,85,1,0
137317,-83.3333333333333,4,1,0,85,0,0
167317,422.535211267606,4,1,0,85,1,0
167317,-83.3333333333333,4,1,0,85,0,0
170274,422.535211267606,4,1,0,85,1,0
170274,-83.3333333333333,4,1,0,85,0,0
180626,-90.9090909090909,4,1,0,65,0,0
182950,-83.3333333333333,4,1,0,85,0,0
186752,422.535211267606,4,1,0,85,1,0
186752,-83.3333333333333,4,1,0,85,0,0
203230,422.535211267606,4,1,0,85,1,0
203230,-83.3333333333333,4,1,0,85,0,0
206187,422.535211267606,4,1,0,85,1,0
206187,-83.3333333333333,4,1,0,85,0,0
226046,422.535211267606,4,1,0,85,1,0
226046,-83.3333333333333,4,1,0,85,0,0
242524,422.535211267606,4,1,0,85,1,0
242524,-83.3333333333333,4,1,0,85,0,0
245481,422.535211267606,4,1,0,85,1,0
245481,-83.3333333333333,4,1,0,85,0,0
257311,-83.3333333333333,4,1,0,65,0,0
260269,-83.3333333333333,4,1,0,85,0,0
268720,422.535211267606,4,1,0,85,1,0
268720,-83.3333333333333,4,1,0,85,0,0
285198,422.535211267606,4,1,0,85,1,0
285198,-83.3333333333333,4,1,0,85,0,0
288155,422.535211267606,4,1,0,85,1,0
288155,-83.3333333333333,4,1,0,85,0,0
301781,-100,4,1,0,85,0,0
304528,-66.6666666666667,4,1,0,85,0,0

[HitObjects]
256,192,420,5,8,0:0:0:0:
256,192,842,1,8,0:0:0:0:
256,192,1053,1,8,0:0:0:0:
256,192,1265,1,8,0:0:0:0:
256,192,1687,1,0,0:0:0:0:
256,192,1898,1,8,0:0:0:0:
256,192,2110,1,0,0:0:0:0:
256,192,2321,1,8,0:0:0:0:
256,192,2532,1,8,0:0:0:0:
256,192,2743,1,0,0:0:0:0:
256,192,2955,1,8,0:0:0:0:
256,192,3589,1,0,0:0:0:0:
256,192,3800,1,8,0:0:0:0:
256,192,4222,1,0,0:0:0:0:
256,192,4434,1,8,0:0:0:0:
256,192,4645,1,8,0:0:0:0:
256,192,4856,1,0,0:0:0:0:
256,192,5067,1,8,0:0:0:0:
256,192,5490,1,0,0:0:0:0:
256,192,5701,8,0,6969,0:0:0:0:
256,192,7180,5,0,0:0:0:0:
256,192,7250,1,0,0:0:0:0:
256,192,7321,1,8,0:0:0:0:
256,192,7391,1,0,0:0:0:0:
256,192,7461,1,0,0:0:0:0:
256,192,7532,1,8,0:0:0:0:
256,192,7603,1,0,0:0:0:0:
256,192,7673,1,0,0:0:0:0:
256,192,7744,1,8,0:0:0:0:
256,192,7814,1,0,0:0:0:0:
256,192,7884,1,0,0:0:0:0:
256,192,7955,1,8,0:0:0:0:
256,192,8025,1,0,0:0:0:0:
256,192,8095,1,0,0:0:0:0:
256,192,8166,1,8,0:0:0:0:
256,192,8236,1,0,0:0:0:0:
256,192,8306,1,0,0:0:0:0:
256,192,8377,1,8,0:0:0:0:
256,192,8448,1,0,0:0:0:0:
256,192,8518,1,0,0:0:0:0:
256,192,8589,1,8,0:0:0:0:
256,192,8659,1,0,0:0:0:0:
256,192,8729,1,0,0:0:0:0:
256,192,8800,1,8,0:0:0:0:
256,192,8870,1,0,0:0:0:0:
256,192,9293,1,8,0:0:0:0:
256,192,9504,1,8,0:0:0:0:
256,192,9715,1,8,0:0:0:0:
256,192,10138,1,0,0:0:0:0:
256,192,10349,1,8,0:0:0:0:
256,192,10560,1,0,0:0:0:0:
256,192,10772,1,8,0:0:0:0:
256,192,10983,1,8,0:0:0:0:
256,192,11194,1,0,0:0:0:0:
256,192,11405,1,8,0:0:0:0:
256,192,12250,1,8,0:0:0:0:
256,192,12673,1,0,0:0:0:0:
256,192,12884,1,8,0:0:0:0:
256,192,13096,1,8,0:0:0:0:
256,192,13307,1,8,0:0:0:0:
256,192,13518,1,0,0:0:0:0:
256,192,13729,1,12,0:0:0:0:
256,192,13941,1,8,0:0:0:0:
256,192,14011,1,0,0:0:0:0:
256,192,14081,1,0,0:0:0:0:
256,192,14152,1,8,0:0:0:0:
256,192,14258,1,0,0:0:0:0:
256,192,14363,1,8,0:0:0:0:
256,192,14434,1,0,0:0:0:0:
256,192,14504,1,0,0:0:0:0:
256,192,14574,1,8,0:0:0:0:
256,192,14680,1,0,0:0:0:0:
256,192,14786,1,8,0:0:0:0:
256,192,14856,1,0,0:0:0:0:
256,192,14927,1,0,0:0:0:0:
256,192,14997,1,8,0:0:0:0:
256,192,15103,1,0,0:0:0:0:
256,192,15208,1,8,0:0:0:0:
256,192,15420,1,8,0:0:0:0:
256,192,15631,1,0,0:0:0:0:
256,192,16053,1,8,0:0:0:0:
256,192,16265,1,8,0:0:0:0:
256,192,16476,1,0,0:0:0:0:
256,192,16687,1,0,0:0:0:0:
256,192,16898,1,8,0:0:0:0:
256,192,17321,1,0,0:0:0:0:
256,192,17391,1,0,0:0:0:0:
256,192,17462,1,8,0:0:0:0:
256,192,17532,1,0,0:0:0:0:
256,192,17603,1,0,0:0:0:0:
256,192,17673,1,8,0:0:0:0:
256,192,17743,1,0,0:0:0:0:
256,192,17814,1,0,0:0:0:0:
256,192,17884,1,8,0:0:0:0:
256,192,17955,1,0,0:0:0:0:
256,192,18025,1,0,0:0:0:0:
256,192,18096,1,8,0:0:0:0:
256,192,18166,1,0,0:0:0:0:
256,192,18236,1,0,0:0:0:0:
256,192,18307,1,8,0:0:0:0:
256,192,18377,1,0,0:0:0:0:
256,192,18448,1,0,0:0:0:0:
256,192,18518,1,8,0:0:0:0:
256,192,18589,1,0,0:0:0:0:
256,192,18659,1,0,0:0:0:0:
256,192,18729,1,8,0:0:0:0:
256,192,18800,1,0,0:0:0:0:
256,192,18870,1,0,0:0:0:0:
256,192,18941,1,8,0:0:0:0:
256,192,19011,1,0,0:0:0:0:
256,192,19434,1,8,0:0:0:0:
256,192,19645,1,8,0:0:0:0:
256,192,19856,1,8,0:0:0:0:
256,192,20279,1,0,0:0:0:0:
256,192,20490,1,8,0:0:0:0:
256,192,20701,1,0,0:0:0:0:
256,192,20913,1,8,0:0:0:0:
256,192,21124,1,8,0:0:0:0:
256,192,21335,1,0,0:0:0:0:
256,192,21546,1,8,0:0:0:0:
256,192,22391,1,8,0:0:0:0:
256,192,22603,1,8,0:0:0:0:
256,192,22814,1,0,0:0:0:0:
256,192,23025,1,8,0:0:0:0:
256,192,23236,1,8,0:0:0:0:
256,192,23448,1,0,0:0:0:0:
256,192,23659,1,0,0:0:0:0:
256,192,23870,1,8,0:0:0:0:
256,192,24081,1,0,0:0:0:0:
256,192,24152,1,8,0:0:0:0:
256,192,24222,1,0,0:0:0:0:
256,192,24293,1,0,0:0:0:0:
256,192,24363,1,8,0:0:0:0:
256,192,24434,1,0,0:0:0:0:
256,192,24504,1,0,0:0:0:0:
256,192,24574,1,8,0:0:0:0:
256,192,24645,1,0,0:0:0:0:
256,192,24715,1,0,0:0:0:0:
256,192,24786,1,8,0:0:0:0:
256,192,24856,1,0,0:0:0:0:
256,192,24927,1,0,0:0:0:0:
256,192,24997,1,8,0:0:0:0:
256,192,25067,1,0,0:0:0:0:
256,192,25138,1,0,0:0:0:0:
256,192,25208,1,8,0:0:0:0:
256,192,25279,1,0,0:0:0:0:
256,192,25349,1,0,0:0:0:0:
256,192,25420,1,8,0:0:0:0:
256,192,25490,1,8,0:0:0:0:
256,192,25560,1,8,0:0:0:0:
256,192,25631,1,8,0:0:0:0:
256,192,25701,1,8,0:0:0:0:
256,192,25772,1,0,0:0:0:0:
256,192,26194,1,0,0:0:0:0:
256,192,26300,1,8,0:0:0:0:
256,192,26405,1,8,0:0:0:0:
256,192,26511,1,8,0:0:0:0:
256,192,26617,1,0,0:0:0:0:
256,192,26722,1,8,0:0:0:0:
256,192,26828,1,8,0:0:0:0:
256,192,26934,1,8,0:0:0:0:
256,192,27039,1,0,0:0:0:0:
256,192,27250,1,12,0:0:0:0:
256,192,27462,1,8,0:0:0:0:
256,192,27532,1,0,0:0:0:0:
256,192,27603,1,0,0:0:0:0:
256,192,27673,1,8,0:0:0:0:
256,192,27779,1,0,0:0:0:0:
256,192,27884,1,8,0:0:0:0:
256,192,27955,1,0,0:0:0:0:
256,192,28025,1,0,0:0:0:0:
256,192,28096,1,8,0:0:0:0:
256,192,28201,1,0,0:0:0:0:
256,192,28307,1,8,0:0:0:0:
256,192,28377,1,0,0:0:0:0:
256,192,28448,1,0,0:0:0:0:
256,192,28518,1,8,0:0:0:0:
256,192,28624,1,0,0:0:0:0:
256,192,28729,1,8,0:0:0:0:
256,192,28941,1,8,0:0:0:0:
256,192,29152,1,0,0:0:0:0:
256,192,29574,1,8,0:0:0:0:
256,192,29786,1,8,0:0:0:0:
256,192,29891,1,8,0:0:0:0:
256,192,29997,1,0,0:0:0:0:
256,192,30208,1,0,0:0:0:0:
256,192,30420,1,8,0:0:0:0:
256,192,30842,1,0,0:0:0:0:
256,192,30912,1,0,0:0:0:0:
256,192,30983,1,8,0:0:0:0:
256,192,31053,1,0,0:0:0:0:
256,192,31124,1,0,0:0:0:0:
256,192,31194,1,8,0:0:0:0:
256,192,31264,1,0,0:0:0:0:
256,192,31335,1,0,0:0:0:0:
256,192,31405,1,8,0:0:0:0:
256,192,31476,1,0,0:0:0:0:
256,192,31546,1,0,0:0:0:0:
256,192,31617,1,8,0:0:0:0:
256,192,31687,1,0,0:0:0:0:
256,192,31757,1,0,0:0:0:0:
256,192,31828,1,8,0:0:0:0:
256,192,31898,1,0,0:0:0:0:
256,192,31969,1,0,0:0:0:0:
256,192,32039,1,8,0:0:0:0:
256,192,32110,1,0,0:0:0:0:
256,192,32180,1,0,0:0:0:0:
256,192,32250,1,8,0:0:0:0:
256,192,32321,1,0,0:0:0:0:
256,192,32391,1,0,0:0:0:0:
256,192,32462,1,8,0:0:0:0:
256,192,32532,1,0,0:0:0:0:
256,192,32955,1,8,0:0:0:0:
256,192,33166,1,8,0:0:0:0:
256,192,33377,1,8,0:0:0:0:
256,192,33800,1,0,0:0:0:0:
256,192,34011,1,8,0:0:0:0:
256,192,34222,1,0,0:0:0:0:
256,192,34434,1,8,0:0:0:0:
256,192,34645,1,8,0:0:0:0:
256,192,34856,1,0,0:0:0:0:
256,192,35067,1,8,0:0:0:0:
256,192,35912,1,8,0:0:0:0:
256,192,36124,1,8,0:0:0:0:
256,192,36335,1,0,0:0:0:0:
256,192,36546,1,8,0:0:0:0:
256,192,36758,1,8,0:0:0:0:
256,192,36969,1,8,0:0:0:0:
256,192,37180,1,0,0:0:0:0:
256,192,37391,1,12,0:0:0:0:
256,192,37603,1,8,0:0:0:0:
256,192,37673,1,8,0:0:0:0:
256,192,37743,1,0,0:0:0:0:
256,192,37814,1,8,0:0:0:0:
256,192,37884,1,8,0:0:0:0:
256,192,37955,1,0,0:0:0:0:
256,192,38025,1,8,0:0:0:0:
256,192,38096,1,8,0:0:0:0:
256,192,38166,1,0,0:0:0:0:
256,192,38236,1,8,0:0:0:0:
256,192,38307,1,0,0:0:0:0:
256,192,38377,1,0,0:0:0:0:
256,192,38448,1,8,0:0:0:0:
256,192,38518,1,0,0:0:0:0:
256,192,38589,1,0,0:0:0:0:
256,192,38659,1,0,0:0:0:0:
256,192,38729,1,0,0:0:0:0:
256,192,38800,1,0,0:0:0:0:
256,192,38870,1,8,0:0:0:0:
256,192,39292,1,0,0:0:0:0:
256,192,39503,1,8,0:0:0:0:
256,192,39715,1,8,0:0:0:0:
256,192,39926,1,0,0:0:0:0:
256,192,40137,1,0,0:0:0:0:
256,192,40348,1,8,0:0:0:0:
256,192,40560,1,0,0:0:0:0:
256,192,40630,1,8,0:0:0:0:
256,192,40700,1,0,0:0:0:0:
256,192,40771,1,0,0:0:0:0:
256,192,40841,1,8,0:0:0:0:
256,192,40912,1,0,0:0:0:0:
256,192,40982,1,0,0:0:0:0:
256,192,41053,1,8,0:0:0:0:
256,192,41123,1,0,0:0:0:0:
256,192,41193,1,0,0:0:0:0:
256,192,41264,1,8,0:0:0:0:
256,192,41334,1,0,0:0:0:0:
256,192,41405,1,0,0:0:0:0:
256,192,41475,1,8,0:0:0:0:
256,192,41546,1,0,0:0:0:0:
256,192,41616,1,0,0:0:0:0:
256,192,41686,1,8,0:0:0:0:
256,192,41757,1,0,0:0:0:0:
256,192,41827,1,0,0:0:0:0:
256,192,41898,1,8,0:0:0:0:
256,192,41968,1,8,0:0:0:0:
256,192,42039,1,8,0:0:0:0:
256,192,42109,1,8,0:0:0:0:
256,192,42179,1,8,0:0:0:0:
256,192,42250,1,0,0:0:0:0:
256,192,42461,1,8,0:0:0:0:
256,192,42672,1,0,0:0:0:0:
256,192,42884,1,8,0:0:0:0:
256,192,43095,1,8,0:0:0:0:
256,192,43306,1,8,0:0:0:0:
256,192,43517,1,0,0:0:0:0:
256,192,43729,1,12,0:0:0:0:
256,192,43940,1,8,0:0:0:0:
256,192,44010,1,0,0:0:0:0:
256,192,44081,1,0,0:0:0:0:
256,192,44151,1,8,0:0:0:0:
256,192,44257,1,0,0:0:0:0:
256,192,44362,1,8,0:0:0:0:
256,192,44433,1,0,0:0:0:0:
256,192,44503,1,0,0:0:0:0:
256,192,44574,1,8,0:0:0:0:
256,192,44679,1,0,0:0:0:0:
256,192,44785,1,8,0:0:0:0:
256,192,44855,1,0,0:0:0:0:
256,192,44926,1,0,0:0:0:0:
256,192,44996,1,8,0:0:0:0:
256,192,45102,1,0,0:0:0:0:
256,192,45208,1,8,0:0:0:0:
256,192,45313,1,8,0:0:0:0:
256,192,45419,1,0,0:0:0:0:
256,192,45630,1,0,0:0:0:0:
256,192,46053,1,8,0:0:0:0:
256,192,46264,1,8,0:0:0:0:
256,192,46475,1,0,0:0:0:0:
256,192,46686,1,0,0:0:0:0:
256,192,46898,1,8,0:0:0:0:
256,192,47320,1,0,0:0:0:0:
256,192,47390,1,0,0:0:0:0:
256,192,47461,1,8,0:0:0:0:
256,192,47531,1,0,0:0:0:0:
256,192,47602,1,0,0:0:0:0:
256,192,47672,1,8,0:0:0:0:
256,192,47742,1,0,0:0:0:0:
256,192,47813,1,0,0:0:0:0:
256,192,47883,1,8,0:0:0:0:
256,192,47954,1,0,0:0:0:0:
256,192,48024,1,0,0:0:0:0:
256,192,48095,1,8,0:0:0:0:
256,192,48165,1,0,0:0:0:0:
256,192,48235,1,0,0:0:0:0:
256,192,48306,1,8,0:0:0:0:
256,192,48376,1,0,0:0:0:0:
256,192,48447,1,0,0:0:0:0:
256,192,48517,1,8,0:0:0:0:
256,192,48588,1,0,0:0:0:0:
256,192,48658,1,0,0:0:0:0:
256,192,48728,1,8,0:0:0:0:
256,192,48799,1,0,0:0:0:0:
256,192,48869,1,0,0:0:0:0:
256,192,48940,1,8,0:0:0:0:
256,192,49010,1,0,0:0:0:0:
256,192,49433,1,8,0:0:0:0:
256,192,49644,1,8,0:0:0:0:
256,192,49855,1,8,0:0:0:0:
256,192,50278,1,0,0:0:0:0:
256,192,50489,1,8,0:0:0:0:
256,192,50700,1,0,0:0:0:0:
256,192,50912,1,8,0:0:0:0:
256,192,51123,1,8,0:0:0:0:
256,192,51334,1,0,0:0:0:0:
256,192,51545,1,8,0:0:0:0:
256,192,52391,1,8,0:0:0:0:
256,192,52496,1,0,0:0:0:0:
256,192,52602,1,8,0:0:0:0:
256,192,52708,1,8,0:0:0:0:
256,192,52813,1,0,0:0:0:0:
256,192,52919,1,0,0:0:0:0:
256,192,53024,1,8,0:0:0:0:
256,192,53130,1,8,0:0:0:0:
256,192,53236,1,0,0:0:0:0:
256,192,53341,1,8,0:0:0:0:
256,192,53447,1,0,0:0:0:0:
256,192,53553,1,8,0:0:0:0:
256,192,53658,1,8,0:0:0:0:
256,192,53764,1,0,0:0:0:0:
256,192,53870,1,8,0:0:0:0:
256,192,53975,1,8,0:0:0:0:
256,192,54081,1,0,0:0:0:0:
256,192,54186,1,0,0:0:0:0:
256,192,54292,1,8,0:0:0:0:
256,192,54398,1,8,0:0:0:0:
256,192,54503,1,0,0:0:0:0:
256,192,54609,1,0,0:0:0:0:
256,192,54715,1,8,0:0:0:0:
256,192,54820,1,8,0:0:0:0:
256,192,54926,1,0,0:0:0:0:
256,192,55031,1,0,0:0:0:0:
256,192,55137,1,8,0:0:0:0:
256,192,55243,1,8,0:0:0:0:
256,192,55348,1,8,0:0:0:0:
256,192,55771,1,8,0:0:0:0:
256,192,55982,1,8,0:0:0:0:
256,192,56193,1,0,0:0:0:0:
256,192,56405,1,8,0:0:0:0:
256,192,56616,1,8,0:0:0:0:
256,192,56827,1,8,0:0:0:0:
256,192,57039,1,0,0:0:0:0:
256,192,57250,1,12,0:0:0:0:
256,192,57461,1,8,0:0:0:0:
256,192,57531,1,8,0:0:0:0:
256,192,57602,1,0,0:0:0:0:
256,192,57672,1,8,0:0:0:0:
256,192,57743,1,8,0:0:0:0:
256,192,57813,1,0,0:0:0:0:
256,192,57884,1,8,0:0:0:0:
256,192,57954,1,8,0:0:0:0:
256,192,58024,1,0,0:0:0:0:
256,192,58095,1,8,0:0:0:0:
256,192,58165,1,0,0:0:0:0:
256,192,58236,1,0,0:0:0:0:
256,192,58306,1,8,0:0:0:0:
256,192,58377,1,0,0:0:0:0:
256,192,58447,1,0,0:0:0:0:
256,192,58517,1,0,0:0:0:0:
256,192,58588,1,0,0:0:0:0:
256,192,58658,1,0,0:0:0:0:
256,192,58729,1,8,0:0:0:0:
256,192,59151,1,0,0:0:0:0:
256,192,59362,1,8,0:0:0:0:
256,192,59574,1,8,0:0:0:0:
256,192,59785,1,0,0:0:0:0:
256,192,59996,1,0,0:0:0:0:
256,192,60207,1,8,0:0:0:0:
256,192,60419,1,0,0:0:0:0:
256,192,60489,1,8,0:0:0:0:
256,192,60559,1,0,0:0:0:0:
256,192,60630,1,0,0:0:0:0:
256,192,60700,1,8,0:0:0:0:
256,192,60771,1,0,0:0:0:0:
256,192,60841,1,0,0:0:0:0:
256,192,60912,1,8,0:0:0:0:
256,192,60982,1,0,0:0:0:0:
256,192,61052,1,0,0:0:0:0:
256,192,61123,1,8,0:0:0:0:
256,192,61193,1,0,0:0:0:0:
256,192,61264,1,0,0:0:0:0:
256,192,61334,1,8,0:0:0:0:
256,192,61405,1,0,0:0:0:0:
256,192,61475,1,0,0:0:0:0:
256,192,61545,1,8,0:0:0:0:
256,192,61616,1,0,0:0:0:0:
256,192,61686,1,0,0:0:0:0:
256,192,61757,1,8,0:0:0:0:
256,192,61827,1,8,0:0:0:0:
256,192,61898,1,8,0:0:0:0:
256,192,61968,1,8,0:0:0:0:
256,192,62038,1,8,0:0:0:0:
256,192,62109,1,0,0:0:0:0:
256,192,62320,1,8,0:0:0:0:
256,192,62531,1,0,0:0:0:0:
256,192,62743,1,8,0:0:0:0:
256,192,62954,1,8,0:0:0:0:
256,192,63165,1,8,0:0:0:0:
256,192,63376,1,0,0:0:0:0:
256,192,63588,1,12,0:0:0:0:
256,192,63799,1,8,0:0:0:0:
256,192,63869,1,0,0:0:0:0:
256,192,63940,1,0,0:0:0:0:
256,192,64010,1,8,0:0:0:0:
256,192,64116,1,0,0:0:0:0:
256,192,64221,1,8,0:0:0:0:
256,192,64292,1,0,0:0:0:0:
256,192,64362,1,0,0:0:0:0:
256,192,64433,1,8,0:0:0:0:
256,192,64538,1,0,0:0:0:0:
256,192,64644,1,8,0:0:0:0:
256,192,64714,1,0,0:0:0:0:
256,192,64785,1,0,0:0:0:0:
256,192,64855,1,8,0:0:0:0:
256,192,64961,1,0,0:0:0:0:
256,192,65067,1,8,0:0:0:0:
256,192,65172,1,8,0:0:0:0:
256,192,65278,1,0,0:0:0:0:
256,192,65489,1,0,0:0:0:0:
256,192,65912,1,8,0:0:0:0:
256,192,66123,1,8,0:0:0:0:
256,192,66334,1,0,0:0:0:0:
256,192,66545,1,0,0:0:0:0:
256,192,66757,1,8,0:0:0:0:
256,192,67179,1,0,0:0:0:0:
256,192,67249,1,0,0:0:0:0:
256,192,67320,1,8,0:0:0:0:
256,192,67390,1,0,0:0:0:0:
256,192,67461,1,0,0:0:0:0:
256,192,67531,1,8,0:0:0:0:
256,192,67601,1,0,0:0:0:0:
256,192,67672,1,0,0:0:0:0:
256,192,67742,1,8,0:0:0:0:
256,192,67813,1,0,0:0:0:0:
256,192,67883,1,0,0:0:0:0:
256,192,67954,1,8,0:0:0:0:
256,192,68024,1,0,0:0:0:0:
256,192,68094,1,0,0:0:0:0:
256,192,68165,1,8,0:0:0:0:
256,192,68235,1,0,0:0:0:0:
256,192,68306,1,0,0:0:0:0:
256,192,68376,1,8,0:0:0:0:
256,192,68447,1,0,0:0:0:0:
256,192,68517,1,0,0:0:0:0:
256,192,68587,1,8,0:0:0:0:
256,192,68658,1,0,0:0:0:0:
256,192,68728,1,0,0:0:0:0:
256,192,68799,1,8,0:0:0:0:
256,192,68869,1,0,0:0:0:0:
256,192,69292,1,8,0:0:0:0:
256,192,69503,1,8,0:0:0:0:
256,192,69714,1,8,0:0:0:0:
256,192,70137,1,0,0:0:0:0:
256,192,70348,1,8,0:0:0:0:
256,192,70559,1,0,0:0:0:0:
256,192,70771,1,8,0:0:0:0:
256,192,70982,1,8,0:0:0:0:
256,192,71193,1,0,0:0:0:0:
256,192,71404,1,8,0:0:0:0:
256,192,72250,1,0,0:0:0:0:
256,192,72461,1,8,0:0:0:0:
256,192,72567,1,8,0:0:0:0:
256,192,72672,1,0,0:0:0:0:
256,192,72883,1,8,0:0:0:0:
256,192,73095,1,0,0:0:0:0:
256,192,73200,1,8,0:0:0:0:
256,192,73306,1,8,0:0:0:0:
256,192,73412,1,8,0:0:0:0:
256,192,73517,1,0,0:0:0:0:
256,192,73729,1,12,0:0:0:0:
256,192,73940,1,8,0:0:0:0:
256,192,73993,1,0,0:0:0:0:
256,192,74045,1,0,0:0:0:0:
256,192,74151,1,8,0:0:0:0:
256,192,74204,1,0,0:0:0:0:
256,192,74257,1,0,0:0:0:0:
256,192,74362,1,8,0:0:0:0:
256,192,74415,1,0,0:0:0:0:
256,192,74468,1,0,0:0:0:0:
256,192,74574,1,8,0:0:0:0:
256,192,74626,1,0,0:0:0:0:
256,192,74679,1,0,0:0:0:0:
256,192,74785,1,8,0:0:0:0:
256,192,74838,1,0,0:0:0:0:
256,192,74890,1,0,0:0:0:0:
256,192,74996,1,8,0:0:0:0:
256,192,75049,1,0,0:0:0:0:
256,192,75102,1,0,0:0:0:0:
256,192,75207,1,8,0:0:0:0:
256,192,75260,1,0,0:0:0:0:
256,192,75313,1,0,0:0:0:0:
256,192,75419,1,8,0:0:0:0:
256,192,75471,1,0,0:0:0:0:
256,192,75524,1,0,0:0:0:0:
256,192,75630,1,8,0:0:0:0:
256,192,75736,1,0,0:0:0:0:
256,192,75841,1,8,0:0:0:0:
256,192,75947,1,8,0:0:0:0:
256,192,76052,1,0,0:0:0:0:
256,192,76158,1,0,0:0:0:0:
256,192,76264,1,8,0:0:0:0:
256,192,76369,1,8,0:0:0:0:
256,192,76475,1,0,0:0:0:0:
256,192,76581,1,8,0:0:0:0:
256,192,76686,1,0,0:0:0:0:
256,192,76792,1,8,0:0:0:0:
256,192,76898,1,8,0:0:0:0:
256,192,77003,1,0,0:0:0:0:
256,192,77109,1,8,0:0:0:0:
256,192,77214,1,8,0:0:0:0:
256,192,77320,1,0,0:0:0:0:
256,192,77426,1,0,0:0:0:0:
256,192,77531,1,8,0:0:0:0:
256,192,77637,1,8,0:0:0:0:
256,192,77743,1,0,0:0:0:0:
256,192,77848,1,0,0:0:0:0:
256,192,77954,1,8,0:0:0:0:
256,192,78059,1,8,0:0:0:0:
256,192,78165,1,0,0:0:0:0:
256,192,78271,1,0,0:0:0:0:
256,192,78376,1,8,0:0:0:0:
256,192,78482,1,8,0:0:0:0:
256,192,78588,1,8,0:0:0:0:
256,192,78799,1,8,0:0:0:0:
256,192,79010,1,0,0:0:0:0:
256,192,79221,1,8,0:0:0:0:
256,192,79433,1,8,0:0:0:0:
256,192,79644,1,8,0:0:0:0:
256,192,79855,1,0,0:0:0:0:
256,192,80066,1,12,0:0:0:0:
256,192,80278,1,8,0:0:0:0:
256,192,80348,1,8,0:0:0:0:
256,192,80418,1,0,0:0:0:0:
256,192,80489,1,8,0:0:0:0:
256,192,80559,1,8,0:0:0:0:
256,192,80630,1,0,0:0:0:0:
256,192,80700,1,8,0:0:0:0:
256,192,80771,1,8,0:0:0:0:
256,192,80841,1,0,0:0:0:0:
256,192,80911,1,8,0:0:0:0:
256,192,80982,1,0,0:0:0:0:
256,192,81052,1,0,0:0:0:0:
256,192,81123,1,8,0:0:0:0:
256,192,81193,1,0,0:0:0:0:
256,192,81264,1,0,0:0:0:0:
256,192,81334,1,0,0:0:0:0:
256,192,81404,1,0,0:0:0:0:
256,192,81475,1,0,0:0:0:0:
256,192,81545,1,8,0:0:0:0:
256,192,81967,1,0,0:0:0:0:
256,192,82178,1,8,0:0:0:0:
256,192,82390,1,8,0:0:0:0:
256,192,82601,1,0,0:0:0:0:
256,192,82812,1,0,0:0:0:0:
256,192,83023,1,8,0:0:0:0:
256,192,83235,1,0,0:0:0:0:
256,192,83305,1,8,0:0:0:0:
256,192,83375,1,0,0:0:0:0:
256,192,83446,1,0,0:0:0:0:
256,192,83516,1,8,0:0:0:0:
256,192,83587,1,0,0:0:0:0:
256,192,83657,1,0,0:0:0:0:
256,192,83728,1,8,0:0:0:0:
256,192,83798,1,0,0:0:0:0:
256,192,83868,1,0,0:0:0:0:
256,192,83939,1,8,0:0:0:0:
256,192,84009,1,0,0:0:0:0:
256,192,84080,1,0,0:0:0:0:
256,192,84150,1,8,0:0:0:0:
256,192,84221,1,0,0:0:0:0:
256,192,84291,1,0,0:0:0:0:
256,192,84361,1,8,0:0:0:0:
256,192,84432,1,0,0:0:0:0:
256,192,84502,1,0,0:0:0:0:
256,192,84573,1,8,0:0:0:0:
256,192,84643,1,8,0:0:0:0:
256,192,84714,1,8,0:0:0:0:
256,192,84784,1,8,0:0:0:0:
256,192,84854,1,8,0:0:0:0:
256,192,84925,1,0,0:0:0:0:
256,192,85136,1,8,0:0:0:0:
256,192,85347,1,0,0:0:0:0:
256,192,85559,1,8,0:0:0:0:
256,192,85770,1,8,0:0:0:0:
256,192,85981,1,8,0:0:0:0:
256,192,86192,1,0,0:0:0:0:
256,192,86404,1,12,0:0:0:0:
256,192,86615,1,8,0:0:0:0:
256,192,86685,1,0,0:0:0:0:
256,192,86756,1,0,0:0:0:0:
256,192,86826,1,8,0:0:0:0:
256,192,86932,1,0,0:0:0:0:
256,192,87037,1,8,0:0:0:0:
256,192,87108,1,0,0:0:0:0:
256,192,87178,1,0,0:0:0:0:
256,192,87249,1,8,0:0:0:0:
256,192,87354,1,0,0:0:0:0:
256,192,87460,1,8,0:0:0:0:
256,192,87530,1,0,0:0:0:0:
256,192,87601,1,0,0:0:0:0:
256,192,87671,1,8,0:0:0:0:
256,192,87777,1,0,0:0:0:0:
256,192,87883,1,8,0:0:0:0:
256,192,88094,1,8,0:0:0:0:
256,192,88305,1,0,0:0:0:0:
256,192,88728,1,8,0:0:0:0:
256,192,88939,1,8,0:0:0:0:
256,192,89150,1,0,0:0:0:0:
256,192,89361,1,0,0:0:0:0:
256,192,89573,1,8,0:0:0:0:
256,192,89995,1,0,0:0:0:0:
256,192,90065,1,0,0:0:0:0:
256,192,90136,1,8,0:0:0:0:
256,192,90206,1,0,0:0:0:0:
256,192,90277,1,0,0:0:0:0:
256,192,90347,1,8,0:0:0:0:
256,192,90417,1,0,0:0:0:0:
256,192,90488,1,0,0:0:0:0:
256,192,90558,1,8,0:0:0:0:
256,192,90629,1,0,0:0:0:0:
256,192,90699,1,0,0:0:0:0:
256,192,90770,1,8,0:0:0:0:
256,192,90840,1,0,0:0:0:0:
256,192,90910,1,0,0:0:0:0:
256,192,90981,1,8,0:0:0:0:
256,192,91051,1,0,0:0:0:0:
256,192,91122,1,0,0:0:0:0:
256,192,91192,1,8,0:0:0:0:
256,192,91263,1,0,0:0:0:0:
256,192,91333,1,0,0:0:0:0:
256,192,91403,1,8,0:0:0:0:
256,192,91474,1,0,0:0:0:0:
256,192,91544,1,0,0:0:0:0:
256,192,91615,1,8,0:0:0:0:
256,192,91685,1,0,0:0:0:0:
256,192,92108,1,8,0:0:0:0:
256,192,92319,1,8,0:0:0:0:
256,192,92530,1,8,0:0:0:0:
256,192,92953,1,0,0:0:0:0:
256,192,93164,1,8,0:0:0:0:
256,192,93375,1,0,0:0:0:0:
256,192,93587,1,8,0:0:0:0:
256,192,93798,1,8,0:0:0:0:
256,192,94009,1,0,0:0:0:0:
256,192,94220,1,8,0:0:0:0:
256,192,95066,1,8,0:0:0:0:
256,192,95277,1,8,0:0:0:0:
256,192,95488,1,0,0:0:0:0:
256,192,95699,1,8,0:0:0:0:
256,192,95911,1,8,0:0:0:0:
256,192,96122,1,8,0:0:0:0:
256,192,96333,1,0,0:0:0:0:
256,192,96545,1,12,0:0:0:0:
256,192,96756,1,0,0:0:0:0:
256,192,96826,1,0,0:0:0:0:
256,192,96897,1,0,0:0:0:0:
256,192,96967,1,0,0:0:0:0:
256,192,97037,1,0,0:0:0:0:
256,192,97108,1,0,0:0:0:0:
256,192,97178,1,8,0:0:0:0:
256,192,97249,1,8,0:0:0:0:
256,192,97319,1,8,0:0:0:0:
256,192,97390,1,8,0:0:0:0:
256,192,97460,1,8,0:0:0:0:
256,192,97530,1,8,0:0:0:0:
256,192,97601,1,0,0:0:0:0:
256,192,97671,1,0,0:0:0:0:
256,192,97742,1,0,0:0:0:0:
256,192,97812,1,0,0:0:0:0:
256,192,97883,1,0,0:0:0:0:
256,192,97953,1,0,0:0:0:0:
256,192,98023,1,8,0:0:0:0:
256,192,98094,1,8,0:0:0:0:
256,192,98164,1,8,0:0:0:0:
256,192,98235,1,8,0:0:0:0:
256,192,98305,1,8,0:0:0:0:
256,192,98375,1,8,0:0:0:0:
256,192,98446,1,0,0:0:0:0:
256,192,98657,1,8,0:0:0:0:
256,192,98763,1,8,0:0:0:0:
256,192,98868,1,0,0:0:0:0:
256,192,99080,1,8,0:0:0:0:
256,192,99291,1,0,0:0:0:0:
256,192,99397,1,8,0:0:0:0:
256,192,99502,1,8,0:0:0:0:
256,192,99608,1,8,0:0:0:0:
256,192,99714,1,0,0:0:0:0:
256,192,99925,1,12,0:0:0:0:
256,192,100136,1,8,0:0:0:0:
256,192,100189,1,0,0:0:0:0:
256,192,100242,1,0,0:0:0:0:
256,192,100347,1,8,0:0:0:0:
256,192,100400,1,0,0:0:0:0:
256,192,100453,1,0,0:0:0:0:
256,192,100559,1,8,0:0:0:0:
256,192,100611,1,0,0:0:0:0:
256,192,100664,1,0,0:0:0:0:
256,192,100770,1,8,0:0:0:0:
256,192,100823,1,0,0:0:0:0:
256,192,100875,1,0,0:0:0:0:
256,192,100981,1,8,0:0:0:0:
256,192,101034,1,0,0:0:0:0:
256,192,101087,1,0,0:0:0:0:
256,192,101192,1,8,0:0:0:0:
256,192,101245,1,0,0:0:0:0:
256,192,101298,1,0,0:0:0:0:
256,192,101404,1,8,0:0:0:0:
256,192,101456,1,0,0:0:0:0:
256,192,101509,1,0,0:0:0:0:
256,192,101615,1,8,0:0:0:0:
256,192,101668,1,0,0:0:0:0:
256,192,101721,1,0,0:0:0:0:
256,192,101826,1,8,0:0:0:0:
256,192,101932,1,0,0:0:0:0:
256,192,102037,1,8,0:0:0:0:
256,192,102143,1,8,0:0:0:0:
256,192,102249,1,0,0:0:0:0:
256,192,102354,1,0,0:0:0:0:
256,192,102460,1,8,0:0:0:0:
256,192,102566,1,8,0:0:0:0:
256,192,102671,1,0,0:0:0:0:
256,192,102777,1,8,0:0:0:0:
256,192,102883,1,0,0:0:0:0:
256,192,102988,1,8,0:0:0:0:
256,192,103094,1,8,0:0:0:0:
256,192,103199,1,0,0:0:0:0:
256,192,103305,1,8,0:0:0:0:
256,192,103411,1,8,0:0:0:0:
256,192,103516,1,0,0:0:0:0:
256,192,103622,1,0,0:0:0:0:
256,192,103728,1,8,0:0:0:0:
256,192,103833,1,8,0:0:0:0:
256,192,103939,1,0,0:0:0:0:
256,192,104045,1,0,0:0:0:0:
256,192,104150,1,8,0:0:0:0:
256,192,104256,1,8,0:0:0:0:
256,192,104361,1,0,0:0:0:0:
256,192,104467,1,0,0:0:0:0:
256,192,104573,1,8,0:0:0:0:
256,192,104678,1,8,0:0:0:0:
256,192,104784,1,8,0:0:0:0:
256,192,104995,1,8,0:0:0:0:
256,192,105206,1,0,0:0:0:0:
256,192,105417,1,8,0:0:0:0:
256,192,105629,1,8,0:0:0:0:
256,192,105840,1,8,0:0:0:0:
256,192,106051,1,0,0:0:0:0:
256,192,106262,1,12,0:0:0:0:
256,192,106474,1,8,0:0:0:0:
256,192,106544,1,8,0:0:0:0:
256,192,106614,1,0,0:0:0:0:
256,192,106685,1,8,0:0:0:0:
256,192,106755,1,8,0:0:0:0:
256,192,106826,1,0,0:0:0:0:
256,192,106896,1,8,0:0:0:0:
256,192,106967,1,8,0:0:0:0:
256,192,107037,1,0,0:0:0:0:
256,192,107107,1,8,0:0:0:0:
256,192,107178,1,0,0:0:0:0:
256,192,107248,1,0,0:0:0:0:
256,192,107319,1,0,0:0:0:0:
256,192,107389,1,8,0:0:0:0:
256,192,107460,1,8,0:0:0:0:
256,192,107530,1,8,0:0:0:0:
256,192,107600,1,8,0:0:0:0:
256,192,107671,1,8,0:0:0:0:
256,192,107741,1,0,0:0:0:0:
256,192,108163,1,0,0:0:0:0:
256,192,108374,1,8,0:0:0:0:
256,192,108586,1,12,0:0:0:0:
256,192,108797,1,0,0:0:0:0:
256,192,108867,1,0,0:0:0:0:
256,192,108938,1,0,0:0:0:0:
256,192,109008,1,0,0:0:0:0:
256,192,109431,1,0,0:0:0:0:
256,192,109501,1,8,0:0:0:0:
256,192,109571,1,0,0:0:0:0:
256,192,109642,1,0,0:0:0:0:
256,192,109712,1,8,0:0:0:0:
256,192,109783,1,0,0:0:0:0:
256,192,109853,1,0,0:0:0:0:
256,192,109924,1,8,0:0:0:0:
256,192,109994,1,0,0:0:0:0:
256,192,110064,1,0,0:0:0:0:
256,192,110135,1,8,0:0:0:0:
256,192,110205,1,0,0:0:0:0:
256,192,110276,1,0,0:0:0:0:
256,192,110346,1,8,0:0:0:0:
256,192,110417,1,0,0:0:0:0:
256,192,110487,1,0,0:0:0:0:
256,192,110557,1,8,0:0:0:0:
256,192,110628,1,0,0:0:0:0:
256,192,110698,1,0,0:0:0:0:
256,192,110769,1,8,0:0:0:0:
256,192,110839,1,8,0:0:0:0:
256,192,110910,1,8,0:0:0:0:
256,192,110980,1,8,0:0:0:0:
256,192,111050,1,8,0:0:0:0:
256,192,111121,1,0,0:0:0:0:
256,192,111543,1,0,0:0:0:0:
256,192,111755,1,8,0:0:0:0:
256,192,111966,1,8,0:0:0:0:
256,192,112177,1,8,0:0:0:0:
256,192,112388,1,0,0:0:0:0:
256,192,112600,1,12,0:0:0:0:
256,192,112811,1,8,0:0:0:0:
256,192,112881,1,0,0:0:0:0:
256,192,112952,1,0,0:0:0:0:
256,192,113022,1,8,0:0:0:0:
256,192,113128,1,0,0:0:0:0:
256,192,113233,1,8,0:0:0:0:
256,192,113304,1,0,0:0:0:0:
256,192,113374,1,0,0:0:0:0:
256,192,113445,1,8,0:0:0:0:
256,192,113550,1,0,0:0:0:0:
256,192,113656,1,8,0:0:0:0:
256,192,113726,1,0,0:0:0:0:
256,192,113797,1,0,0:0:0:0:
256,192,113867,1,8,0:0:0:0:
256,192,113973,1,0,0:0:0:0:
256,192,114079,1,8,0:0:0:0:
256,192,114184,1,8,0:0:0:0:
256,192,114290,1,0,0:0:0:0:
256,192,114501,1,0,0:0:0:0:
256,192,114924,1,8,0:0:0:0:
256,192,115135,1,8,0:0:0:0:
256,192,115346,1,0,0:0:0:0:
256,192,115557,1,0,0:0:0:0:
256,192,115769,1,8,0:0:0:0:
256,192,116191,1,0,0:0:0:0:
256,192,116261,1,0,0:0:0:0:
256,192,116332,1,8,0:0:0:0:
256,192,116402,1,0,0:0:0:0:
256,192,116473,1,0,0:0:0:0:
256,192,116543,1,8,0:0:0:0:
256,192,116613,1,0,0:0:0:0:
256,192,116684,1,0,0:0:0:0:
256,192,116754,1,8,0:0:0:0:
256,192,116825,1,0,0:0:0:0:
256,192,116895,1,0,0:0:0:0:
256,192,116966,1,8,0:0:0:0:
256,192,117036,1,0,0:0:0:0:
256,192,117106,1,0,0:0:0:0:
256,192,117177,1,8,0:0:0:0:
256,192,117247,1,0,0:0:0:0:
256,192,117318,1,0,0:0:0:0:
256,192,117388,1,8,0:0:0:0:
256,192,117459,1,0,0:0:0:0:
256,192,117529,1,0,0:0:0:0:
256,192,117599,1,8,0:0:0:0:
256,192,117670,1,0,0:0:0:0:
256,192,117740,1,0,0:0:0:0:
256,192,117811,1,8,0:0:0:0:
256,192,117881,1,0,0:0:0:0:
256,192,118304,1,8,0:0:0:0:
256,192,118515,1,8,0:0:0:0:
256,192,118726,1,8,0:0:0:0:
256,192,119149,1,0,0:0:0:0:
256,192,119360,1,8,0:0:0:0:
256,192,119571,1,0,0:0:0:0:
256,192,119783,1,8,0:0:0:0:
256,192,119994,1,8,0:0:0:0:
256,192,120205,1,0,0:0:0:0:
256,192,120416,1,8,0:0:0:0:
256,192,121262,1,0,0:0:0:0:
256,192,121367,1,8,0:0:0:0:
256,192,121473,1,8,0:0:0:0:
256,192,121684,1,0,0:0:0:0:
256,192,121790,1,8,0:0:0:0:
256,192,121895,1,8,0:0:0:0:
256,192,122001,1,0,0:0:0:0:
256,192,122107,1,8,0:0:0:0:
256,192,122318,1,12,0:0:0:0:
256,192,122529,1,0,0:0:0:0:
256,192,122741,1,12,0:0:0:0:
256,192,122952,1,8,0:0:0:0:
256,192,123022,1,8,0:0:0:0:
256,192,123093,1,8,0:0:0:0:
256,192,123163,1,8,0:0:0:0:
256,192,123233,1,8,0:0:0:0:
256,192,123304,1,8,0:0:0:0:
256,192,123374,1,0,0:0:0:0:
256,192,123445,1,0,0:0:0:0:
256,192,123515,1,0,0:0:0:0:
256,192,123586,1,0,0:0:0:0:
256,192,123656,1,0,0:0:0:0:
256,192,123726,1,0,0:0:0:0:
256,192,123797,1,8,0:0:0:0:
256,192,123867,1,8,0:0:0:0:
256,192,123938,1,8,0:0:0:0:
256,192,124008,1,8,0:0:0:0:
256,192,124079,1,8,0:0:0:0:
256,192,124149,1,8,0:0:0:0:
256,192,124219,1,0,0:0:0:0:
256,192,124290,1,0,0:0:0:0:
256,192,124360,1,0,0:0:0:0:
256,192,124431,1,0,0:0:0:0:
256,192,124501,1,0,0:0:0:0:
256,192,124571,1,0,0:0:0:0:
256,192,124642,1,8,0:0:0:0:
256,192,124853,1,8,0:0:0:0:
256,192,125064,1,0,0:0:0:0:
256,192,125276,1,8,0:0:0:0:
256,192,125487,1,8,0:0:0:0:
256,192,125698,1,0,0:0:0:0:
256,192,125910,1,0,0:0:0:0:
256,192,126121,1,12,0:0:0:0:
256,192,126332,1,0,0:0:0:0:
256,192,126402,1,0,0:0:0:0:
256,192,126473,1,0,0:0:0:0:
256,192,126543,1,0,0:0:0:0:
256,192,126614,1,0,0:0:0:0:
256,192,126684,1,0,0:0:0:0:
256,192,126755,1,8,0:0:0:0:
256,192,126825,1,8,0:0:0:0:
256,192,126895,1,8,0:0:0:0:
256,192,126966,1,8,0:0:0:0:
256,192,127036,1,8,0:0:0:0:
256,192,127107,1,8,0:0:0:0:
256,192,127177,1,0,0:0:0:0:
256,192,127248,1,0,0:0:0:0:
256,192,127318,1,0,0:0:0:0:
256,192,127388,1,0,0:0:0:0:
256,192,127459,1,0,0:0:0:0:
256,192,127529,1,0,0:0:0:0:
256,192,127600,1,8,0:0:0:0:
256,192,127670,1,8,0:0:0:0:
256,192,127741,1,8,0:0:0:0:
256,192,127811,1,8,0:0:0:0:
256,192,127881,1,8,0:0:0:0:
256,192,127952,1,8,0:0:0:0:
256,192,128022,1,0,0:0:0:0:
256,192,128233,1,8,0:0:0:0:
256,192,128339,1,8,0:0:0:0:
256,192,128445,1,0,0:0:0:0:
256,192,128656,1,8,0:0:0:0:
256,192,128867,1,0,0:0:0:0:
256,192,128973,1,8,0:0:0:0:
256,192,129079,1,8,0:0:0:0:
256,192,129184,1,8,0:0:0:0:
256,192,129290,1,0,0:0:0:0:
256,192,129501,1,12,0:0:0:0:
256,192,129712,1,8,0:0:0:0:
256,192,129765,1,0,0:0:0:0:
256,192,129818,1,0,0:0:0:0:
256,192,129924,1,8,0:0:0:0:
256,192,129976,1,0,0:0:0:0:
256,192,130029,1,0,0:0:0:0:
256,192,130135,1,8,0:0:0:0:
256,192,130188,1,0,0:0:0:0:
256,192,130241,1,0,0:0:0:0:
256,192,130346,1,8,0:0:0:0:
256,192,130399,1,0,0:0:0:0:
256,192,130452,1,0,0:0:0:0:
256,192,130557,1,8,0:0:0:0:
256,192,130610,1,0,0:0:0:0:
256,192,130663,1,0,0:0:0:0:
256,192,130769,1,8,0:0:0:0:
256,192,130821,1,0,0:0:0:0:
256,192,130874,1,0,0:0:0:0:
256,192,130980,1,8,0:0:0:0:
256,192,131033,1,0,0:0:0:0:
256,192,131086,1,0,0:0:0:0:
256,192,131191,1,8,0:0:0:0:
256,192,131244,1,0,0:0:0:0:
256,192,131297,1,0,0:0:0:0:
256,192,131402,1,8,0:0:0:0:
256,192,131508,1,0,0:0:0:0:
256,192,131614,1,8,0:0:0:0:
256,192,131719,1,8,0:0:0:0:
256,192,131825,1,0,0:0:0:0:
256,192,131931,1,0,0:0:0:0:
256,192,132036,1,8,0:0:0:0:
256,192,132142,1,8,0:0:0:0:
256,192,132248,1,0,0:0:0:0:
256,192,132353,1,8,0:0:0:0:
256,192,132459,1,0,0:0:0:0:
256,192,132564,1,8,0:0:0:0:
256,192,132670,1,8,0:0:0:0:
256,192,132776,1,0,0:0:0:0:
256,192,132881,1,8,0:0:0:0:
256,192,132987,1,8,0:0:0:0:
256,192,133093,1,0,0:0:0:0:
256,192,133198,1,0,0:0:0:0:
256,192,133304,1,8,0:0:0:0:
256,192,133410,1,8,0:0:0:0:
256,192,133515,1,0,0:0:0:0:
256,192,133621,1,0,0:0:0:0:
256,192,133726,1,8,0:0:0:0:
256,192,133832,1,8,0:0:0:0:
256,192,133938,1,0,0:0:0:0:
256,192,134043,1,0,0:0:0:0:
256,192,134149,1,8,0:0:0:0:
256,192,134255,1,8,0:0:0:0:
256,192,134360,1,8,0:0:0:0:
256,192,134571,1,8,0:0:0:0:
256,192,134782,1,0,0:0:0:0:
256,192,134993,1,8,0:0:0:0:
256,192,135205,1,8,0:0:0:0:
256,192,135416,1,8,0:0:0:0:
256,192,135627,1,0,0:0:0:0:
256,192,135838,1,12,0:0:0:0:
256,192,136050,1,8,0:0:0:0:
256,192,136120,1,8,0:0:0:0:
256,192,136190,1,0,0:0:0:0:
256,192,136261,1,8,0:0:0:0:
256,192,136331,1,8,0:0:0:0:
256,192,136402,1,0,0:0:0:0:
256,192,136472,1,8,0:0:0:0:
256,192,136543,1,8,0:0:0:0:
256,192,136613,1,0,0:0:0:0:
256,192,136683,1,8,0:0:0:0:
256,192,136754,1,0,0:0:0:0:
256,192,136824,1,0,0:0:0:0:
256,192,136895,1,8,0:0:0:0:
256,192,136965,1,0,0:0:0:0:
256,192,137036,1,0,0:0:0:0:
256,192,137106,1,0,0:0:0:0:
256,192,137176,1,0,0:0:0:0:
256,192,137247,1,0,0:0:0:0:
256,192,137317,1,8,0:0:0:0:
256,192,137739,1,0,0:0:0:0:
256,192,137950,1,8,0:0:0:0:
256,192,138162,1,8,0:0:0:0:
256,192,138373,1,0,0:0:0:0:
256,192,138584,1,0,0:0:0:0:
256,192,138795,1,8,0:0:0:0:
256,192,139007,1,0,0:0:0:0:
256,192,139077,1,8,0:0:0:0:
256,192,139147,1,0,0:0:0:0:
256,192,139218,1,0,0:0:0:0:
256,192,139288,1,8,0:0:0:0:
256,192,139359,1,0,0:0:0:0:
256,192,139429,1,0,0:0:0:0:
256,192,139500,1,8,0:0:0:0:
256,192,139570,1,0,0:0:0:0:
256,192,139640,1,0,0:0:0:0:
256,192,139711,1,8,0:0:0:0:
256,192,139781,1,0,0:0:0:0:
256,192,139852,1,0,0:0:0:0:
256,192,139922,1,8,0:0:0:0:
256,192,139993,1,0,0:0:0:0:
256,192,140063,1,0,0:0:0:0:
256,192,140133,1,8,0:0:0:0:
256,192,140204,1,0,0:0:0:0:
256,192,140274,1,0,0:0:0:0:
256,192,140345,1,8,0:0:0:0:
256,192,140415,1,8,0:0:0:0:
256,192,140486,1,8,0:0:0:0:
256,192,140556,1,8,0:0:0:0:
256,192,140626,1,8,0:0:0:0:
256,192,140697,1,0,0:0:0:0:
256,192,140908,1,8,0:0:0:0:
256,192,141119,1,0,0:0:0:0:
256,192,141331,1,8,0:0:0:0:
256,192,141542,1,8,0:0:0:0:
256,192,141753,1,8,0:0:0:0:
256,192,141964,1,0,0:0:0:0:
256,192,142176,1,12,0:0:0:0:
256,192,142387,1,8,0:0:0:0:
256,192,142457,1,0,0:0:0:0:
256,192,142528,1,0,0:0:0:0:
256,192,142598,1,8,0:0:0:0:
256,192,142704,1,0,0:0:0:0:
256,192,142809,1,8,0:0:0:0:
256,192,142880,1,0,0:0:0:0:
256,192,142950,1,0,0:0:0:0:
256,192,143021,1,8,0:0:0:0:
256,192,143126,1,0,0:0:0:0:
256,192,143232,1,8,0:0:0:0:
256,192,143302,1,0,0:0:0:0:
256,192,143373,1,0,0:0:0:0:
256,192,143443,1,8,0:0:0:0:
256,192,143549,1,0,0:0:0:0:
256,192,143655,1,8,0:0:0:0:
256,192,143760,1,8,0:0:0:0:
256,192,143866,1,0,0:0:0:0:
256,192,144077,1,0,0:0:0:0:
256,192,144500,1,8,0:0:0:0:
256,192,144711,1,8,0:0:0:0:
256,192,144922,1,0,0:0:0:0:
256,192,145133,1,0,0:0:0:0:
256,192,145345,1,8,0:0:0:0:
256,192,145767,1,0,0:0:0:0:
256,192,145838,1,0,0:0:0:0:
256,192,145908,1,8,0:0:0:0:
256,192,145978,1,0,0:0:0:0:
256,192,146049,1,0,0:0:0:0:
256,192,146119,1,8,0:0:0:0:
256,192,146190,1,0,0:0:0:0:
256,192,146261,1,0,0:0:0:0:
256,192,146331,1,8,0:0:0:0:
256,192,146401,1,0,0:0:0:0:
256,192,146472,1,0,0:0:0:0:
256,192,146542,1,8,0:0:0:0:
256,192,146612,1,0,0:0:0:0:
256,192,146683,1,0,0:0:0:0:
256,192,146753,1,8,0:0:0:0:
256,192,146823,1,0,0:0:0:0:
256,192,146894,1,0,0:0:0:0:
256,192,146964,1,8,0:0:0:0:
256,192,147035,1,0,0:0:0:0:
256,192,147106,1,0,0:0:0:0:
256,192,147176,1,8,0:0:0:0:
256,192,147246,1,0,0:0:0:0:
256,192,147317,1,0,0:0:0:0:
256,192,147387,1,8,0:0:0:0:
256,192,147457,1,0,0:0:0:0:
256,192,147880,1,8,0:0:0:0:
256,192,148091,1,8,0:0:0:0:
256,192,148302,1,8,0:0:0:0:
256,192,148725,1,0,0:0:0:0:
256,192,148936,1,8,0:0:0:0:
256,192,149147,1,0,0:0:0:0:
256,192,149359,1,8,0:0:0:0:
256,192,149570,1,8,0:0:0:0:
256,192,149781,1,0,0:0:0:0:
256,192,149992,1,8,0:0:0:0:
256,192,150838,1,8,0:0:0:0:
256,192,151260,1,0,0:0:0:0:
256,192,151471,1,0,0:0:0:0:
256,192,151683,1,8,0:0:0:0:
256,192,151894,1,8,0:0:0:0:
256,192,152105,1,0,0:0:0:0:
256,192,152317,1,12,0:0:0:0:
256,192,152528,1,8,0:0:0:0:
256,192,152633,1,8,0:0:0:0:
256,192,152739,1,0,0:0:0:0:
256,192,152845,1,0,0:0:0:0:
256,192,152950,1,8,0:0:0:0:
256,192,153056,1,8,0:0:0:0:
256,192,153162,1,0,0:0:0:0:
256,192,153267,1,0,0:0:0:0:
256,192,153373,1,8,0:0:0:0:
256,192,153478,1,0,0:0:0:0:
256,192,153584,1,8,0:0:0:0:
256,192,153690,1,8,0:0:0:0:
256,192,153795,1,8,0:0:0:0:
256,192,153901,1,0,0:0:0:0:
256,192,154007,1,8,0:0:0:0:
256,192,154112,1,8,0:0:0:0:
256,192,154218,1,0,0:0:0:0:
256,192,154429,1,8,0:0:0:0:
256,192,154640,1,0,0:0:0:0:
256,192,154746,1,8,0:0:0:0:
256,192,154852,1,8,0:0:0:0:
256,192,154957,1,0,0:0:0:0:
256,192,155063,1,8,0:0:0:0:
256,192,155274,1,12,0:0:0:0:
256,192,155486,1,0,0:0:0:0:
256,192,155697,1,12,0:0:0:0:
256,192,155908,1,8,0:0:0:0:
256,192,155978,1,8,0:0:0:0:
256,192,156049,1,8,0:0:0:0:
256,192,156119,1,8,0:0:0:0:
256,192,156190,1,8,0:0:0:0:
256,192,156260,1,8,0:0:0:0:
256,192,156331,1,0,0:0:0:0:
256,192,156401,1,0,0:0:0:0:
256,192,156471,1,0,0:0:0:0:
256,192,156542,1,0,0:0:0:0:
256,192,156612,1,0,0:0:0:0:
256,192,156683,1,0,0:0:0:0:
256,192,156753,1,8,0:0:0:0:
256,192,156824,1,8,0:0:0:0:
256,192,156894,1,8,0:0:0:0:
256,192,156964,1,8,0:0:0:0:
256,192,157035,1,8,0:0:0:0:
256,192,157105,1,8,0:0:0:0:
256,192,157176,1,0,0:0:0:0:
256,192,157246,1,0,0:0:0:0:
256,192,157317,1,0,0:0:0:0:
256,192,157387,1,0,0:0:0:0:
256,192,157457,1,0,0:0:0:0:
256,192,157528,1,0,0:0:0:0:
256,192,157598,1,8,0:0:0:0:
256,192,158021,1,0,0:0:0:0:
256,192,158232,1,8,0:0:0:0:
256,192,158443,1,8,0:0:0:0:
256,192,158655,1,0,0:0:0:0:
256,192,158866,1,0,0:0:0:0:
256,192,159077,1,12,0:0:0:0:
256,192,159288,1,0,0:0:0:0:
256,192,159359,1,0,0:0:0:0:
256,192,159429,1,0,0:0:0:0:
256,192,159500,1,0,0:0:0:0:
256,192,159570,1,0,0:0:0:0:
256,192,159640,1,0,0:0:0:0:
256,192,159711,1,8,0:0:0:0:
256,192,159781,1,8,0:0:0:0:
256,192,159852,1,8,0:0:0:0:
256,192,159922,1,8,0:0:0:0:
256,192,159993,1,8,0:0:0:0:
256,192,160063,1,8,0:0:0:0:
256,192,160133,1,0,0:0:0:0:
256,192,160204,1,0,0:0:0:0:
256,192,160274,1,0,0:0:0:0:
256,192,160345,1,0,0:0:0:0:
256,192,160415,1,0,0:0:0:0:
256,192,160486,1,0,0:0:0:0:
256,192,160556,1,8,0:0:0:0:
256,192,160626,1,8,0:0:0:0:
256,192,160697,1,8,0:0:0:0:
256,192,160767,1,8,0:0:0:0:
256,192,160838,1,8,0:0:0:0:
256,192,160908,1,8,0:0:0:0:
256,192,160978,1,0,0:0:0:0:
256,192,161190,1,8,0:0:0:0:
256,192,161295,1,8,0:0:0:0:
256,192,161401,1,0,0:0:0:0:
256,192,161612,1,8,0:0:0:0:
256,192,161824,1,0,0:0:0:0:
256,192,161929,1,8,0:0:0:0:
256,192,162035,1,8,0:0:0:0:
256,192,162140,1,8,0:0:0:0:
256,192,162246,1,0,0:0:0:0:
256,192,162457,1,12,0:0:0:0:
256,192,162669,1,8,0:0:0:0:
256,192,162721,1,0,0:0:0:0:
256,192,162774,1,0,0:0:0:0:
256,192,162880,1,8,0:0:0:0:
256,192,162933,1,0,0:0:0:0:
256,192,162986,1,0,0:0:0:0:
256,192,163091,1,8,0:0:0:0:
256,192,163144,1,0,0:0:0:0:
256,192,163197,1,0,0:0:0:0:
256,192,163302,1,8,0:0:0:0:
256,192,163355,1,0,0:0:0:0:
256,192,163408,1,0,0:0:0:0:
256,192,163514,1,8,0:0:0:0:
256,192,163567,1,0,0:0:0:0:
256,192,163619,1,0,0:0:0:0:
256,192,163725,1,8,0:0:0:0:
256,192,163778,1,0,0:0:0:0:
256,192,163831,1,0,0:0:0:0:
256,192,163936,1,8,0:0:0:0:
256,192,163989,1,0,0:0:0:0:
256,192,164042,1,0,0:0:0:0:
256,192,164147,1,8,0:0:0:0:
256,192,164200,1,0,0:0:0:0:
256,192,164253,1,0,0:0:0:0:
256,192,164359,1,8,0:0:0:0:
256,192,164464,1,0,0:0:0:0:
256,192,164570,1,8,0:0:0:0:
256,192,164676,1,8,0:0:0:0:
256,192,164781,1,0,0:0:0:0:
256,192,164887,1,0,0:0:0:0:
256,192,164993,1,8,0:0:0:0:
256,192,165098,1,8,0:0:0:0:
256,192,165204,1,0,0:0:0:0:
256,192,165309,1,8,0:0:0:0:
256,192,165415,1,0,0:0:0:0:
256,192,165521,1,8,0:0:0:0:
256,192,165626,1,8,0:0:0:0:
256,192,165732,1,0,0:0:0:0:
256,192,165838,1,8,0:0:0:0:
256,192,165943,1,8,0:0:0:0:
256,192,166049,1,0,0:0:0:0:
256,192,166155,1,0,0:0:0:0:
256,192,166260,1,8,0:0:0:0:
256,192,166366,1,8,0:0:0:0:
256,192,166471,1,0,0:0:0:0:
256,192,166577,1,0,0:0:0:0:
256,192,166683,1,8,0:0:0:0:
256,192,166788,1,8,0:0:0:0:
256,192,166894,1,0,0:0:0:0:
256,192,167000,1,0,0:0:0:0:
256,192,167105,1,8,0:0:0:0:
256,192,167211,1,8,0:0:0:0:
256,192,167317,1,8,0:0:0:0:
256,192,167528,1,8,0:0:0:0:
256,192,167739,1,0,0:0:0:0:
256,192,167950,1,8,0:0:0:0:
256,192,168162,1,8,0:0:0:0:
256,192,168373,1,8,0:0:0:0:
256,192,168584,1,0,0:0:0:0:
256,192,168795,1,12,0:0:0:0:
256,192,169007,1,8,0:0:0:0:
256,192,169077,1,8,0:0:0:0:
256,192,169147,1,0,0:0:0:0:
256,192,169218,1,8,0:0:0:0:
256,192,169288,1,8,0:0:0:0:
256,192,169359,1,0,0:0:0:0:
256,192,169429,1,8,0:0:0:0:
256,192,169500,1,8,0:0:0:0:
256,192,169570,1,0,0:0:0:0:
256,192,169640,1,8,0:0:0:0:
256,192,169711,1,0,0:0:0:0:
256,192,169781,1,0,0:0:0:0:
256,192,169852,1,8,0:0:0:0:
256,192,169922,1,0,0:0:0:0:
256,192,169993,1,0,0:0:0:0:
256,192,170063,1,0,0:0:0:0:
256,192,170133,1,0,0:0:0:0:
256,192,170204,1,0,0:0:0:0:
256,192,170274,1,8,0:0:0:0:
256,192,170485,1,8,0:0:0:0:
256,192,170590,1,8,0:0:0:0:
256,192,170696,1,0,0:0:0:0:
256,192,170907,1,8,0:0:0:0:
256,192,171013,1,8,0:0:0:0:
256,192,171119,1,8,0:0:0:0:
256,192,171330,1,0,0:0:0:0:
256,192,171541,1,0,0:0:0:0:
256,192,171752,1,8,0:0:0:0:
256,192,171858,1,8,0:0:0:0:
256,192,171964,1,0,0:0:0:0:
256,192,172034,1,8,0:0:0:0:
256,192,172104,1,0,0:0:0:0:
256,192,172175,1,0,0:0:0:0:
256,192,172245,1,8,0:0:0:0:
256,192,172316,1,0,0:0:0:0:
256,192,172386,1,0,0:0:0:0:
256,192,172457,1,8,0:0:0:0:
256,192,172527,1,0,0:0:0:0:
256,192,172597,1,0,0:0:0:0:
256,192,172668,1,8,0:0:0:0:
256,192,172738,1,0,0:0:0:0:
256,192,172809,1,0,0:0:0:0:
256,192,172879,1,8,0:0:0:0:
256,192,172950,1,0,0:0:0:0:
256,192,173020,1,0,0:0:0:0:
256,192,173090,1,8,0:0:0:0:
256,192,173161,1,0,0:0:0:0:
256,192,173231,1,0,0:0:0:0:
256,192,173302,1,8,0:0:0:0:
256,192,173372,1,8,0:0:0:0:
256,192,173443,1,8,0:0:0:0:
256,192,173513,1,8,0:0:0:0:
256,192,173583,1,8,0:0:0:0:
256,192,173654,1,0,0:0:0:0:
256,192,173865,1,8,0:0:0:0:
256,192,174076,1,0,0:0:0:0:
256,192,174288,1,8,0:0:0:0:
256,192,174499,1,8,0:0:0:0:
256,192,174710,1,0,0:0:0:0:
256,192,174921,1,0,0:0:0:0:
256,192,175344,1,8,0:0:0:0:
256,192,175414,1,0,0:0:0:0:
256,192,175485,1,0,0:0:0:0:
256,192,175555,1,8,0:0:0:0:
256,192,175661,1,0,0:0:0:0:
256,192,175766,1,8,0:0:0:0:
256,192,175837,1,0,0:0:0:0:
256,192,175907,1,0,0:0:0:0:
256,192,175978,1,8,0:0:0:0:
256,192,176083,1,0,0:0:0:0:
256,192,176189,1,8,0:0:0:0:
256,192,176259,1,0,0:0:0:0:
256,192,176330,1,0,0:0:0:0:
256,192,176400,1,8,0:0:0:0:
256,192,176506,1,0,0:0:0:0:
256,192,176612,1,8,0:0:0:0:
256,192,176823,1,8,0:0:0:0:
256,192,177034,1,0,0:0:0:0:
256,192,177457,1,8,0:0:0:0:
256,192,177668,1,8,0:0:0:0:
256,192,177879,1,0,0:0:0:0:
256,192,178090,1,0,0:0:0:0:
256,192,178302,1,8,0:0:0:0:
256,192,178724,1,0,0:0:0:0:
256,192,178795,1,0,0:0:0:0:
256,192,178865,1,0,0:0:0:0:
256,192,178935,1,0,0:0:0:0:
256,192,179006,1,0,0:0:0:0:
256,192,179076,1,8,0:0:0:0:
256,192,179147,1,0,0:0:0:0:
256,192,179217,1,0,0:0:0:0:
256,192,179288,1,0,0:0:0:0:
256,192,179358,1,0,0:0:0:0:
256,192,179428,1,0,0:0:0:0:
256,192,179499,1,8,0:0:0:0:
256,192,179569,1,0,0:0:0:0:
256,192,179640,1,0,0:0:0:0:
256,192,179710,1,8,0:0:0:0:
256,192,179781,1,0,0:0:0:0:
256,192,179851,1,0,0:0:0:0:
256,192,179921,1,8,0:0:0:0:
256,192,179992,1,0,0:0:0:0:
256,192,180097,1,0,0:0:0:0:
256,192,180203,1,8,0:0:0:0:
256,192,180309,1,8,0:0:0:0:
256,192,180414,1,0,0:0:0:0:
256,192,180626,1,0,0:0:0:0:
256,192,180731,1,0,0:0:0:0:
256,192,180837,1,8,0:0:0:0:
256,192,181048,1,8,0:0:0:0:
256,192,181259,1,8,0:0:0:0:
256,192,181471,1,8,0:0:0:0:
256,192,181576,1,8,0:0:0:0:
256,192,181682,1,0,0:0:0:0:
256,192,181893,1,8,0:0:0:0:
256,192,182104,1,0,0:0:0:0:
256,192,182316,1,8,0:0:0:0:
256,192,182527,1,8,0:0:0:0:
256,192,182738,1,0,0:0:0:0:
256,192,182950,1,8,0:0:0:0:
256,192,183161,1,0,0:0:0:0:
256,192,183266,1,0,0:0:0:0:
256,192,183372,1,8,0:0:0:0:
256,192,183583,1,0,0:0:0:0:
256,192,183795,1,8,0:0:0:0:
256,192,184217,1,0,0:0:0:0:
256,192,184428,1,0,0:0:0:0:
256,192,184640,1,8,0:0:0:0:
256,192,184851,1,8,0:0:0:0:
256,192,185062,1,0,0:0:0:0:
256,192,185274,1,12,0:0:0:0:
256,192,185485,1,8,0:0:0:0:
256,192,185555,1,8,0:0:0:0:
256,192,185626,1,0,0:0:0:0:
256,192,185696,1,8,0:0:0:0:
256,192,185766,1,8,0:0:0:0:
256,192,185837,1,0,0:0:0:0:
256,192,185907,1,8,0:0:0:0:
256,192,185978,1,8,0:0:0:0:
256,192,186048,1,0,0:0:0:0:
256,192,186119,1,8,0:0:0:0:
256,192,186189,1,8,0:0:0:0:
256,192,186259,1,0,0:0:0:0:
256,192,186330,1,8,0:0:0:0:
256,192,186400,1,8,0:0:0:0:
256,192,186471,1,0,0:0:0:0:
256,192,186541,1,8,0:0:0:0:
256,192,186612,1,8,0:0:0:0:
256,192,186682,1,0,0:0:0:0:
256,192,186752,1,8,0:0:0:0:
256,192,186822,1,8,0:0:0:0:
256,192,186892,1,0,0:0:0:0:
256,192,186963,1,8,0:0:0:0:
256,192,187033,1,8,0:0:0:0:
256,192,187104,1,0,0:0:0:0:
256,192,187174,1,0,0:0:0:0:
256,192,187385,1,0,0:0:0:0:
256,192,187597,1,8,0:0:0:0:
256,192,187808,1,8,0:0:0:0:
256,192,188019,1,0,0:0:0:0:
256,192,188230,1,12,0:0:0:0:
256,192,188442,1,8,0:0:0:0:
256,192,188547,1,8,0:0:0:0:
256,192,188653,1,0,0:0:0:0:
256,192,188759,1,0,0:0:0:0:
256,192,188864,1,8,0:0:0:0:
256,192,188970,1,8,0:0:0:0:
256,192,189075,1,0,0:0:0:0:
256,192,189181,1,0,0:0:0:0:
256,192,189287,1,8,0:0:0:0:
256,192,189392,1,0,0:0:0:0:
256,192,189498,1,8,0:0:0:0:
256,192,189604,1,8,0:0:0:0:
256,192,189709,1,8,0:0:0:0:
256,192,189815,1,0,0:0:0:0:
256,192,189921,1,8,0:0:0:0:
256,192,190026,1,8,0:0:0:0:
256,192,190132,1,0,0:0:0:0:
256,192,190343,1,8,0:0:0:0:
256,192,190554,1,0,0:0:0:0:
256,192,190660,1,8,0:0:0:0:
256,192,190766,1,8,0:0:0:0:
256,192,190871,1,0,0:0:0:0:
256,192,190977,1,8,0:0:0:0:
256,192,191188,1,12,0:0:0:0:
256,192,191399,1,0,0:0:0:0:
256,192,191611,1,12,0:0:0:0:
256,192,191822,1,8,0:0:0:0:
256,192,191892,1,8,0:0:0:0:
256,192,191963,1,8,0:0:0:0:
256,192,192033,1,8,0:0:0:0:
256,192,192104,1,8,0:0:0:0:
256,192,192174,1,8,0:0:0:0:
256,192,192244,1,0,0:0:0:0:
256,192,192315,1,0,0:0:0:0:
256,192,192385,1,0,0:0:0:0:
256,192,192456,1,0,0:0:0:0:
256,192,192526,1,0,0:0:0:0:
256,192,192597,1,0,0:0:0:0:
256,192,192667,1,8,0:0:0:0:
256,192,192737,1,8,0:0:0:0:
256,192,192808,1,8,0:0:0:0:
256,192,192878,1,8,0:0:0:0:
256,192,192949,1,8,0:0:0:0:
256,192,193019,1,8,0:0:0:0:
256,192,193090,1,0,0:0:0:0:
256,192,193160,1,0,0:0:0:0:
256,192,193230,1,0,0:0:0:0:
256,192,193301,1,0,0:0:0:0:
256,192,193371,1,0,0:0:0:0:
256,192,193442,1,0,0:0:0:0:
256,192,193512,1,8,0:0:0:0:
256,192,193723,1,8,0:0:0:0:
256,192,193935,1,0,0:0:0:0:
256,192,194146,1,8,0:0:0:0:
256,192,194357,1,8,0:0:0:0:
256,192,194568,1,0,0:0:0:0:
256,192,194780,1,0,0:0:0:0:
256,192,194991,1,12,0:0:0:0:
256,192,195202,1,0,0:0:0:0:
256,192,195273,1,0,0:0:0:0:
256,192,195343,1,0,0:0:0:0:
256,192,195413,1,0,0:0:0:0:
256,192,195484,1,0,0:0:0:0:
256,192,195554,1,0,0:0:0:0:
256,192,195625,1,8,0:0:0:0:
256,192,195695,1,8,0:0:0:0:
256,192,195766,1,8,0:0:0:0:
256,192,195836,1,8,0:0:0:0:
256,192,195906,1,8,0:0:0:0:
256,192,195977,1,8,0:0:0:0:
256,192,196047,1,0,0:0:0:0:
256,192,196118,1,0,0:0:0:0:
256,192,196188,1,0,0:0:0:0:
256,192,196259,1,0,0:0:0:0:
256,192,196329,1,0,0:0:0:0:
256,192,196399,1,0,0:0:0:0:
256,192,196470,1,8,0:0:0:0:
256,192,196540,1,8,0:0:0:0:
256,192,196611,1,8,0:0:0:0:
256,192,196681,1,8,0:0:0:0:
256,192,196752,1,8,0:0:0:0:
256,192,196822,1,8,0:0:0:0:
256,192,196892,1,0,0:0:0:0:
256,192,197104,1,8,0:0:0:0:
256,192,197209,1,8,0:0:0:0:
256,192,197315,1,0,0:0:0:0:
256,192,197526,1,8,0:0:0:0:
256,192,197737,1,0,0:0:0:0:
256,192,197843,1,8,0:0:0:0:
256,192,197949,1,8,0:0:0:0:
256,192,198054,1,8,0:0:0:0:
256,192,198160,1,0,0:0:0:0:
256,192,198371,1,12,0:0:0:0:
256,192,198582,1,8,0:0:0:0:
256,192,198635,1,0,0:0:0:0:
256,192,198688,1,0,0:0:0:0:
256,192,198794,1,8,0:0:0:0:
256,192,198847,1,0,0:0:0:0:
256,192,198899,1,0,0:0:0:0:
256,192,199005,1,8,0:0:0:0:
256,192,199058,1,0,0:0:0:0:
256,192,199111,1,0,0:0:0:0:
256,192,199216,1,8,0:0:0:0:
256,192,199269,1,0,0:0:0:0:
256,192,199322,1,0,0:0:0:0:
256,192,199428,1,8,0:0:0:0:
256,192,199480,1,0,0:0:0:0:
256,192,199533,1,0,0:0:0:0:
256,192,199639,1,8,0:0:0:0:
256,192,199692,1,0,0:0:0:0:
256,192,199744,1,0,0:0:0:0:
256,192,199850,1,8,0:0:0:0:
256,192,199903,1,0,0:0:0:0:
256,192,199956,1,0,0:0:0:0:
256,192,200061,1,8,0:0:0:0:
256,192,200114,1,0,0:0:0:0:
256,192,200167,1,0,0:0:0:0:
256,192,200273,1,8,0:0:0:0:
256,192,200378,1,0,0:0:0:0:
256,192,200484,1,8,0:0:0:0:
256,192,200590,1,8,0:0:0:0:
256,192,200695,1,0,0:0:0:0:
256,192,200801,1,0,0:0:0:0:
256,192,200906,1,8,0:0:0:0:
256,192,201012,1,8,0:0:0:0:
256,192,201118,1,0,0:0:0:0:
256,192,201223,1,8,0:0:0:0:
256,192,201329,1,0,0:0:0:0:
256,192,201435,1,8,0:0:0:0:
256,192,201540,1,8,0:0:0:0:
256,192,201646,1,0,0:0:0:0:
256,192,201752,1,8,0:0:0:0:
256,192,201857,1,8,0:0:0:0:
256,192,201963,1,0,0:0:0:0:
256,192,202068,1,0,0:0:0:0:
256,192,202174,1,8,0:0:0:0:
256,192,202280,1,8,0:0:0:0:
256,192,202385,1,0,0:0:0:0:
256,192,202491,1,0,0:0:0:0:
256,192,202597,1,8,0:0:0:0:
256,192,202702,1,8,0:0:0:0:
256,192,202808,1,0,0:0:0:0:
256,192,202913,1,0,0:0:0:0:
256,192,203019,1,8,0:0:0:0:
256,192,203125,1,8,0:0:0:0:
256,192,203230,1,8,0:0:0:0:
256,192,203441,1,8,0:0:0:0:
256,192,203652,1,0,0:0:0:0:
256,192,203863,1,8,0:0:0:0:
256,192,204075,1,8,0:0:0:0:
256,192,204286,1,8,0:0:0:0:
256,192,204497,1,0,0:0:0:0:
256,192,204708,1,12,0:0:0:0:
256,192,204920,1,8,0:0:0:0:
256,192,204990,1,8,0:0:0:0:
256,192,205060,1,0,0:0:0:0:
256,192,205131,1,8,0:0:0:0:
256,192,205201,1,8,0:0:0:0:
256,192,205272,1,0,0:0:0:0:
256,192,205342,1,8,0:0:0:0:
256,192,205413,1,8,0:0:0:0:
256,192,205483,1,0,0:0:0:0:
256,192,205553,1,8,0:0:0:0:
256,192,205624,1,0,0:0:0:0:
256,192,205694,1,0,0:0:0:0:
256,192,205765,1,8,0:0:0:0:
256,192,205835,1,0,0:0:0:0:
256,192,205906,1,0,0:0:0:0:
256,192,205976,1,0,0:0:0:0:
256,192,206046,1,0,0:0:0:0:
256,192,206117,1,0,0:0:0:0:
256,192,206187,1,8,0:0:0:0:
256,192,206609,1,0,0:0:0:0:
256,192,206820,1,8,0:0:0:0:
256,192,207032,1,8,0:0:0:0:
256,192,207243,1,0,0:0:0:0:
256,192,207454,1,0,0:0:0:0:
256,192,207665,1,8,0:0:0:0:
256,192,207877,1,0,0:0:0:0:
256,192,207947,1,8,0:0:0:0:
256,192,208017,1,0,0:0:0:0:
256,192,208088,1,0,0:0:0:0:
256,192,208158,1,8,0:0:0:0:
256,192,208229,1,0,0:0:0:0:
256,192,208299,1,0,0:0:0:0:
256,192,208370,1,8,0:0:0:0:
256,192,208440,1,0,0:0:0:0:
256,192,208510,1,0,0:0:0:0:
256,192,208581,1,8,0:0:0:0:
256,192,208651,1,0,0:0:0:0:
256,192,208722,1,0,0:0:0:0:
256,192,208792,1,8,0:0:0:0:
256,192,208863,1,0,0:0:0:0:
256,192,208933,1,0,0:0:0:0:
256,192,209003,1,8,0:0:0:0:
256,192,209074,1,0,0:0:0:0:
256,192,209144,1,0,0:0:0:0:
256,192,209215,1,8,0:0:0:0:
256,192,209285,1,8,0:0:0:0:
256,192,209356,1,8,0:0:0:0:
256,192,209426,1,8,0:0:0:0:
256,192,209496,1,8,0:0:0:0:
256,192,209567,1,0,0:0:0:0:
256,192,209778,1,8,0:0:0:0:
256,192,209989,1,0,0:0:0:0:
256,192,210201,1,8,0:0:0:0:
256,192,210412,1,8,0:0:0:0:
256,192,210623,1,8,0:0:0:0:
256,192,210834,1,0,0:0:0:0:
256,192,211046,1,12,0:0:0:0:
256,192,211257,1,8,0:0:0:0:
256,192,211327,1,0,0:0:0:0:
256,192,211398,1,0,0:0:0:0:
256,192,211468,1,8,0:0:0:0:
256,192,211574,1,0,0:0:0:0:
256,192,211679,1,8,0:0:0:0:
256,192,211750,1,0,0:0:0:0:
256,192,211820,1,0,0:0:0:0:
256,192,211891,1,8,0:0:0:0:
256,192,211996,1,0,0:0:0:0:
256,192,212102,1,8,0:0:0:0:
256,192,212172,1,0,0:0:0:0:
256,192,212243,1,0,0:0:0:0:
256,192,212313,1,8,0:0:0:0:
256,192,212419,1,0,0:0:0:0:
256,192,212525,1,8,0:0:0:0:
256,192,212630,1,8,0:0:0:0:
256,192,212736,1,0,0:0:0:0:
256,192,212841,1,0,0:0:0:0:
256,192,212947,1,0,0:0:0:0:
256,192,213370,1,8,0:0:0:0:
256,192,213581,1,8,0:0:0:0:
256,192,213792,1,0,0:0:0:0:
256,192,214003,1,0,0:0:0:0:
256,192,214215,1,8,0:0:0:0:
256,192,214637,1,0,0:0:0:0:
256,192,214708,1,0,0:0:0:0:
256,192,214778,1,8,0:0:0:0:
256,192,214848,1,0,0:0:0:0:
256,192,214919,1,0,0:0:0:0:
256,192,214989,1,8,0:0:0:0:
256,192,215060,1,0,0:0:0:0:
256,192,215130,1,0,0:0:0:0:
256,192,215201,1,8,0:0:0:0:
256,192,215271,1,0,0:0:0:0:
256,192,215341,1,0,0:0:0:0:
256,192,215412,1,8,0:0:0:0:
256,192,215482,1,0,0:0:0:0:
256,192,215553,1,0,0:0:0:0:
256,192,215623,1,8,0:0:0:0:
256,192,215694,1,0,0:0:0:0:
256,192,215764,1,0,0:0:0:0:
256,192,215834,1,8,0:0:0:0:
256,192,215905,1,0,0:0:0:0:
256,192,215975,1,0,0:0:0:0:
256,192,216046,1,8,0:0:0:0:
256,192,216116,1,0,0:0:0:0:
256,192,216187,1,0,0:0:0:0:
256,192,216257,1,8,0:0:0:0:
256,192,216327,1,0,0:0:0:0:
256,192,216750,1,8,0:0:0:0:
256,192,216961,1,8,0:0:0:0:
256,192,217172,1,8,0:0:0:0:
256,192,217595,1,0,0:0:0:0:
256,192,217806,1,8,0:0:0:0:
256,192,218017,1,0,0:0:0:0:
256,192,218229,1,8,0:0:0:0:
256,192,218334,1,0,0:0:0:0:
256,192,218440,1,8,0:0:0:0:
256,192,218651,1,0,0:0:0:0:
256,192,218862,1,8,0:0:0:0:
256,192,219074,1,8,0:0:0:0:
256,192,219179,1,8,0:0:0:0:
256,192,219285,1,0,0:0:0:0:
256,192,219496,1,8,0:0:0:0:
256,192,219602,1,0,0:0:0:0:
256,192,219708,1,8,0:0:0:0:
256,192,219778,1,8,0:0:0:0:
256,192,219848,1,8,0:0:0:0:
256,192,219919,1,8,0:0:0:0:
256,192,219989,1,8,0:0:0:0:
256,192,220060,1,8,0:0:0:0:
256,192,220130,1,0,0:0:0:0:
256,192,220341,1,0,0:0:0:0:
256,192,220553,1,8,0:0:0:0:
256,192,220764,1,0,0:0:0:0:
256,192,220975,1,8,0:0:0:0:
256,192,221187,1,8,0:0:0:0:
256,192,221292,1,8,0:0:0:0:
256,192,221398,1,0,0:0:0:0:
256,192,221503,1,8,0:0:0:0:
256,192,221820,1,8,0:0:0:0:
256,192,222032,1,8,0:0:0:0:
256,192,222243,1,0,0:0:0:0:
256,192,222665,1,0,0:0:0:0:
256,192,222877,1,12,0:0:0:0:
256,192,223088,1,8,0:0:0:0:
256,192,223510,1,0,0:0:0:0:
256,192,223722,1,0,0:0:0:0:
256,192,223933,1,8,0:0:0:0:
256,192,224144,1,8,0:0:0:0:
256,192,224356,1,0,0:0:0:0:
256,192,224567,1,12,0:0:0:0:
256,192,224778,1,8,0:0:0:0:
256,192,224848,1,8,0:0:0:0:
256,192,224919,1,0,0:0:0:0:
256,192,224989,1,8,0:0:0:0:
256,192,225060,1,8,0:0:0:0:
256,192,225130,1,0,0:0:0:0:
256,192,225201,1,8,0:0:0:0:
256,192,225271,1,8,0:0:0:0:
256,192,225341,1,0,0:0:0:0:
256,192,225412,1,8,0:0:0:0:
256,192,225482,1,8,0:0:0:0:
256,192,225553,1,0,0:0:0:0:
256,192,225623,1,8,0:0:0:0:
256,192,225694,1,8,0:0:0:0:
256,192,225764,1,0,0:0:0:0:
256,192,225834,1,8,0:0:0:0:
256,192,225905,1,8,0:0:0:0:
256,192,225975,1,0,0:0:0:0:
256,192,226046,1,8,0:0:0:0:
256,192,226116,1,8,0:0:0:0:
256,192,226186,1,0,0:0:0:0:
256,192,226257,1,8,0:0:0:0:
256,192,226327,1,8,0:0:0:0:
256,192,226398,1,0,0:0:0:0:
256,192,226468,1,0,0:0:0:0:
256,192,226679,1,0,0:0:0:0:
256,192,226891,1,8,0:0:0:0:
256,192,227102,1,8,0:0:0:0:
256,192,227313,1,0,0:0:0:0:
256,192,227524,1,12,0:0:0:0:
256,192,227736,1,8,0:0:0:0:
256,192,227841,1,8,0:0:0:0:
256,192,227947,1,0,0:0:0:0:
256,192,228053,1,0,0:0:0:0:
256,192,228158,1,8,0:0:0:0:
256,192,228264,1,8,0:0:0:0:
256,192,228369,1,0,0:0:0:0:
256,192,228475,1,0,0:0:0:0:
256,192,228581,1,8,0:0:0:0:
256,192,228686,1,0,0:0:0:0:
256,192,228792,1,8,0:0:0:0:
256,192,228898,1,8,0:0:0:0:
256,192,229003,1,8,0:0:0:0:
256,192,229109,1,0,0:0:0:0:
256,192,229215,1,8,0:0:0:0:
256,192,229320,1,8,0:0:0:0:
256,192,229426,1,0,0:0:0:0:
256,192,229637,1,8,0:0:0:0:
256,192,229848,1,0,0:0:0:0:
256,192,229954,1,8,0:0:0:0:
256,192,230060,1,8,0:0:0:0:
256,192,230165,1,0,0:0:0:0:
256,192,230271,1,8,0:0:0:0:
256,192,230482,1,12,0:0:0:0:
256,192,230693,1,0,0:0:0:0:
256,192,230905,1,12,0:0:0:0:
256,192,231116,1,8,0:0:0:0:
256,192,231186,1,8,0:0:0:0:
256,192,231257,1,8,0:0:0:0:
256,192,231327,1,8,0:0:0:0:
256,192,231398,1,8,0:0:0:0:
256,192,231468,1,8,0:0:0:0:
256,192,231538,1,0,0:0:0:0:
256,192,231609,1,0,0:0:0:0:
256,192,231679,1,0,0:0:0:0:
256,192,231750,1,0,0:0:0:0:
256,192,231820,1,0,0:0:0:0:
256,192,231891,1,0,0:0:0:0:
256,192,231961,1,8,0:0:0:0:
256,192,232031,1,8,0:0:0:0:
256,192,232102,1,8,0:0:0:0:
256,192,232172,1,8,0:0:0:0:
256,192,232243,1,8,0:0:0:0:
256,192,232313,1,8,0:0:0:0:
256,192,232384,1,0,0:0:0:0:
256,192,232454,1,0,0:0:0:0:
256,192,232524,1,0,0:0:0:0:
256,192,232595,1,0,0:0:0:0:
256,192,232665,1,0,0:0:0:0:
256,192,232736,1,0,0:0:0:0:
256,192,232806,1,8,0:0:0:0:
256,192,233017,1,8,0:0:0:0:
256,192,233229,1,0,0:0:0:0:
256,192,233440,1,8,0:0:0:0:
256,192,233651,1,8,0:0:0:0:
256,192,233862,1,0,0:0:0:0:
256,192,234074,1,0,0:0:0:0:
256,192,234285,1,12,0:0:0:0:
256,192,234496,1,0,0:0:0:0:
256,192,234567,1,0,0:0:0:0:
256,192,234637,1,0,0:0:0:0:
256,192,234707,1,0,0:0:0:0:
256,192,234778,1,0,0:0:0:0:
256,192,234848,1,0,0:0:0:0:
256,192,234919,1,8,0:0:0:0:
256,192,234989,1,8,0:0:0:0:
256,192,235060,1,8,0:0:0:0:
256,192,235130,1,8,0:0:0:0:
256,192,235200,1,8,0:0:0:0:
256,192,235271,1,8,0:0:0:0:
256,192,235341,1,0,0:0:0:0:
256,192,235412,1,0,0:0:0:0:
256,192,235482,1,0,0:0:0:0:
256,192,235553,1,0,0:0:0:0:
256,192,235623,1,0,0:0:0:0:
256,192,235693,1,0,0:0:0:0:
256,192,235764,1,8,0:0:0:0:
256,192,235834,1,8,0:0:0:0:
256,192,235905,1,8,0:0:0:0:
256,192,235975,1,8,0:0:0:0:
256,192,236046,1,8,0:0:0:0:
256,192,236116,1,8,0:0:0:0:
256,192,236186,1,0,0:0:0:0:
256,192,236398,1,8,0:0:0:0:
256,192,236503,1,8,0:0:0:0:
256,192,236609,1,0,0:0:0:0:
256,192,236820,1,8,0:0:0:0:
256,192,237031,1,0,0:0:0:0:
256,192,237137,1,8,0:0:0:0:
256,192,237243,1,8,0:0:0:0:
256,192,237348,1,8,0:0:0:0:
256,192,237454,1,0,0:0:0:0:
256,192,237665,1,12,0:0:0:0:
256,192,237876,1,8,0:0:0:0:
256,192,237929,1,0,0:0:0:0:
256,192,237982,1,0,0:0:0:0:
256,192,238088,1,8,0:0:0:0:
256,192,238141,1,0,0:0:0:0:
256,192,238193,1,0,0:0:0:0:
256,192,238299,1,8,0:0:0:0:
256,192,238352,1,0,0:0:0:0:
256,192,238405,1,0,0:0:0:0:
256,192,238510,1,8,0:0:0:0:
256,192,238563,1,0,0:0:0:0:
256,192,238616,1,0,0:0:0:0:
256,192,238722,1,8,0:0:0:0:
256,192,238774,1,0,0:0:0:0:
256,192,238827,1,0,0:0:0:0:
256,192,238933,1,8,0:0:0:0:
256,192,238986,1,0,0:0:0:0:
256,192,239038,1,0,0:0:0:0:
256,192,239144,1,8,0:0:0:0:
256,192,239197,1,0,0:0:0:0:
256,192,239250,1,0,0:0:0:0:
256,192,239355,1,8,0:0:0:0:
256,192,239408,1,0,0:0:0:0:
256,192,239461,1,0,0:0:0:0:
256,192,239567,1,8,0:0:0:0:
256,192,239672,1,0,0:0:0:0:
256,192,239778,1,8,0:0:0:0:
256,192,239884,1,8,0:0:0:0:
256,192,239989,1,0,0:0:0:0:
256,192,240095,1,0,0:0:0:0:
256,192,240200,1,8,0:0:0:0:
256,192,240306,1,8,0:0:0:0:
256,192,240412,1,0,0:0:0:0:
256,192,240517,1,8,0:0:0:0:
256,192,240623,1,0,0:0:0:0:
256,192,240729,1,8,0:0:0:0:
256,192,240834,1,8,0:0:0:0:
256,192,240940,1,0,0:0:0:0:
256,192,241046,1,8,0:0:0:0:
256,192,241151,1,8,0:0:0:0:
256,192,241257,1,0,0:0:0:0:
256,192,241362,1,0,0:0:0:0:
256,192,241468,1,8,0:0:0:0:
256,192,241574,1,8,0:0:0:0:
256,192,241679,1,0,0:0:0:0:
256,192,241785,1,0,0:0:0:0:
256,192,241891,1,8,0:0:0:0:
256,192,241996,1,8,0:0:0:0:
256,192,242102,1,0,0:0:0:0:
256,192,242207,1,0,0:0:0:0:
256,192,242313,1,8,0:0:0:0:
256,192,242419,1,8,0:0:0:0:
256,192,242524,1,8,0:0:0:0:
256,192,242735,1,8,0:0:0:0:
256,192,242946,1,0,0:0:0:0:
256,192,243157,1,8,0:0:0:0:
256,192,243369,1,8,0:0:0:0:
256,192,243580,1,8,0:0:0:0:
256,192,243791,1,0,0:0:0:0:
256,192,244002,1,12,0:0:0:0:
256,192,244214,1,8,0:0:0:0:
256,192,244284,1,8,0:0:0:0:
256,192,244354,1,0,0:0:0:0:
256,192,244425,1,8,0:0:0:0:
256,192,244495,1,8,0:0:0:0:
256,192,244566,1,0,0:0:0:0:
256,192,244636,1,8,0:0:0:0:
256,192,244707,1,8,0:0:0:0:
256,192,244777,1,0,0:0:0:0:
256,192,244847,1,8,0:0:0:0:
256,192,244918,1,0,0:0:0:0:
256,192,244988,1,0,0:0:0:0:
256,192,245059,1,8,0:0:0:0:
256,192,245129,1,0,0:0:0:0:
256,192,245200,1,0,0:0:0:0:
256,192,245270,1,0,0:0:0:0:
256,192,245340,1,0,0:0:0:0:
256,192,245411,1,0,0:0:0:0:
256,192,245481,1,8,0:0:0:0:
256,192,245903,1,0,0:0:0:0:
256,192,246114,1,8,0:0:0:0:
256,192,246326,1,8,0:0:0:0:
256,192,246537,1,0,0:0:0:0:
256,192,246748,1,0,0:0:0:0:
256,192,246959,1,8,0:0:0:0:
256,192,247171,1,0,0:0:0:0:
256,192,247241,1,8,0:0:0:0:
256,192,247311,1,0,0:0:0:0:
256,192,247382,1,0,0:0:0:0:
256,192,247452,1,8,0:0:0:0:
256,192,247523,1,0,0:0:0:0:
256,192,247593,1,0,0:0:0:0:
256,192,247664,1,8,0:0:0:0:
256,192,247734,1,0,0:0:0:0:
256,192,247804,1,0,0:0:0:0:
256,192,247875,1,8,0:0:0:0:
256,192,247945,1,0,0:0:0:0:
256,192,248016,1,0,0:0:0:0:
256,192,248086,1,8,0:0:0:0:
256,192,248157,1,0,0:0:0:0:
256,192,248227,1,0,0:0:0:0:
256,192,248297,1,8,0:0:0:0:
256,192,248368,1,0,0:0:0:0:
256,192,248438,1,0,0:0:0:0:
256,192,248509,1,8,0:0:0:0:
256,192,248579,1,8,0:0:0:0:
256,192,248650,1,8,0:0:0:0:
256,192,248720,1,8,0:0:0:0:
256,192,248790,1,8,0:0:0:0:
256,192,248861,1,0,0:0:0:0:
256,192,249072,1,8,0:0:0:0:
256,192,249283,1,0,0:0:0:0:
256,192,249495,1,8,0:0:0:0:
256,192,249706,1,8,0:0:0:0:
256,192,249917,1,8,0:0:0:0:
256,192,250128,1,0,0:0:0:0:
256,192,250340,1,12,0:0:0:0:
256,192,250551,1,8,0:0:0:0:
256,192,250621,1,0,0:0:0:0:
256,192,250692,1,0,0:0:0:0:
256,192,250762,1,8,0:0:0:0:
256,192,250868,1,0,0:0:0:0:
256,192,250973,1,8,0:0:0:0:
256,192,251044,1,0,0:0:0:0:
256,192,251114,1,0,0:0:0:0:
256,192,251185,1,8,0:0:0:0:
256,192,251290,1,0,0:0:0:0:
256,192,251396,1,8,0:0:0:0:
256,192,251466,1,0,0:0:0:0:
256,192,251537,1,0,0:0:0:0:
256,192,251607,1,8,0:0:0:0:
256,192,251713,1,0,0:0:0:0:
256,192,251819,1,8,0:0:0:0:
256,192,251924,1,8,0:0:0:0:
256,192,252030,1,0,0:0:0:0:
256,192,252135,1,0,0:0:0:0:
256,192,252241,1,0,0:0:0:0:
256,192,252664,1,8,0:0:0:0:
256,192,252875,1,8,0:0:0:0:
256,192,253086,1,0,0:0:0:0:
256,192,253297,1,0,0:0:0:0:
256,192,253509,1,8,0:0:0:0:
256,192,253931,1,0,0:0:0:0:
256,192,254002,1,0,0:0:0:0:
256,192,254072,1,8,0:0:0:0:
256,192,254142,1,0,0:0:0:0:
256,192,254213,1,0,0:0:0:0:
256,192,254283,1,8,0:0:0:0:
256,192,254354,1,0,0:0:0:0:
256,192,254424,1,0,0:0:0:0:
256,192,254495,1,8,0:0:0:0:
256,192,254565,1,0,0:0:0:0:
256,192,254635,1,0,0:0:0:0:
256,192,254706,1,8,0:0:0:0:
256,192,254776,1,0,0:0:0:0:
256,192,254847,1,0,0:0:0:0:
256,192,254917,1,8,0:0:0:0:
256,192,254988,1,0,0:0:0:0:
256,192,255058,1,0,0:0:0:0:
256,192,255128,1,8,0:0:0:0:
256,192,255199,1,0,0:0:0:0:
256,192,255269,1,0,0:0:0:0:
256,192,255340,1,8,0:0:0:0:
256,192,255410,1,0,0:0:0:0:
256,192,255481,1,0,0:0:0:0:
256,192,255551,1,8,0:0:0:0:
256,192,255621,1,0,0:0:0:0:
256,192,255692,1,0,0:0:0:0:
256,192,255762,1,8,0:0:0:0:
256,192,255832,1,0,0:0:0:0:
256,192,255903,1,0,0:0:0:0:
256,192,255973,1,8,0:0:0:0:
256,192,256044,1,0,0:0:0:0:
256,192,256114,1,0,0:0:0:0:
256,192,256185,1,8,0:0:0:0:
256,192,256255,1,0,0:0:0:0:
256,192,256325,1,0,0:0:0:0:
256,192,256396,1,8,0:0:0:0:
256,192,256466,1,0,0:0:0:0:
256,192,256537,1,0,0:0:0:0:
256,192,256607,1,8,0:0:0:0:
256,192,256678,1,0,0:0:0:0:
256,192,256748,1,0,0:0:0:0:
256,192,256818,1,8,0:0:0:0:
256,192,256889,1,0,0:0:0:0:
256,192,256959,1,0,0:0:0:0:
256,192,257030,1,8,0:0:0:0:
256,192,257100,1,0,0:0:0:0:
256,192,257171,1,0,0:0:0:0:
256,192,257241,1,8,0:0:0:0:
256,192,257311,1,8,0:0:0:0:
256,192,257734,1,8,0:0:0:0:
256,192,257945,1,8,0:0:0:0:
256,192,258156,1,8,0:0:0:0:
256,192,258579,1,0,0:0:0:0:
256,192,258790,1,8,0:0:0:0:
256,192,259001,1,0,0:0:0:0:
256,192,259213,1,8,0:0:0:0:
256,192,259424,1,8,0:0:0:0:
256,192,259635,1,0,0:0:0:0:
256,192,259846,1,8,0:0:0:0:
256,192,260269,1,0,0:0:0:0:
256,192,260375,1,0,0:0:0:0:
256,192,260481,1,8,0:0:0:0:
256,192,260586,1,0,0:0:0:0:
256,192,260692,1,8,0:0:0:0:
256,192,260762,1,8,0:0:0:0:
256,192,260833,1,8,0:0:0:0:
256,192,260903,1,0,0:0:0:0:
256,192,261009,1,0,0:0:0:0:
256,192,261114,1,8,0:0:0:0:
256,192,261185,1,8,0:0:0:0:
256,192,261255,1,8,0:0:0:0:
256,192,261326,1,0,0:0:0:0:
256,192,261431,1,8,0:0:0:0:
256,192,261537,1,0,0:0:0:0:
256,192,261607,1,0,0:0:0:0:
256,192,261678,1,0,0:0:0:0:
256,192,261748,1,8,0:0:0:0:
256,192,261854,1,8,0:0:0:0:
256,192,261959,1,0,0:0:0:0:
256,192,262030,1,8,0:0:0:0:
256,192,262100,1,8,0:0:0:0:
256,192,262171,1,8,0:0:0:0:
256,192,262276,1,8,0:0:0:0:
256,192,262382,1,8,0:0:0:0:
256,192,262452,1,8,0:0:0:0:
256,192,262523,1,8,0:0:0:0:
256,192,262593,1,8,0:0:0:0:
256,192,262664,1,8,0:0:0:0:
256,192,262734,1,8,0:0:0:0:
256,192,262804,1,0,0:0:0:0:
256,192,263016,1,0,0:0:0:0:
256,192,263227,1,8,0:0:0:0:
256,192,263438,1,0,0:0:0:0:
256,192,263650,1,8,0:0:0:0:
256,192,263861,1,8,0:0:0:0:
256,192,263966,1,8,0:0:0:0:
256,192,264072,1,0,0:0:0:0:
256,192,264178,1,8,0:0:0:0:
256,192,264495,1,8,0:0:0:0:
256,192,264706,1,8,0:0:0:0:
256,192,264811,1,8,0:0:0:0:
256,192,264917,1,0,0:0:0:0:
256,192,265128,1,0,0:0:0:0:
256,192,265234,1,0,0:0:0:0:
256,192,265340,1,8,0:0:0:0:
256,192,265551,1,12,0:0:0:0:
256,192,265762,1,8,0:0:0:0:
256,192,265973,1,8,0:0:0:0:
256,192,266185,1,0,0:0:0:0:
256,192,266396,1,0,0:0:0:0:
256,192,266607,1,8,0:0:0:0:
256,192,266819,1,8,0:0:0:0:
256,192,267030,1,0,0:0:0:0:
256,192,267241,1,12,0:0:0:0:
256,192,267452,1,8,0:0:0:0:
256,192,267523,1,8,0:0:0:0:
256,192,267593,1,0,0:0:0:0:
256,192,267664,1,8,0:0:0:0:
256,192,267734,1,8,0:0:0:0:
256,192,267804,1,0,0:0:0:0:
256,192,267875,1,8,0:0:0:0:
256,192,267945,1,8,0:0:0:0:
256,192,268016,1,0,0:0:0:0:
256,192,268086,1,8,0:0:0:0:
256,192,268157,1,8,0:0:0:0:
256,192,268227,1,0,0:0:0:0:
256,192,268297,1,8,0:0:0:0:
256,192,268368,1,8,0:0:0:0:
256,192,268438,1,0,0:0:0:0:
256,192,268509,1,8,0:0:0:0:
256,192,268579,1,8,0:0:0:0:
256,192,268650,1,0,0:0:0:0:
256,192,268720,1,8,0:0:0:0:
256,192,268790,1,8,0:0:0:0:
256,192,268860,1,0,0:0:0:0:
256,192,268931,1,8,0:0:0:0:
256,192,269001,1,8,0:0:0:0:
256,192,269072,1,0,0:0:0:0:
256,192,269142,1,0,0:0:0:0:
256,192,269353,1,0,0:0:0:0:
256,192,269565,1,8,0:0:0:0:
256,192,269776,1,8,0:0:0:0:
256,192,269987,1,0,0:0:0:0:
256,192,270198,1,12,0:0:0:0:
256,192,270410,1,8,0:0:0:0:
256,192,270515,1,8,0:0:0:0:
256,192,270621,1,0,0:0:0:0:
256,192,270727,1,0,0:0:0:0:
256,192,270832,1,8,0:0:0:0:
256,192,270938,1,8,0:0:0:0:
256,192,271043,1,0,0:0:0:0:
256,192,271149,1,0,0:0:0:0:
256,192,271255,1,8,0:0:0:0:
256,192,271360,1,0,0:0:0:0:
256,192,271466,1,8,0:0:0:0:
256,192,271572,1,8,0:0:0:0:
256,192,271677,1,8,0:0:0:0:
256,192,271783,1,0,0:0:0:0:
256,192,271889,1,8,0:0:0:0:
256,192,271994,1,8,0:0:0:0:
256,192,272100,1,0,0:0:0:0:
256,192,272311,1,8,0:0:0:0:
256,192,272522,1,0,0:0:0:0:
256,192,272628,1,8,0:0:0:0:
256,192,272734,1,8,0:0:0:0:
256,192,272839,1,0,0:0:0:0:
256,192,272945,1,8,0:0:0:0:
256,192,273156,1,12,0:0:0:0:
256,192,273367,1,0,0:0:0:0:
256,192,273579,1,12,0:0:0:0:
256,192,273790,1,8,0:0:0:0:
256,192,273860,1,8,0:0:0:0:
256,192,273931,1,8,0:0:0:0:
256,192,274001,1,8,0:0:0:0:
256,192,274072,1,8,0:0:0:0:
256,192,274142,1,8,0:0:0:0:
256,192,274212,1,0,0:0:0:0:
256,192,274283,1,0,0:0:0:0:
256,192,274353,1,0,0:0:0:0:
256,192,274424,1,0,0:0:0:0:
256,192,274494,1,0,0:0:0:0:
256,192,274565,1,0,0:0:0:0:
256,192,274635,1,8,0:0:0:0:
256,192,274705,1,8,0:0:0:0:
256,192,274776,1,8,0:0:0:0:
256,192,274846,1,8,0:0:0:0:
256,192,274917,1,8,0:0:0:0:
256,192,274987,1,8,0:0:0:0:
256,192,275058,1,0,0:0:0:0:
256,192,275128,1,0,0:0:0:0:
256,192,275198,1,0,0:0:0:0:
256,192,275269,1,0,0:0:0:0:
256,192,275339,1,0,0:0:0:0:
256,192,275410,1,0,0:0:0:0:
256,192,275480,1,8,0:0:0:0:
256,192,275691,1,8,0:0:0:0:
256,192,275903,1,0,0:0:0:0:
256,192,276114,1,8,0:0:0:0:
256,192,276325,1,8,0:0:0:0:
256,192,276536,1,0,0:0:0:0:
256,192,276748,1,0,0:0:0:0:
256,192,276959,1,12,0:0:0:0:
256,192,277170,1,0,0:0:0:0:
256,192,277241,1,0,0:0:0:0:
256,192,277311,1,0,0:0:0:0:
256,192,277381,1,0,0:0:0:0:
256,192,277452,1,0,0:0:0:0:
256,192,277522,1,0,0:0:0:0:
256,192,277593,1,8,0:0:0:0:
256,192,277663,1,8,0:0:0:0:
256,192,277734,1,8,0:0:0:0:
256,192,277804,1,8,0:0:0:0:
256,192,277874,1,8,0:0:0:0:
256,192,277945,1,8,0:0:0:0:
256,192,278015,1,0,0:0:0:0:
256,192,278086,1,0,0:0:0:0:
256,192,278156,1,0,0:0:0:0:
256,192,278227,1,0,0:0:0:0:
256,192,278297,1,0,0:0:0:0:
256,192,278367,1,0,0:0:0:0:
256,192,278438,1,8,0:0:0:0:
256,192,278508,1,8,0:0:0:0:
256,192,278579,1,8,0:0:0:0:
256,192,278649,1,8,0:0:0:0:
256,192,278720,1,8,0:0:0:0:
256,192,278790,1,8,0:0:0:0:
256,192,278860,1,0,0:0:0:0:
256,192,279072,1,8,0:0:0:0:
256,192,279177,1,8,0:0:0:0:
256,192,279283,1,0,0:0:0:0:
256,192,279494,1,8,0:0:0:0:
256,192,279705,1,0,0:0:0:0:
256,192,279811,1,8,0:0:0:0:
256,192,279917,1,8,0:0:0:0:
256,192,280022,1,8,0:0:0:0:
256,192,280128,1,0,0:0:0:0:
256,192,280339,1,12,0:0:0:0:
256,192,280550,1,8,0:0:0:0:
256,192,280603,1,0,0:0:0:0:
256,192,280656,1,0,0:0:0:0:
256,192,280762,1,8,0:0:0:0:
256,192,280815,1,0,0:0:0:0:
256,192,280867,1,0,0:0:0:0:
256,192,280973,1,8,0:0:0:0:
256,192,281026,1,0,0:0:0:0:
256,192,281079,1,0,0:0:0:0:
256,192,281184,1,8,0:0:0:0:
256,192,281237,1,0,0:0:0:0:
256,192,281290,1,0,0:0:0:0:
256,192,281396,1,8,0:0:0:0:
256,192,281448,1,0,0:0:0:0:
256,192,281501,1,0,0:0:0:0:
256,192,281607,1,8,0:0:0:0:
256,192,281660,1,0,0:0:0:0:
256,192,281712,1,0,0:0:0:0:
256,192,281818,1,8,0:0:0:0:
256,192,281871,1,0,0:0:0:0:
256,192,281924,1,0,0:0:0:0:
256,192,282029,1,8,0:0:0:0:
256,192,282082,1,0,0:0:0:0:
256,192,282135,1,0,0:0:0:0:
256,192,282241,1,8,0:0:0:0:
256,192,282346,1,0,0:0:0:0:
256,192,282452,1,8,0:0:0:0:
256,192,282558,1,8,0:0:0:0:
256,192,282663,1,0,0:0:0:0:
256,192,282769,1,0,0:0:0:0:
256,192,282874,1,8,0:0:0:0:
256,192,282980,1,8,0:0:0:0:
256,192,283086,1,0,0:0:0:0:
256,192,283191,1,8,0:0:0:0:
256,192,283297,1,0,0:0:0:0:
256,192,283403,1,8,0:0:0:0:
256,192,283508,1,8,0:0:0:0:
256,192,283614,1,0,0:0:0:0:
256,192,283720,1,8,0:0:0:0:
256,192,283825,1,8,0:0:0:0:
256,192,283931,1,0,0:0:0:0:
256,192,284036,1,0,0:0:0:0:
256,192,284142,1,8,0:0:0:0:
256,192,284248,1,8,0:0:0:0:
256,192,284353,1,0,0:0:0:0:
256,192,284459,1,0,0:0:0:0:
256,192,284565,1,8,0:0:0:0:
256,192,284670,1,8,0:0:0:0:
256,192,284776,1,0,0:0:0:0:
256,192,284881,1,0,0:0:0:0:
256,192,284987,1,8,0:0:0:0:
256,192,285093,1,8,0:0:0:0:
256,192,285198,1,8,0:0:0:0:
256,192,285409,1,8,0:0:0:0:
256,192,285620,1,0,0:0:0:0:
256,192,285831,1,8,0:0:0:0:
256,192,286043,1,8,0:0:0:0:
256,192,286254,1,8,0:0:0:0:
256,192,286465,1,0,0:0:0:0:
256,192,286676,1,12,0:0:0:0:
256,192,286888,1,8,0:0:0:0:
256,192,286958,1,8,0:0:0:0:
256,192,287028,1,0,0:0:0:0:
256,192,287099,1,8,0:0:0:0:
256,192,287169,1,8,0:0:0:0:
256,192,287240,1,0,0:0:0:0:
256,192,287310,1,8,0:0:0:0:
256,192,287381,1,8,0:0:0:0:
256,192,287451,1,0,0:0:0:0:
256,192,287521,1,8,0:0:0:0:
256,192,287592,1,0,0:0:0:0:
256,192,287662,1,0,0:0:0:0:
256,192,287733,1,8,0:0:0:0:
256,192,287803,1,0,0:0:0:0:
256,192,287874,1,0,0:0:0:0:
256,192,287944,1,0,0:0:0:0:
256,192,288014,1,0,0:0:0:0:
256,192,288085,1,0,0:0:0:0:
256,192,288155,1,8,0:0:0:0:
256,192,288577,1,0,0:0:0:0:
256,192,288788,1,8,0:0:0:0:
256,192,289000,1,8,0:0:0:0:
256,192,289211,1,0,0:0:0:0:
256,192,289422,1,0,0:0:0:0:
256,192,289633,1,8,0:0:0:0:
256,192,289845,1,0,0:0:0:0:
256,192,289915,1,8,0:0:0:0:
256,192,289985,1,0,0:0:0:0:
256,192,290056,1,0,0:0:0:0:
256,192,290126,1,8,0:0:0:0:
256,192,290197,1,0,0:0:0:0:
256,192,290267,1,0,0:0:0:0:
256,192,290338,1,8,0:0:0:0:
256,192,290408,1,0,0:0:0:0:
256,192,290478,1,0,0:0:0:0:
256,192,290549,1,8,0:0:0:0:
256,192,290619,1,0,0:0:0:0:
256,192,290690,1,0,0:0:0:0:
256,192,290760,1,8,0:0:0:0:
256,192,290831,1,0,0:0:0:0:
256,192,290901,1,0,0:0:0:0:
256,192,290971,1,8,0:0:0:0:
256,192,291042,1,0,0:0:0:0:
256,192,291112,1,0,0:0:0:0:
256,192,291183,1,8,0:0:0:0:
256,192,291253,1,8,0:0:0:0:
256,192,291324,1,8,0:0:0:0:
256,192,291394,1,8,0:0:0:0:
256,192,291464,1,8,0:0:0:0:
256,192,291535,1,0,0:0:0:0:
256,192,291746,1,8,0:0:0:0:
256,192,291957,1,0,0:0:0:0:
256,192,292169,1,8,0:0:0:0:
256,192,292380,1,8,0:0:0:0:
256,192,292591,1,8,0:0:0:0:
256,192,292802,1,0,0:0:0:0:
256,192,293014,1,12,0:0:0:0:
256,192,293225,1,8,0:0:0:0:
256,192,293295,1,0,0:0:0:0:
256,192,293366,1,0,0:0:0:0:
256,192,293436,1,8,0:0:0:0:
256,192,293542,1,0,0:0:0:0:
256,192,293647,1,8,0:0:0:0:
256,192,293718,1,0,0:0:0:0:
256,192,293788,1,0,0:0:0:0:
256,192,293859,1,8,0:0:0:0:
256,192,293964,1,0,0:0:0:0:
256,192,294070,1,8,0:0:0:0:
256,192,294140,1,0,0:0:0:0:
256,192,294211,1,0,0:0:0:0:
256,192,294281,1,8,0:0:0:0:
256,192,294387,1,0,0:0:0:0:
256,192,294493,1,8,0:0:0:0:
256,192,294598,1,8,0:0:0:0:
256,192,294704,1,0,0:0:0:0:
256,192,294915,1,0,0:0:0:0:
256,192,295338,1,8,0:0:0:0:
256,192,295549,1,8,0:0:0:0:
256,192,295760,1,0,0:0:0:0:
256,192,295971,1,0,0:0:0:0:
256,192,296183,1,8,0:0:0:0:
256,192,296605,1,0,0:0:0:0:
256,192,296676,1,0,0:0:0:0:
256,192,296746,1,8,0:0:0:0:
256,192,296816,1,0,0:0:0:0:
256,192,296887,1,0,0:0:0:0:
256,192,296957,1,8,0:0:0:0:
256,192,297028,1,0,0:0:0:0:
256,192,297098,1,0,0:0:0:0:
256,192,297169,1,8,0:0:0:0:
256,192,297239,1,0,0:0:0:0:
256,192,297309,1,0,0:0:0:0:
256,192,297380,1,8,0:0:0:0:
256,192,297450,1,0,0:0:0:0:
256,192,297521,1,0,0:0:0:0:
256,192,297591,1,8,0:0:0:0:
256,192,297662,1,0,0:0:0:0:
256,192,297732,1,0,0:0:0:0:
256,192,297802,1,8,0:0:0:0:
256,192,297873,1,0,0:0:0:0:
256,192,297943,1,0,0:0:0:0:
256,192,298014,1,8,0:0:0:0:
256,192,298084,1,0,0:0:0:0:
256,192,298155,1,0,0:0:0:0:
256,192,298225,1,8,0:0:0:0:
256,192,298295,1,0,0:0:0:0:
256,192,298507,1,8,0:0:0:0:
256,192,298718,1,8,0:0:0:0:
256,192,298824,1,0,0:0:0:0:
256,192,298929,1,8,0:0:0:0:
256,192,299035,1,0,0:0:0:0:
256,192,299140,1,8,0:0:0:0:
256,192,299246,1,8,0:0:0:0:
256,192,299352,1,0,0:0:0:0:
256,192,299457,1,8,0:0:0:0:
256,192,299563,1,8,0:0:0:0:
256,192,299774,1,0,0:0:0:0:
256,192,299880,1,8,0:0:0:0:
256,192,299985,1,0,0:0:0:0:
256,192,300091,1,0,0:0:0:0:
256,192,300302,1,8,0:0:0:0:
256,192,300408,1,8,0:0:0:0:
256,192,300619,1,8,0:0:0:0:
256,192,300725,1,0,0:0:0:0:
256,192,301042,1,8,0:0:0:0:
256,192,301253,1,8,0:0:0:0:
256,192,301359,1,8,0:0:0:0:
256,192,301464,1,0,0:0:0:0:
256,192,301570,1,0,0:0:0:0:
256,192,301676,1,8,0:0:0:0:
256,192,304528,1,0,0:0:0:0:
256,192,304633,1,0,0:0:0:0:
256,192,304739,1,0,0:0:0:0:
256,192,304845,1,0,0:0:0:0:
256,192,304950,1,0,0:0:0:0:
256,192,305056,1,0,0:0:0:0:
256,192,305162,1,0,0:0:0:0:
256,192,305267,1,0,0:0:0:0:
