osu file format v14

[General]
AudioFilename: audio.mp3
AudioLeadIn: 0
PreviewTime: -1
Countdown: 1
SampleSet: Normal
StackLeniency: 0.7
Mode: 0
LetterboxInBreaks: 0
SkinPreference:O2Jam UUltimate
CountdownOffset: 3
WidescreenStoryboard: 1

[Editor]
DistanceSpacing: 0.8
BeatDivisor: 1
GridSize: 32
TimelineZoom: 1

[Metadata]
Title:ALL THE WAY - Jacksepticeye Songify Remix by Schmoyoho
TitleUnicode:ALL THE WAY - Jacksepticeye Songify Remix by Schmoyoho
Artist:Schmoyoho
ArtistUnicode:Schmoyoho
Creator:demoncat96
Version:
Source:https://www.youtube.com/watch?time_continue=4&v=BJPc49z57bU
Tags:
BeatmapID:1420507
BeatmapSetID:671570

[Difficulty]
HPDrainRate:6
CircleSize:4
OverallDifficulty:10
ApproachRate:7
SliderMultiplier:2.3
SliderTickRate:1

[Events]
//Background and Video events
Video,0,"ALL THE WAY - Jacksepticeye Songify Remix by Schmoyoho.mp4"
//Break Periods
//Storyboard Layer 0 (Background)
//Storyboard Layer 1 (Fail)
//Storyboard Layer 2 (Pass)
//Storyboard Layer 3 (Foreground)
//Storyboard Sound Samples

[TimingPoints]
0,240,4,1,0,100,1,0

[Colours]
Combo1 : 255,0,128
Combo2 : 0,202,0
Combo3 : 18,124,255
Combo4 : 242,24,57
Combo5 : 255,192,0
Combo6 : 0,255,255
Combo7 : 0,128,192
Combo8 : 255,0,0

[HitObjects]
224,224,720,5,0,0:0:0:0:
480,160,960,1,0,0:0:0:0:
96,128,1440,1,0,0:0:0:0:
384,192,1920,1,0,0:0:0:0:
96,128,2400,1,0,0:0:0:0:
352,224,2880,1,0,0:0:0:0:
96,128,3360,1,0,0:0:0:0:
224,288,3840,1,0,0:0:0:0:
96,128,4320,1,0,0:0:0:0:
320,192,4560,1,0,0:0:0:0:
96,160,4800,1,0,0:0:0:0:
128,256,5040,1,0,0:0:0:0:
160,96,5280,1,0,0:0:0:0:
64,224,5520,1,0,0:0:0:0:
288,192,5760,1,0,0:0:0:0:
160,160,6000,1,0,0:0:0:0:
128,256,6240,1,0,0:0:0:0:
320,256,6480,1,0,0:0:0:0:
128,192,6960,1,0,0:0:0:0:
224,256,7200,1,0,0:0:0:0:
96,224,7440,1,0,0:0:0:0:
256,96,7680,1,0,0:0:0:0:
416,64,7920,1,0,0:0:0:0:
128,192,8160,1,0,0:0:0:0:
288,192,8400,1,0,0:0:0:0:
96,96,8640,1,0,0:0:0:0:
192,224,8880,1,0,0:0:0:0:
288,192,9120,1,0,0:0:0:0:
192,96,9360,1,0,0:0:0:0:
320,192,9840,1,0,0:0:0:0:
192,256,10080,1,0,0:0:0:0:
192,128,10320,1,0,0:0:0:0:
96,160,10800,1,0,0:0:0:0:
192,64,11280,1,0,0:0:0:0:
96,224,11520,1,0,0:0:0:0:
224,224,11760,1,0,0:0:0:0:
288,160,12240,1,0,0:0:0:0:
96,128,12720,1,0,0:0:0:0:
128,288,12960,1,0,0:0:0:0:
256,192,13200,1,0,0:0:0:0:
96,224,13680,1,0,0:0:0:0:
256,224,14160,1,0,0:0:0:0:
192,192,14640,1,0,0:0:0:0:
64,256,15120,1,0,0:0:0:0:
256,192,15600,1,0,0:0:0:0:
128,256,15840,1,0,0:0:0:0:
224,256,16320,1,0,0:0:0:0:
96,256,16800,1,0,0:0:0:0:
96,128,17280,1,0,0:0:0:0:
192,256,17520,1,0,0:0:0:0:
96,288,17760,1,0,0:0:0:0:
128,160,18000,1,0,0:0:0:0:
224,256,18240,1,0,0:0:0:0:
128,256,18720,1,0,0:0:0:0:
160,256,19200,1,0,0:0:0:0:
96,256,19680,1,0,0:0:0:0:
192,256,20160,1,0,0:0:0:0:
64,288,20640,1,0,0:0:0:0:
192,192,21120,1,0,0:0:0:0:
32,192,21600,1,0,0:0:0:0:
160,128,22080,1,0,0:0:0:0:
32,160,22560,1,0,0:0:0:0:
160,96,23040,1,0,0:0:0:0:
64,128,23520,1,0,0:0:0:0:
160,192,23760,1,0,0:0:0:0:
64,96,24240,1,0,0:0:0:0:
128,192,24720,1,0,0:0:0:0:
160,160,24960,1,0,0:0:0:0:
160,160,25440,1,0,0:0:0:0:
384,32,25920,1,0,0:0:0:0:
160,160,26160,1,0,0:0:0:0:
224,96,26640,1,0,0:0:0:0:
224,96,26880,1,0,0:0:0:0:
288,192,28320,1,0,0:0:0:0:
96,32,28560,1,0,0:0:0:0:
160,192,28800,5,0,0:0:0:0:
320,352,29040,1,0,0:0:0:0:
128,64,29520,1,0,0:0:0:0:
320,352,30000,1,0,0:0:0:0:
352,160,30240,1,0,0:0:0:0:
160,32,30480,1,0,0:0:0:0:
128,192,30720,1,0,0:0:0:0:
384,384,30960,1,0,0:0:0:0:
256,64,31440,1,0,0:0:0:0:
480,320,31920,1,0,0:0:0:0:
256,128,32400,1,0,0:0:0:0:
288,128,32880,1,0,0:0:0:0:
224,128,33360,1,0,0:0:0:0:
288,128,33840,1,0,0:0:0:0:
288,128,34080,1,0,0:0:0:0:
256,224,34560,1,0,0:0:0:0:
384,160,35760,1,0,0:0:0:0:
160,160,36240,1,0,0:0:0:0:
352,128,36480,1,0,0:0:0:0:
160,96,36960,1,0,0:0:0:0:
288,160,37440,1,0,0:0:0:0:
224,128,37920,1,0,0:0:0:0:
224,96,38400,1,0,0:0:0:0:
288,96,38880,1,0,0:0:0:0:
224,160,39120,1,0,0:0:0:0:
160,192,39360,1,0,0:0:0:0:
320,128,39600,1,0,0:0:0:0:
224,224,40080,1,0,0:0:0:0:
224,64,40800,1,0,0:0:0:0:
160,160,41280,1,0,0:0:0:0:
352,192,41760,1,0,0:0:0:0:
224,288,42240,1,0,0:0:0:0:
160,192,42720,1,0,0:0:0:0:
128,224,43200,1,0,0:0:0:0:
320,192,43680,1,0,0:0:0:0:
256,192,44160,1,0,0:0:0:0:
256,192,44400,1,0,0:0:0:0:
64,192,44640,1,0,0:0:0:0:
224,224,45120,1,0,0:0:0:0:
224,192,45360,1,0,0:0:0:0:
128,192,45840,1,0,0:0:0:0:
192,192,46080,1,0,0:0:0:0:
288,160,46320,1,0,0:0:0:0:
320,192,46560,1,0,0:0:0:0:
288,192,46800,1,0,0:0:0:0:
288,192,47040,1,0,0:0:0:0:
96,224,47280,1,0,0:0:0:0:
256,224,48240,1,0,0:0:0:0:
384,224,48960,1,0,0:0:0:0:
128,224,49200,1,0,0:0:0:0:
352,224,49920,1,0,0:0:0:0:
256,224,50400,1,0,0:0:0:0:
224,224,50640,1,0,0:0:0:0:
192,224,50880,1,0,0:0:0:0:
96,160,51120,1,0,0:0:0:0:
192,160,51600,1,0,0:0:0:0:
32,192,52080,1,0,0:0:0:0:
192,224,52560,1,0,0:0:0:0:
128,224,52800,1,0,0:0:0:0:
64,192,53040,1,0,0:0:0:0:
0,224,53280,1,0,0:0:0:0:
32,160,53520,1,0,0:0:0:0:
64,128,53760,1,0,0:0:0:0:
256,224,54480,1,0,0:0:0:0:
192,192,54960,1,0,0:0:0:0:
224,192,55200,1,0,0:0:0:0:
224,192,55680,1,0,0:0:0:0:
192,192,55920,1,0,0:0:0:0:
160,160,56160,1,0,0:0:0:0:
160,128,56400,1,0,0:0:0:0:
192,160,56640,1,0,0:0:0:0:
224,160,56880,1,0,0:0:0:0:
160,192,57360,1,0,0:0:0:0:
160,96,57600,1,0,0:0:0:0:
288,256,58320,1,0,0:0:0:0:
288,256,58800,1,0,0:0:0:0:
128,160,59040,1,0,0:0:0:0:
288,256,59520,1,0,0:0:0:0:
192,224,59760,1,0,0:0:0:0:
288,256,60000,1,0,0:0:0:0:
224,192,60240,1,0,0:0:0:0:
288,256,60960,1,0,0:0:0:0:
192,224,61200,1,0,0:0:0:0:
288,256,61440,1,0,0:0:0:0:
288,256,61680,1,0,0:0:0:0:
320,160,61920,1,0,0:0:0:0:
192,224,62400,1,0,0:0:0:0:
288,256,62640,1,0,0:0:0:0:
288,192,63120,1,0,0:0:0:0:
288,256,63360,1,0,0:0:0:0:
160,256,63600,1,0,0:0:0:0:
288,256,63840,1,0,0:0:0:0:
288,256,64080,1,0,0:0:0:0:
288,96,64320,1,0,0:0:0:0:
288,256,64560,1,0,0:0:0:0:
288,256,65040,1,0,0:0:0:0:
160,192,65280,1,0,0:0:0:0:
288,256,65760,1,0,0:0:0:0:
288,256,66000,1,0,0:0:0:0:
288,256,66480,1,0,0:0:0:0:
192,192,66720,1,0,0:0:0:0:
288,256,67200,1,0,0:0:0:0:
288,256,67680,1,0,0:0:0:0:
288,256,67920,1,0,0:0:0:0:
224,192,68160,1,0,0:0:0:0:
288,256,68400,1,0,0:0:0:0:
288,256,68640,1,0,0:0:0:0:
224,160,68880,1,0,0:0:0:0:
288,256,69120,1,0,0:0:0:0:
288,256,69360,1,0,0:0:0:0:
224,192,69840,1,0,0:0:0:0:
288,256,70080,1,0,0:0:0:0:
288,256,70560,1,0,0:0:0:0:
288,256,71040,1,0,0:0:0:0:
288,256,71280,1,0,0:0:0:0:
288,256,71520,1,0,0:0:0:0:
288,256,71760,1,0,0:0:0:0:
288,256,72240,1,0,0:0:0:0:
288,256,72720,1,0,0:0:0:0:
288,320,72960,1,0,0:0:0:0:
288,256,73440,1,0,0:0:0:0:
320,192,73680,1,0,0:0:0:0:
288,256,73920,1,0,0:0:0:0:
288,256,74400,1,0,0:0:0:0:
288,256,74640,1,0,0:0:0:0:
288,256,74880,1,0,0:0:0:0:
288,256,75120,1,0,0:0:0:0:
288,256,75840,1,0,0:0:0:0:
288,288,76320,1,0,0:0:0:0:
224,224,76800,1,0,0:0:0:0:
320,256,77040,1,0,0:0:0:0:
256,288,77280,1,0,0:0:0:0:
288,192,77520,1,0,0:0:0:0:
288,256,77760,1,0,0:0:0:0:
288,256,78000,1,0,0:0:0:0:
288,256,78240,1,0,0:0:0:0:
192,224,78720,1,0,0:0:0:0:
320,160,79200,1,0,0:0:0:0:
192,160,79680,1,0,0:0:0:0:
384,160,80160,1,0,0:0:0:0:
64,128,80640,1,0,0:0:0:0:
288,128,81120,1,0,0:0:0:0:
128,128,81360,1,0,0:0:0:0:
128,224,81600,1,0,0:0:0:0:
256,160,81840,1,0,0:0:0:0:
192,64,82080,1,0,0:0:0:0:
96,96,82560,1,0,0:0:0:0:
224,160,82800,1,0,0:0:0:0:
160,160,83280,1,0,0:0:0:0:
128,160,83520,1,0,0:0:0:0:
128,160,83760,1,0,0:0:0:0:
96,96,84240,1,0,0:0:0:0:
320,192,85200,1,0,0:0:0:0:
288,192,85440,1,0,0:0:0:0:
256,224,85680,1,0,0:0:0:0:
224,224,86160,1,0,0:0:0:0:
192,192,86400,1,0,0:0:0:0:
224,192,86640,1,0,0:0:0:0:
256,160,87120,1,0,0:0:0:0:
256,160,87360,1,0,0:0:0:0:
256,160,87600,1,0,0:0:0:0:
256,160,88320,1,0,0:0:0:0:
256,160,88560,1,0,0:0:0:0:
128,160,88800,1,0,0:0:0:0:
256,160,89040,1,0,0:0:0:0:
256,160,89280,1,0,0:0:0:0:
160,96,89760,1,0,0:0:0:0:
256,160,90000,1,0,0:0:0:0:
256,160,90240,1,0,0:0:0:0:
256,160,90720,1,0,0:0:0:0:
256,160,90960,1,0,0:0:0:0:
256,96,91440,1,0,0:0:0:0:
192,96,91920,1,0,0:0:0:0:
256,160,92400,1,0,0:0:0:0:
128,96,92640,1,0,0:0:0:0:
256,160,93120,1,0,0:0:0:0:
256,160,93600,1,0,0:0:0:0:
256,160,93840,1,0,0:0:0:0:
256,224,94080,1,0,0:0:0:0:
256,160,94320,1,0,0:0:0:0:
320,128,94560,1,0,0:0:0:0:
160,224,95040,1,0,0:0:0:0:
256,160,95280,1,0,0:0:0:0:
128,160,95520,1,0,0:0:0:0:
320,256,95760,1,0,0:0:0:0:
320,192,96240,1,0,0:0:0:0:
160,160,96480,1,0,0:0:0:0:
352,128,96960,1,0,0:0:0:0:
96,192,97200,1,0,0:0:0:0:
160,256,97680,1,0,0:0:0:0:
288,192,97920,1,0,0:0:0:0:
128,160,98400,1,0,0:0:0:0:
288,128,98880,1,0,0:0:0:0:
128,160,99360,1,0,0:0:0:0:
192,192,99840,1,0,0:0:0:0:
64,192,100320,1,0,0:0:0:0:
288,192,100800,1,0,0:0:0:0:
96,160,101280,1,0,0:0:0:0:
256,128,101760,1,0,0:0:0:0:
160,128,102000,1,0,0:0:0:0:
160,128,102240,1,0,0:0:0:0:
64,192,102720,1,0,0:0:0:0:
160,192,102960,1,0,0:0:0:0:
160,192,103200,1,0,0:0:0:0:
160,192,103440,1,0,0:0:0:0:
256,160,103920,1,0,0:0:0:0:
160,96,104400,1,0,0:0:0:0:
256,128,104880,1,0,0:0:0:0:
64,160,105120,1,0,0:0:0:0:
96,192,105360,1,0,0:0:0:0:
256,224,106080,1,0,0:0:0:0:
64,224,106320,1,0,0:0:0:0:
224,160,106800,1,0,0:0:0:0:
96,256,107760,1,0,0:0:0:0:
160,224,108240,1,0,0:0:0:0:
192,192,108480,1,0,0:0:0:0:
160,192,108720,1,0,0:0:0:0:
96,192,108960,1,0,0:0:0:0:
96,192,109440,1,0,0:0:0:0:
96,224,109920,1,0,0:0:0:0:
96,224,110160,1,0,0:0:0:0:
160,256,110640,1,0,0:0:0:0:
160,256,110880,1,0,0:0:0:0:
192,128,111120,1,0,0:0:0:0:
160,160,111600,1,0,0:0:0:0:
32,160,111840,1,0,0:0:0:0:
224,128,112560,1,0,0:0:0:0:
96,128,113040,1,0,0:0:0:0:
192,160,113520,1,0,0:0:0:0:
96,160,114000,1,0,0:0:0:0:
192,160,114480,1,0,0:0:0:0:
96,192,114720,1,0,0:0:0:0:
32,192,114960,1,0,0:0:0:0:
32,256,115200,1,0,0:0:0:0:
128,96,115440,1,0,0:0:0:0:
128,256,115680,1,0,0:0:0:0:
160,224,116160,1,0,0:0:0:0:
256,128,116880,1,0,0:0:0:0:
224,128,117120,1,0,0:0:0:0:
64,192,117360,1,0,0:0:0:0:
128,160,117840,1,0,0:0:0:0:
128,160,118080,1,0,0:0:0:0:
192,160,118560,1,0,0:0:0:0:
192,160,119040,1,0,0:0:0:0:
160,224,119520,1,0,0:0:0:0:
160,224,120000,1,0,0:0:0:0:
160,224,120240,1,0,0:0:0:0:
160,224,120720,1,0,0:0:0:0:
160,192,121200,1,0,0:0:0:0:
160,192,121440,1,0,0:0:0:0:
256,160,121680,1,0,0:0:0:0:
256,192,121920,1,0,0:0:0:0:
192,256,122160,1,0,0:0:0:0:
128,256,122640,1,0,0:0:0:0:
192,160,123120,1,0,0:0:0:0:
192,320,123360,1,0,0:0:0:0:
256,192,123840,1,0,0:0:0:0:
96,192,124080,1,0,0:0:0:0:
224,192,124320,1,0,0:0:0:0:
192,256,124800,1,0,0:0:0:0:
224,160,125280,1,0,0:0:0:0:
96,160,125520,1,0,0:0:0:0:
256,96,126000,1,0,0:0:0:0:
64,96,126480,1,0,0:0:0:0:
160,224,126720,1,0,0:0:0:0:
256,96,126960,1,0,0:0:0:0:
96,256,127440,1,0,0:0:0:0:
288,224,127920,1,0,0:0:0:0:
64,224,128400,1,0,0:0:0:0:
192,224,128880,1,0,0:0:0:0:
192,288,129360,1,0,0:0:0:0:
224,128,129840,1,0,0:0:0:0:
64,256,130080,1,0,0:0:0:0:
256,192,130560,1,0,0:0:0:0:
64,160,130800,1,0,0:0:0:0:
224,256,131280,1,0,0:0:0:0:
64,160,131520,1,0,0:0:0:0:
64,320,132000,1,0,0:0:0:0:
160,192,132240,1,0,0:0:0:0:
320,128,132480,1,0,0:0:0:0:
64,224,133200,1,0,0:0:0:0:
288,224,133440,1,0,0:0:0:0:
96,224,133920,1,0,0:0:0:0:
384,96,134400,1,0,0:0:0:0:
32,192,134880,1,0,0:0:0:0:
256,160,135360,1,0,0:0:0:0:
32,192,135600,1,0,0:0:0:0:
224,192,136080,1,0,0:0:0:0:
64,96,136320,1,0,0:0:0:0:
96,256,136800,1,0,0:0:0:0:
160,96,137040,1,0,0:0:0:0:
32,256,137280,1,0,0:0:0:0:
224,128,137760,1,0,0:0:0:0:
64,128,138000,1,0,0:0:0:0:
160,192,138480,1,0,0:0:0:0:
64,128,138720,1,0,0:0:0:0:
160,96,138960,1,0,0:0:0:0:
96,128,139200,1,0,0:0:0:0:
32,160,139680,1,0,0:0:0:0:
224,96,140160,1,0,0:0:0:0:
32,128,140640,1,0,0:0:0:0:
160,128,140880,1,0,0:0:0:0:
32,160,141360,1,0,0:0:0:0:
160,160,141840,1,0,0:0:0:0:
96,160,142080,1,0,0:0:0:0:
224,64,142560,1,0,0:0:0:0:
128,96,142800,1,0,0:0:0:0:
96,160,143280,1,0,0:0:0:0:
128,160,143520,1,0,0:0:0:0:
224,128,144000,1,0,0:0:0:0:
96,96,144480,1,0,0:0:0:0:
256,96,144720,1,0,0:0:0:0:
96,160,144960,1,0,0:0:0:0:
192,160,145440,1,0,0:0:0:0:
64,160,145920,1,0,0:0:0:0:
64,192,146160,1,0,0:0:0:0:
96,192,146640,1,0,0:0:0:0:
256,128,147120,1,0,0:0:0:0:
64,192,147360,1,0,0:0:0:0:
160,192,147600,1,0,0:0:0:0:
96,160,148080,1,0,0:0:0:0:
256,128,148320,1,0,0:0:0:0:
256,224,148800,1,0,0:0:0:0:
96,224,149040,1,0,0:0:0:0:
96,192,149280,1,0,0:0:0:0:
224,160,149760,1,0,0:0:0:0:
0,160,150000,1,0,0:0:0:0:
256,128,150480,1,0,0:0:0:0:
96,192,150720,1,0,0:0:0:0:
256,64,151200,1,0,0:0:0:0:
256,96,151440,1,0,0:0:0:0:
192,96,151920,1,0,0:0:0:0:
256,192,152400,12,0,155760,0:0:0:0:
96,192,157440,5,0,0:0:0:0:
160,160,157680,1,0,0:0:0:0:
256,160,157920,1,0,0:0:0:0:
96,320,158160,1,0,0:0:0:0:
160,128,158640,1,0,0:0:0:0:
128,192,159120,1,0,0:0:0:0:
64,224,159360,1,0,0:0:0:0:
128,224,159840,1,0,0:0:0:0:
32,288,160080,1,0,0:0:0:0:
0,256,160320,1,0,0:0:0:0:
224,192,160800,1,0,0:0:0:0:
96,128,161280,1,0,0:0:0:0:
352,128,161760,1,0,0:0:0:0:
96,192,162240,1,0,0:0:0:0:
64,128,163920,1,0,0:0:0:0:
128,256,164160,1,0,0:0:0:0:
64,128,165120,2,0,B|96:128|448:384|448:384|448:224|448:224|-192:224|-160:192|-160:160,1,1150
