osu file format v14

[General]
AudioFilename: audio.mp3
AudioLeadIn: 0
PreviewTime: -1
Countdown: 1
SampleSet: Normal
StackLeniency: 0.7
Mode: 0
LetterboxInBreaks: 0
CountdownOffset: 3
WidescreenStoryboard: 1

[Editor]
DistanceSpacing: 0.8
BeatDivisor: 1
GridSize: 32
TimelineZoom: 1

[Metadata]
Title:ALL THE WAY - Jacksepticeye Songify Remix by Schmoyoho
TitleUnicode:ALL THE WAY - Jacksepticeye Songify Remix by Schmoyoho
Artist:Schmoyoho
ArtistUnicode:Schmoyoho
Creator:demoncat96
Version:Insane
Source:https://www.youtube.com/watch?time_continue=4&v=BJPc49z57bU
Tags:
BeatmapID:1420513
BeatmapSetID:671570

[Difficulty]
HPDrainRate:6
CircleSize:4
OverallDifficulty:9
ApproachRate:9
SliderMultiplier:2.3
SliderTickRate:1

[Events]
//Background and Video events
Video,0,"ALL THE WAY - Jacksepticeye Songify Remix by Schmoyoho.mp4"
//Break Periods
//Storyboard Layer 0 (Background)
//Storyboard Layer 1 (Fail)
//Storyboard Layer 2 (Pass)
//Storyboard Layer 3 (Foreground)
//Storyboard Sound Samples

[TimingPoints]
0,171.428571428571,4,1,0,100,1,0

[Colours]
Combo1 : 255,0,128
Combo2 : 0,202,0
Combo3 : 18,124,255
Combo4 : 242,24,57
Combo5 : 255,192,0
Combo6 : 0,255,255
Combo7 : 0,128,192
Combo8 : 255,0,0

[HitObjects]
160,160,1200,5,0,0:0:0:0:
192,160,1920,1,0,0:0:0:0:
128,128,2400,1,0,0:0:0:0:
96,160,2640,1,0,0:0:0:0:
224,160,2880,1,0,0:0:0:0:
160,224,3360,1,0,0:0:0:0:
128,192,3840,1,0,0:0:0:0:
96,128,4320,1,0,0:0:0:0:
192,160,4800,1,0,0:0:0:0:
192,192,5040,1,0,0:0:0:0:
96,128,5280,1,0,0:0:0:0:
192,96,5520,1,0,0:0:0:0:
96,160,6000,1,0,0:0:0:0:
288,96,6240,1,0,0:0:0:0:
256,160,6480,1,0,0:0:0:0:
128,128,6720,1,0,0:0:0:0:
224,160,6960,1,0,0:0:0:0:
256,160,7200,1,0,0:0:0:0:
256,160,7440,1,0,0:0:0:0:
256,160,7920,1,0,0:0:0:0:
288,128,8160,1,0,0:0:0:0:
256,128,8400,1,0,0:0:0:0:
224,160,8640,1,0,0:0:0:0:
224,192,8880,1,0,0:0:0:0:
96,192,9360,1,0,0:0:0:0:
192,160,9840,1,0,0:0:0:0:
160,128,10320,1,0,0:0:0:0:
288,160,10560,1,0,0:0:0:0:
256,160,10800,1,0,0:0:0:0:
192,160,11040,1,0,0:0:0:0:
288,128,11760,1,0,0:0:0:0:
192,96,12240,1,0,0:0:0:0:
320,160,12720,1,0,0:0:0:0:
128,160,12960,1,0,0:0:0:0:
192,160,13200,1,0,0:0:0:0:
256,160,13440,1,0,0:0:0:0:
256,192,13680,1,0,0:0:0:0:
192,320,14160,1,0,0:0:0:0:
256,160,14640,1,0,0:0:0:0:
160,192,14880,1,0,0:0:0:0:
256,160,15360,1,0,0:0:0:0:
96,160,15840,1,0,0:0:0:0:
224,192,16080,1,0,0:0:0:0:
224,192,16320,1,0,0:0:0:0:
128,192,16800,1,0,0:0:0:0:
256,128,17040,1,0,0:0:0:0:
320,128,17280,1,0,0:0:0:0:
192,192,17760,1,0,0:0:0:0:
192,192,18000,1,0,0:0:0:0:
256,192,18480,1,0,0:0:0:0:
256,192,18720,1,0,0:0:0:0:
96,160,19200,1,0,0:0:0:0:
288,160,19680,1,0,0:0:0:0:
160,160,20160,1,0,0:0:0:0:
256,224,20640,1,0,0:0:0:0:
96,192,21120,1,0,0:0:0:0:
352,192,21600,1,0,0:0:0:0:
160,192,22080,1,0,0:0:0:0:
224,160,22320,1,0,0:0:0:0:
192,256,22800,1,0,0:0:0:0:
288,160,23040,1,0,0:0:0:0:
160,192,23520,1,0,0:0:0:0:
256,224,23760,1,0,0:0:0:0:
192,160,24240,1,0,0:0:0:0:
160,224,24480,1,0,0:0:0:0:
224,192,24720,1,0,0:0:0:0:
160,224,25200,1,0,0:0:0:0:
224,256,25680,1,0,0:0:0:0:
128,160,25920,1,0,0:0:0:0:
192,224,26160,1,0,0:0:0:0:
128,224,26640,1,0,0:0:0:0:
224,192,26880,1,0,0:0:0:0:
128,224,27360,1,0,0:0:0:0:
160,160,27600,1,0,0:0:0:0:
192,224,28080,1,0,0:0:0:0:
192,160,28320,1,0,0:0:0:0:
224,192,28560,1,0,0:0:0:0:
160,192,29040,1,0,0:0:0:0:
288,192,29520,1,0,0:0:0:0:
160,160,30000,1,0,0:0:0:0:
160,224,30240,1,0,0:0:0:0:
256,224,30720,1,0,0:0:0:0:
128,192,31200,1,0,0:0:0:0:
256,224,31440,1,0,0:0:0:0:
96,160,31920,1,0,0:0:0:0:
128,256,32160,1,0,0:0:0:0:
192,160,32640,1,0,0:0:0:0:
96,192,32880,1,0,0:0:0:0:
192,192,33360,1,0,0:0:0:0:
0,128,33600,1,0,0:0:0:0:
96,160,33840,1,0,0:0:0:0:
128,192,34080,1,0,0:0:0:0:
160,160,34320,1,0,0:0:0:0:
224,160,35040,1,0,0:0:0:0:
160,160,35760,1,0,0:0:0:0:
160,160,36240,1,0,0:0:0:0:
288,160,36480,1,0,0:0:0:0:
160,160,36720,1,0,0:0:0:0:
256,192,36960,1,0,0:0:0:0:
256,192,37200,1,0,0:0:0:0:
192,128,37440,1,0,0:0:0:0:
128,256,37680,1,0,0:0:0:0:
256,128,37920,1,0,0:0:0:0:
160,192,38400,1,0,0:0:0:0:
224,192,38640,1,0,0:0:0:0:
128,128,39120,1,0,0:0:0:0:
128,288,39360,1,0,0:0:0:0:
224,128,39600,1,0,0:0:0:0:
128,160,40080,1,0,0:0:0:0:
224,192,40320,1,0,0:0:0:0:
160,192,40560,1,0,0:0:0:0:
128,192,41040,1,0,0:0:0:0:
224,96,41280,1,0,0:0:0:0:
64,192,41520,1,0,0:0:0:0:
192,224,42000,1,0,0:0:0:0:
96,160,42240,1,0,0:0:0:0:
192,192,42480,1,0,0:0:0:0:
96,128,43200,1,0,0:0:0:0:
192,192,43440,1,0,0:0:0:0:
352,192,43680,1,0,0:0:0:0:
352,192,43920,1,0,0:0:0:0:
160,192,44400,1,0,0:0:0:0:
352,128,44640,1,0,0:0:0:0:
192,96,45120,1,0,0:0:0:0:
192,224,45360,1,0,0:0:0:0:
320,64,45840,1,0,0:0:0:0:
224,128,46080,1,0,0:0:0:0:
128,192,46320,1,0,0:0:0:0:
288,224,46800,1,0,0:0:0:0:
160,128,47040,1,0,0:0:0:0:
224,256,47520,1,0,0:0:0:0:
288,160,47760,1,0,0:0:0:0:
128,224,48000,1,0,0:0:0:0:
256,128,48480,1,0,0:0:0:0:
128,160,48720,1,0,0:0:0:0:
256,160,49200,1,0,0:0:0:0:
96,160,49440,1,0,0:0:0:0:
160,128,49680,1,0,0:0:0:0:
160,160,49920,1,0,0:0:0:0:
128,224,50400,1,0,0:0:0:0:
288,160,50640,1,0,0:0:0:0:
192,160,51120,1,0,0:0:0:0:
96,160,51360,1,0,0:0:0:0:
192,160,51600,1,0,0:0:0:0:
32,128,52080,1,0,0:0:0:0:
192,160,52560,1,0,0:0:0:0:
64,160,52800,1,0,0:0:0:0:
160,128,53280,1,0,0:0:0:0:
64,128,53520,1,0,0:0:0:0:
32,160,53760,1,0,0:0:0:0:
160,160,54480,1,0,0:0:0:0:
128,160,54960,1,0,0:0:0:0:
160,160,55440,1,0,0:0:0:0:
128,160,55680,1,0,0:0:0:0:
192,160,56160,1,0,0:0:0:0:
96,160,56640,1,0,0:0:0:0:
192,160,57120,1,0,0:0:0:0:
128,160,57360,1,0,0:0:0:0:
160,128,57600,1,0,0:0:0:0:
96,192,58080,1,0,0:0:0:0:
192,128,58560,1,0,0:0:0:0:
128,128,59040,1,0,0:0:0:0:
192,160,59280,1,0,0:0:0:0:
160,192,59760,1,0,0:0:0:0:
256,64,60000,1,0,0:0:0:0:
192,96,60240,1,0,0:0:0:0:
128,160,60480,1,0,0:0:0:0:
192,128,61200,1,0,0:0:0:0:
224,192,61440,1,0,0:0:0:0:
128,160,61680,1,0,0:0:0:0:
96,160,61920,1,0,0:0:0:0:
160,256,62400,1,0,0:0:0:0:
288,224,62640,1,0,0:0:0:0:
32,192,63120,1,0,0:0:0:0:
224,128,63600,1,0,0:0:0:0:
128,128,63840,1,0,0:0:0:0:
288,160,64320,1,0,0:0:0:0:
192,64,64800,1,0,0:0:0:0:
64,192,65040,1,0,0:0:0:0:
224,160,65520,1,0,0:0:0:0:
96,128,65760,1,0,0:0:0:0:
256,64,66240,1,0,0:0:0:0:
96,128,66720,1,0,0:0:0:0:
128,192,66960,1,0,0:0:0:0:
224,128,67440,1,0,0:0:0:0:
96,64,67680,1,0,0:0:0:0:
64,128,67920,1,0,0:0:0:0:
96,192,68160,1,0,0:0:0:0:
128,192,68640,1,0,0:0:0:0:
192,160,69120,1,0,0:0:0:0:
96,96,69360,1,0,0:0:0:0:
64,160,69840,1,0,0:0:0:0:
192,64,70080,1,0,0:0:0:0:
128,160,70560,1,0,0:0:0:0:
224,128,70800,1,0,0:0:0:0:
128,64,71280,1,0,0:0:0:0:
160,160,71520,1,0,0:0:0:0:
224,256,71760,1,0,0:0:0:0:
288,192,72240,1,0,0:0:0:0:
192,128,72480,1,0,0:0:0:0:
160,224,72720,1,0,0:0:0:0:
288,192,72960,1,0,0:0:0:0:
128,192,73440,1,0,0:0:0:0:
224,160,73680,1,0,0:0:0:0:
128,160,73920,1,0,0:0:0:0:
192,160,74160,1,0,0:0:0:0:
192,160,74880,1,0,0:0:0:0:
128,192,75120,1,0,0:0:0:0:
192,192,75600,1,0,0:0:0:0:
192,224,75840,1,0,0:0:0:0:
160,224,76080,1,0,0:0:0:0:
128,224,76560,1,0,0:0:0:0:
192,160,76800,1,0,0:0:0:0:
256,192,77280,1,0,0:0:0:0:
160,160,77760,1,0,0:0:0:0:
224,160,78000,1,0,0:0:0:0:
128,192,78480,1,0,0:0:0:0:
256,192,78720,1,0,0:0:0:0:
224,128,78960,1,0,0:0:0:0:
128,160,79200,1,0,0:0:0:0:
128,224,79680,1,0,0:0:0:0:
224,224,79920,1,0,0:0:0:0:
160,192,80160,1,0,0:0:0:0:
128,224,80640,1,0,0:0:0:0:
224,128,80880,1,0,0:0:0:0:
128,192,81360,1,0,0:0:0:0:
192,128,81600,1,0,0:0:0:0:
192,160,81840,1,0,0:0:0:0:
160,192,82080,1,0,0:0:0:0:
192,128,82560,1,0,0:0:0:0:
256,160,82800,1,0,0:0:0:0:
192,224,83040,1,0,0:0:0:0:
128,192,83280,1,0,0:0:0:0:
160,192,83520,1,0,0:0:0:0:
160,192,83760,1,0,0:0:0:0:
96,224,84240,1,0,0:0:0:0:
256,192,84480,12,0,85920,0:0:0:0:
192,128,86640,5,0,0:0:0:0:
192,160,87120,1,0,0:0:0:0:
160,256,87360,1,0,0:0:0:0:
320,128,87840,1,0,0:0:0:0:
128,160,88080,1,0,0:0:0:0:
320,256,88320,1,0,0:0:0:0:
128,192,88800,1,0,0:0:0:0:
288,192,89040,1,0,0:0:0:0:
96,192,89520,1,0,0:0:0:0:
192,128,89760,1,0,0:0:0:0:
256,128,90000,1,0,0:0:0:0:
160,160,90480,1,0,0:0:0:0:
256,160,90720,1,0,0:0:0:0:
256,192,90960,1,0,0:0:0:0:
192,128,91200,1,0,0:0:0:0:
256,128,91680,1,0,0:0:0:0:
160,160,91920,1,0,0:0:0:0:
160,192,92400,1,0,0:0:0:0:
224,192,92880,1,0,0:0:0:0:
192,160,93120,1,0,0:0:0:0:
128,160,93360,1,0,0:0:0:0:
224,128,93840,1,0,0:0:0:0:
224,128,94080,1,0,0:0:0:0:
128,128,94320,1,0,0:0:0:0:
128,160,94800,1,0,0:0:0:0:
128,160,95040,1,0,0:0:0:0:
160,192,95760,1,0,0:0:0:0:
160,192,96000,1,0,0:0:0:0:
192,192,96240,1,0,0:0:0:0:
192,192,96480,1,0,0:0:0:0:
224,160,96720,1,0,0:0:0:0:
224,160,96960,1,0,0:0:0:0:
224,128,97680,1,0,0:0:0:0:
192,128,97920,1,0,0:0:0:0:
160,128,98400,1,0,0:0:0:0:
128,160,98640,1,0,0:0:0:0:
128,160,99120,1,0,0:0:0:0:
128,192,99360,1,0,0:0:0:0:
160,192,99600,1,0,0:0:0:0:
192,192,99840,1,0,0:0:0:0:
192,128,100320,1,0,0:0:0:0:
160,96,100560,1,0,0:0:0:0:
160,96,100800,1,0,0:0:0:0:
160,160,101280,1,0,0:0:0:0:
160,192,101520,1,0,0:0:0:0:
96,160,101760,1,0,0:0:0:0:
64,128,102240,1,0,0:0:0:0:
160,96,102480,1,0,0:0:0:0:
288,128,102960,1,0,0:0:0:0:
160,192,103440,1,0,0:0:0:0:
224,224,103920,1,0,0:0:0:0:
64,128,104160,1,0,0:0:0:0:
288,128,104400,1,0,0:0:0:0:
96,256,104640,1,0,0:0:0:0:
288,160,105120,1,0,0:0:0:0:
128,64,105360,1,0,0:0:0:0:
160,192,105600,1,0,0:0:0:0:
128,192,106080,1,0,0:0:0:0:
160,128,106320,1,0,0:0:0:0:
224,96,106560,1,0,0:0:0:0:
64,192,106800,1,0,0:0:0:0:
192,224,107280,1,0,0:0:0:0:
128,160,107520,1,0,0:0:0:0:
32,160,108000,1,0,0:0:0:0:
64,224,108720,1,0,0:0:0:0:
256,128,109200,1,0,0:0:0:0:
192,96,109440,1,0,0:0:0:0:
128,160,109680,1,0,0:0:0:0:
160,224,109920,1,0,0:0:0:0:
224,256,110160,1,0,0:0:0:0:
288,192,110640,1,0,0:0:0:0:
256,128,110880,1,0,0:0:0:0:
96,64,111120,1,0,0:0:0:0:
64,192,111360,1,0,0:0:0:0:
64,224,111600,1,0,0:0:0:0:
160,224,111840,1,0,0:0:0:0:
224,192,112080,1,0,0:0:0:0:
224,64,112560,1,0,0:0:0:0:
128,64,112800,1,0,0:0:0:0:
96,128,113040,1,0,0:0:0:0:
192,128,113520,1,0,0:0:0:0:
0,160,114000,1,0,0:0:0:0:
224,160,114240,1,0,0:0:0:0:
96,160,114720,1,0,0:0:0:0:
160,192,114960,1,0,0:0:0:0:
160,192,115200,1,0,0:0:0:0:
160,192,115440,1,0,0:0:0:0:
32,160,116160,1,0,0:0:0:0:
128,128,116400,1,0,0:0:0:0:
224,96,116640,1,0,0:0:0:0:
0,160,117120,1,0,0:0:0:0:
192,128,117360,1,0,0:0:0:0:
160,160,117600,1,0,0:0:0:0:
64,96,117840,1,0,0:0:0:0:
160,192,118320,1,0,0:0:0:0:
128,128,118560,1,0,0:0:0:0:
64,192,119040,1,0,0:0:0:0:
160,96,119280,1,0,0:0:0:0:
64,96,119520,1,0,0:0:0:0:
160,160,120000,1,0,0:0:0:0:
64,96,120240,1,0,0:0:0:0:
0,224,120480,1,0,0:0:0:0:
160,64,120720,1,0,0:0:0:0:
32,160,120960,1,0,0:0:0:0:
160,192,121200,1,0,0:0:0:0:
160,192,121440,1,0,0:0:0:0:
160,320,121680,1,0,0:0:0:0:
192,192,121920,1,0,0:0:0:0:
288,160,122160,1,0,0:0:0:0:
64,192,122640,1,0,0:0:0:0:
288,192,122880,1,0,0:0:0:0:
128,128,123120,1,0,0:0:0:0:
160,288,123600,1,0,0:0:0:0:
0,224,123840,1,0,0:0:0:0:
224,192,124080,1,0,0:0:0:0:
0,256,124320,1,0,0:0:0:0:
160,128,124560,1,0,0:0:0:0:
64,288,125040,1,0,0:0:0:0:
96,160,125280,1,0,0:0:0:0:
160,256,125520,1,0,0:0:0:0:
64,160,126000,1,0,0:0:0:0:
192,256,126240,1,0,0:0:0:0:
96,160,127200,2,0,B|320:0|320:224|320:32|128:128|32:192|32:192|-32:256,1,460
64,224,128160,1,0,0:0:0:0:
192,192,128400,1,0,0:0:0:0:
160,160,128640,1,0,0:0:0:0:
0,160,128880,1,0,0:0:0:0:
224,160,129360,1,0,0:0:0:0:
64,160,129600,1,0,0:0:0:0:
64,320,130080,1,0,0:0:0:0:
224,192,130560,1,0,0:0:0:0:
32,192,130800,1,0,0:0:0:0:
256,96,131280,1,0,0:0:0:0:
96,128,131520,1,0,0:0:0:0:
64,224,131760,1,0,0:0:0:0:
224,224,132240,1,0,0:0:0:0:
64,128,132480,1,0,0:0:0:0:
160,160,132720,1,0,0:0:0:0:
160,128,133200,1,0,0:0:0:0:
96,256,133440,1,0,0:0:0:0:
256,96,133920,1,0,0:0:0:0:
128,160,134160,1,0,0:0:0:0:
224,128,134400,1,0,0:0:0:0:
160,160,134640,1,0,0:0:0:0:
192,128,134880,1,0,0:0:0:0:
256,96,135120,1,0,0:0:0:0:
96,160,135840,1,0,0:0:0:0:
64,192,136320,1,0,0:0:0:0:
192,96,136800,1,0,0:0:0:0:
96,224,137520,1,0,0:0:0:0:
96,192,137760,1,0,0:0:0:0:
96,160,138000,1,0,0:0:0:0:
192,192,138240,1,0,0:0:0:0:
64,224,138720,1,0,0:0:0:0:
160,192,138960,1,0,0:0:0:0:
96,160,139440,1,0,0:0:0:0:
96,160,139680,1,0,0:0:0:0:
160,224,139920,1,0,0:0:0:0:
64,224,140160,1,0,0:0:0:0:
160,192,140640,1,0,0:0:0:0:
64,224,140880,1,0,0:0:0:0:
64,256,141120,1,0,0:0:0:0:
96,256,141360,1,0,0:0:0:0:
160,256,141600,1,0,0:0:0:0:
224,224,141840,1,0,0:0:0:0:
160,160,142560,1,0,0:0:0:0:
32,160,142800,1,0,0:0:0:0:
32,256,143280,1,0,0:0:0:0:
128,224,143520,1,0,0:0:0:0:
192,160,144000,1,0,0:0:0:0:
224,128,144480,1,0,0:0:0:0:
96,192,144720,1,0,0:0:0:0:
192,256,144960,1,0,0:0:0:0:
224,224,145440,1,0,0:0:0:0:
128,224,145920,1,0,0:0:0:0:
128,224,146160,1,0,0:0:0:0:
128,224,146400,1,0,0:0:0:0:
320,160,147120,1,0,0:0:0:0:
256,160,147360,1,0,0:0:0:0:
160,192,147600,1,0,0:0:0:0:
224,224,148080,1,0,0:0:0:0:
256,160,148320,1,0,0:0:0:0:
96,128,148560,1,0,0:0:0:0:
0,256,149040,1,0,0:0:0:0:
256,160,149520,1,0,0:0:0:0:
192,192,150240,1,0,0:0:0:0:
32,160,150720,1,0,0:0:0:0:
288,224,151200,1,0,0:0:0:0:
96,160,151680,1,0,0:0:0:0:
256,96,152160,1,0,0:0:0:0:
64,256,152400,1,0,0:0:0:0:
128,192,152640,1,0,0:0:0:0:
256,128,152880,1,0,0:0:0:0:
96,192,153120,1,0,0:0:0:0:
96,128,153360,1,0,0:0:0:0:
224,128,153600,1,0,0:0:0:0:
224,224,153840,1,0,0:0:0:0:
32,192,154080,1,0,0:0:0:0:
160,96,154320,1,0,0:0:0:0:
96,192,155280,1,0,0:0:0:0:
64,192,155760,1,0,0:0:0:0:
160,160,156000,1,0,0:0:0:0:
192,160,156240,1,0,0:0:0:0:
32,224,156720,1,0,0:0:0:0:
192,192,156960,1,0,0:0:0:0:
96,192,157440,1,0,0:0:0:0:
288,192,157920,1,0,0:0:0:0:
128,160,158160,1,0,0:0:0:0:
160,192,158400,1,0,0:0:0:0:
96,256,158880,1,0,0:0:0:0:
64,224,159120,1,0,0:0:0:0:
64,224,159360,1,0,0:0:0:0:
192,192,159840,1,0,0:0:0:0:
160,224,160080,1,0,0:0:0:0:
96,224,160320,1,0,0:0:0:0:
192,160,160800,1,0,0:0:0:0:
160,160,161040,1,0,0:0:0:0:
128,192,161280,1,0,0:0:0:0:
128,192,161520,1,0,0:0:0:0:
128,192,161760,1,0,0:0:0:0:
128,192,162240,1,0,0:0:0:0:
288,160,162720,1,0,0:0:0:0:
160,192,163200,1,0,0:0:0:0:
256,192,163680,1,0,0:0:0:0:
128,160,164160,1,0,0:0:0:0:
0,160,166080,1,0,0:0:0:0:
192,128,166320,1,0,0:0:0:0:
192,128,166560,1,0,0:0:0:0:
64,192,166800,1,0,0:0:0:0:
160,160,167040,1,0,0:0:0:0:
128,160,167280,1,0,0:0:0:0:
160,224,167520,1,0,0:0:0:0:
