osu file format v14

[General]
AudioFilename: audio.mp3
AudioLeadIn: 0
PreviewTime: 190333
Countdown: 0
SampleSet: Soft
StackLeniency: 0.2
Mode: 0
LetterboxInBreaks: 0
WidescreenStoryboard: 1

[Editor]
Bookmarks: 9852,10018,10185,10352,10518,10685,10852,11018,24499,39852,40018,40185,40352,45833,49852,49935,50102,50185,50352,50518,59166,83166,88518,88685,88852,89018,89185,89352,89518,96499,115499,125499,131850,132016,136183,146833,163516,163683,163850,164016,168166,177166,186499,191833,213166,223833,234499,239833,245166,259833,270499,275833,297166,310499
DistanceSpacing: 0.3
BeatDivisor: 12
GridSize: 4
TimelineZoom: 2.1

[Metadata]
Title:Suicide Penguin
TitleUnicode:Suicide Penguin
Artist:Schizoid Lloyd
ArtistUnicode:Schizoid Lloyd
Creator:BOUYAAA
Version:Cryptic
Source:
Tags:The Last Note In God's Magnum Opus Progressive metal Hard Rock
BeatmapID:1493972
BeatmapSetID:706545

[Difficulty]
HPDrainRate:6
CircleSize:4
OverallDifficulty:8.6
ApproachRate:9
SliderMultiplier:1.8
SliderTickRate:1

[Events]
//Background and Video events
0,0,"1510530214514.jpg",0,0
//Break Periods
//Storyboard Layer 0 (Background)
//Storyboard Layer 1 (Fail)
//Storyboard Layer 2 (Pass)
//Storyboard Layer 3 (Foreground)
//Storyboard Sound Samples

[TimingPoints]
596,333.333333333333,4,2,1,70,1,0
596,-100,4,2,1,70,0,0
1595,-166.666666666667,4,2,1,70,0,0
4929,-100,4,2,1,70,0,0
6595,-166.666666666667,4,2,1,70,0,0
16595,-100,4,2,1,70,0,0
19595,-100,4,2,1,70,0,0
20595,-333.333333333334,4,2,1,70,0,0
22345,-333.333333333334,4,2,1,5,0,0
22429,-200,4,2,1,50,0,0
22845,-200,4,2,1,5,0,0
22929,-142.857142857143,4,2,1,50,0,0
23512,-142.857142857143,4,2,1,5,0,0
23595,-111.111111111111,4,2,1,50,0,0
23845,-111.111111111111,4,2,1,70,0,0
23929,-90.9090909090909,4,2,1,70,0,0
24512,-90.9090909090909,4,2,1,5,0,0
24595,-100,4,2,1,70,0,0
25595,-166.666666666667,4,2,1,70,0,0
28929,-100,4,2,1,70,0,0
30595,-166.666666666667,4,2,1,70,0,0
35262,-166.666666666667,4,2,1,50,0,0
40595,-100,4,2,1,70,0,0
44595,-333.333333333333,4,2,1,70,0,0
46512,-333.333333333333,4,2,1,5,0,0
46595,-200,4,2,1,50,0,0
47012,-200,4,2,1,5,0,0
47095,-142.857142857143,4,2,1,50,0,0
47512,-142.857142857143,4,2,1,5,0,0
47595,-111.111111111111,4,2,1,50,0,0
48429,-111.111111111111,4,2,1,5,0,0
48595,-200,4,2,1,50,0,0
59262,-200,4,2,1,49,0,0
93929,-200,4,2,1,60,0,0
95262,-142.857142857143,4,2,1,70,0,0
96596,333.333333333333,6,2,1,70,1,0
98596,333.333333333333,4,2,1,70,1,0
101262,333.333333333333,6,2,1,70,1,0
103262,333.333333333333,4,2,1,70,1,0
105928,-125,4,2,1,70,0,0
108595,333.333333333333,6,2,1,70,1,0
109761,-83.3333333333333,6,2,1,70,0,0
110595,333.333333333333,7,2,1,70,1,0
112928,333.333333333333,4,2,1,70,1,0
114261,312.5,4,2,1,70,1,0
114573,333.333333333333,4,2,1,70,1,0
115261,333.333333333333,4,2,1,70,1,0
115594,333.333333333333,6,2,1,70,1,0
117594,333.333333333333,4,2,1,70,1,0
120260,-125,4,2,1,70,0,0
122705,-100,4,2,1,70,0,0
125427,-90.9090909090909,4,2,1,70,0,1
125760,-90.9090909090909,4,2,1,70,0,0
136260,-83.3333333333333,4,2,1,70,0,0
146927,-100,4,2,1,70,0,0
157593,-90.9090909090909,4,2,1,70,0,0
168260,-333.333333333333,4,2,1,70,0,0
176260,333.333333333333,3,2,1,70,1,0
176426,-333.333333333333,3,2,1,70,0,0
177260,333.333333333333,4,2,1,70,1,0
182510,-142.857142857143,4,2,1,70,0,0
186426,-200,4,2,0,50,0,0
191260,-200,4,2,1,70,0,0
191926,-76.9230769230769,4,2,1,70,0,1
199676,-76.9230769230769,4,2,1,5,0,1
199759,-76.9230769230769,4,2,1,70,0,1
200009,-76.9230769230769,4,2,1,5,0,1
200259,-76.9230769230769,4,2,1,70,0,1
213259,-200,4,2,1,70,0,0
213632,333.333333333333,4,2,1,50,1,0
213632,-200,4,2,1,50,0,0
217259,333.333333333333,4,2,1,70,1,0
217259,-200,4,2,1,70,0,0
217621,331.491712707182,4,2,1,50,1,0
217621,-100,4,2,1,50,0,0
218925,333.333333333333,4,2,1,70,1,0
218925,-200,4,2,1,70,0,0
219258,-200,4,2,1,50,0,0
219926,333.333333333333,4,2,1,50,1,0
219926,-200,4,2,1,50,0,0
221259,-200,4,2,1,30,0,0
221593,-200,4,2,1,35,0,0
221926,-200,4,2,1,40,0,0
222259,-200,4,2,1,50,0,0
222593,-200,4,2,1,55,0,0
222926,-200,4,2,1,60,0,0
223259,-200,4,2,1,65,0,0
223593,-200,4,2,1,70,0,0
223926,-76.9230769230769,4,2,1,70,0,1
226426,-76.9230769230769,4,2,1,70,0,0
226592,-76.9230769230769,4,2,1,70,0,1
229092,-76.9230769230769,4,2,1,70,0,0
229259,-76.9230769230769,4,2,1,70,0,1
231759,-76.9230769230769,4,2,1,70,0,0
231926,-76.9230769230769,4,2,1,70,0,1
234259,-76.9230769230769,4,2,1,70,0,0
234592,-100,4,2,1,70,0,1
239925,-100,4,2,1,70,0,0
245259,-111.111111111111,4,2,1,70,0,0
247926,333.333333333333,6,2,1,70,1,0
249926,333.333333333333,4,2,1,70,1,0
252259,-200,4,2,1,70,0,0
252592,-111.111111111111,4,2,1,70,0,0
255259,333.333333333333,6,2,1,70,1,0
257259,333.333333333333,4,2,1,70,1,0
274425,-125,4,2,1,70,0,0
274925,-125,4,2,1,30,0,0
275259,-125,4,2,1,50,0,0
275592,-125,4,2,1,70,0,0
275925,-76.9230769230769,4,2,1,70,0,1
287925,-100,4,2,1,70,0,1
289036,-76.9230769230769,4,2,1,70,0,1
289258,-100,4,2,1,70,0,0
290536,-200,4,2,1,70,0,0
291758,-100,4,2,1,70,0,0
291925,-76.9230769230769,4,2,1,70,0,1
297092,-100,4,2,1,70,0,0
297258,-125,4,2,1,70,0,1
297425,-125,4,2,1,70,0,0
298592,-125,4,2,1,70,0,1
298758,-125,4,2,1,70,0,0
299258,-125,4,2,1,70,0,1
299425,-125,4,2,1,70,0,0
299925,-125,4,2,1,70,0,1
300092,-125,4,2,1,70,0,0
301258,-125,4,2,1,70,0,1
301425,-125,4,2,1,70,0,0
302592,-125,4,2,1,70,0,1
302758,-125,4,2,1,70,0,0
303258,-125,4,2,1,70,0,1
303425,-125,4,2,1,70,0,0
303925,-125,4,2,1,70,0,1
304092,-125,4,2,1,70,0,0
304592,-125,4,2,1,70,0,1
304758,-125,4,2,1,70,0,0
305258,-125,4,2,1,70,0,1
305425,-125,4,2,1,70,0,0
310592,-125,4,2,1,5,0,0

[Colours]
Combo1 : 168,255,164
Combo2 : 253,204,113
Combo3 : 250,181,105
Combo4 : 252,139,112
Combo5 : 254,97,80
Combo6 : 188,203,222
Combo7 : 204,111,255
Combo8 : 213,254,150

[HitObjects]
95,61,596,6,0,L|99:153,1,90,8|0,1:0|0:0,0:0:0:0:
168,292,929,2,0,B|165:221|165:221|184:184|184:184|181:88,1,180,8|0,1:0|0:0,0:0:0:0:
168,292,1595,86,0,P|124:284|80:284,1,53.9999983520508
28,208,1929,2,0,P|72:200|116:200,1,53.9999983520508
220,216,2262,2,0,L|208:416,1,161.999995056153
320,328,2929,2,0,L|308:228,1,53.9999983520508
332,152,3262,6,0,P|396:200|492:140,1,161.999995056153
484,80,3929,2,0,P|420:32|324:92,1,161.999995056153
247,58,4595,2,0,L|252:112,1,53.9999983520508
167,337,4929,6,0,P|136:359|84:362,1,90,8|0,1:0|0:0,0:0:0:0:
252,292,5262,2,0,P|287:307|315:351,1,90,8|0,1:0|0:0,0:0:0:0:
171,241,5595,2,0,P|166:202|190:156,1,90,8|0,1:0|0:0,0:0:0:0:
338,209,5929,6,0,L|226:215,1,90,8|0,1:0|0:0,0:0:0:0:
13,277,6262,2,0,L|125:283,1,90,8|0,1:0|0:0,0:0:0:0:
172,76,6595,38,0,P|128:64|84:64,1,53.9999983520508
256,16,6929,2,0,P|300:4|344:4,1,53.9999983520508
220,160,7262,2,0,L|232:380,1,215.999993408203
424,316,8095,1,0,0:0:0:0:
372,248,8262,1,0,0:0:0:0:
340,328,8429,1,0,0:0:0:0:
456,236,8595,22,0,B|459:150|459:150|431:107|431:107|436:6,1,215.999993408203
325,109,9429,1,0,0:0:0:0:
239,121,9595,1,0,0:0:0:0:
153,132,9762,1,0,0:0:0:0:
62,111,9929,6,0,B|47:73|75:21|114:17|114:17|151:68,1,161.999995056153
153,132,10595,2,0,B|138:170|166:222|205:226|205:226|242:175,1,161.999995056153
244,90,11262,6,2,B|312:9|439:8|532:107|496:192|455:211,1,377.999988464356,2|0,0:0|0:0,0:0:0:0:
376,199,12595,6,2,B|343:171|287:155|238:199|269:261,1,161.999995056153,2|0,0:0|0:0,0:0:0:0:
336,311,13262,2,2,B|365:283|425:267|474:311|443:373,1,161.999995056153,2|0,0:0|0:0,0:0:0:0:
239,337,13929,102,2,B|187:385|99:398|43:370|19:332|18:236|111:215|152:268,1,377.999988464356,2|0,0:0|0:0,0:0:0:0:
244,242,15262,6,2,P|236:176|147:168,1,161.999995056153,2|0,0:0|0:0,0:0:0:0:
48,136,15929,2,2,P|56:70|145:62,1,161.999995056153,2|0,0:0|0:0,0:0:0:0:
222,46,16595,6,0,P|254:92|313:118,1,90,8|0,1:0|0:0,0:0:0:0:
492,124,16929,2,0,P|439:146|376:136,1,90,8|0,1:0|0:0,0:0:0:0:
187,198,17262,2,0,P|262:211|306:203,1,90,8|0,1:0|0:0,0:0:0:0:
441,271,17595,2,0,P|370:242|337:212,1,90,8|0,0:0|0:0,0:0:0:0:
0,228,17929,6,0,P|53:245|116:230,1,90,8|0,1:0|0:0,0:0:0:0:
261,127,18263,2,0,P|232:176|175:206,1,90,8|0,1:0|0:0,0:0:0:0:
63,370,18596,2,0,P|131:335|161:302,1,90,8|0,1:0|0:0,0:0:0:0:
309,276,18929,2,0,P|235:295|190:291,1,90,8|0,1:0|0:0,0:0:0:0:
52,48,19262,102,0,L|60:172,1,90,8|0,1:0|0:0,0:0:0:0:
220,376,19595,1,4,0:3:0:0:
235,353,19678,1,4,0:3:0:0:
242,327,19761,1,4,0:3:0:0:
242,301,19844,1,4,0:3:0:0:
235,275,19928,1,4,0:3:0:0:
220,253,20011,1,4,0:3:0:0:
199,236,20094,1,4,0:3:0:0:
174,225,20178,1,4,0:3:0:0:
148,220,20262,6,0,L|152:280,1,45,4|0,1:3|0:0,0:0:0:0:
24,284,20429,2,0,L|26:239,1,45,4|0,1:3|0:0,0:0:0:0:
144,136,20595,70,0,L|340:152,1,188.999994232178,4|0,1:0|0:0,0:0:0:0:
396,80,21929,54,0,P|424:112|432:136,1,67.4999979400635,4|0,1:0|0:0,0:0:0:0:
496,196,22429,22,0,P|496:248|464:300,1,112.5
400,368,22929,22,0,B|292:392|292:304|188:356,1,220.499993270874
104,376,23595,6,0,P|48:344|40:280,1,121.499996292114
84,216,23929,22,2,B|121:232|152:220|152:220|172:248|196:256|196:256|228:236|280:244|280:244|304:288|360:308|412:276,1,346.500010574341,2|0,0:0|0:0,0:0:0:0:
480,161,24595,70,0,B|496:121|496:121|476:69,1,90
376,28,24928,2,0,B|379:99|379:99|360:136|360:136|363:232,1,180
362,203,25595,54,0,P|318:211|274:211,1,53.9999983520508
204,114,25929,2,0,P|248:122|292:122,1,53.9999983520508
404,117,26262,2,0,L|414:279,1,161.999995056153
304,352,26929,2,0,L|296:296,1,53.9999983520508
188,316,27262,22,0,P|124:364|28:304,1,161.999995056153
36,244,27929,2,0,P|100:196|196:256,1,161.999995056153
268,276,28595,2,0,L|273:222,1,53.9999983520508
407,17,28929,22,0,B|383:54|383:54|335:69,1,90,8|0,1:0|0:0,0:0:0:0:
189,88,29262,2,0,B|233:90|233:90|270:124,1,90,8|0,1:0|0:0,0:0:0:0:
360,241,29595,2,0,B|339:201|339:201|350:152,1,90,8|0,1:0|0:0,0:0:0:0:
488,116,29929,6,0,P|466:163|410:186,1,90,8|0,1:0|0:0,0:0:0:0:
180,180,30262,2,0,P|214:219|274:225,1,90,8|0,1:0|0:0,0:0:0:0:
392,308,30595,38,0,L|384:372,1,53.9999983520508
249,228,30929,2,0,L|253:292,1,53.9999983520508
434,142,31262,2,0,B|420:218|420:218|380:258|380:258|368:354,1,215.999993408203
332,163,32095,1,0,0:0:0:0:
251,131,32262,1,0,0:0:0:0:
264,218,32429,1,0,0:0:0:0:
96,208,32595,22,0,P|48:166|86:27,1,215.999993408203
196,54,33429,1,0,0:0:0:0:
280,27,33595,1,0,0:0:0:0:
261,113,33762,1,0,0:0:0:0:
404,54,33929,6,0,P|451:82|446:190,1,161.999995056153
365,217,34595,2,0,P|318:245|323:353,1,161.999995056153
388,303,35262,6,2,B|364:231|311:137|224:127|161:157|144:205|147:254|182:271,1,377.999988464356,2|0,0:0|0:0,0:0:0:0:
162,360,36595,6,2,P|257:315|262:263,1,161.999995056153,2|0,0:0|0:0,0:0:0:0:
168,136,37262,2,2,P|73:181|68:233,1,161.999995056153,2|0,0:0|0:0,0:0:0:0:
277,169,37929,102,2,B|336:228|441:217|478:182|491:135|468:75|458:60|416:49|382:47|362:66|362:88,1,377.999988464356,2|0,0:0|0:0,0:0:0:0:
226,84,39262,6,2,B|186:86|152:62|152:62|135:106|83:124,1,161.999995056153,2|0,0:0|0:0,0:0:0:0:
0,185,39929,2,2,B|40:198|57:242|57:242|91:218|131:220,1,161.999995056153,2|0,0:0|0:0,0:0:0:0:
512,228,40595,6,0,P|459:245|396:230,1,90,8|0,1:0|0:0,0:0:0:0:
251,127,40929,2,0,P|280:176|337:206,1,90,8|0,1:0|0:0,0:0:0:0:
449,370,41262,2,0,P|381:335|351:302,1,90,8|0,1:0|0:0,0:0:0:0:
203,276,41595,2,0,P|277:295|322:291,1,90,8|0,1:0|0:0,0:0:0:0:
290,46,41929,6,0,P|258:92|199:118,1,90,8|0,1:0|0:0,0:0:0:0:
20,124,42263,2,0,P|73:146|136:136,1,90,8|0,1:0|0:0,0:0:0:0:
325,198,42596,2,0,P|250:211|206:203,1,90,8|0,1:0|0:0,0:0:0:0:
71,271,42929,2,0,P|142:242|175:212,1,90,8|0,1:0|0:0,0:0:0:0:
446,22,43262,102,0,L|437:127,1,90,8|0,0:0|0:0,0:0:0:0:
381,363,43595,5,4,0:3:0:0:
407,327,43678,1,4,0:3:0:0:
410,283,43761,1,4,0:3:0:0:
389,244,43845,1,4,0:3:0:0:
362,219,43929,101,4,0:3:0:0:
335,183,44012,1,4,0:3:0:0:
332,139,44095,1,4,0:3:0:0:
353,100,44179,1,4,0:3:0:0:
389,95,44262,6,0,L|439:103,1,45,4|0,1:3|0:0,0:0:0:0:
315,301,44429,2,0,L|260:306,1,45,4|0,1:3|0:0,0:0:0:0:
168,166,44595,70,0,L|192:-1,1,161.999995056153,4|0,1:0|0:0,0:0:0:0:
301,24,45929,54,0,P|326:60|324:113,1,94.4999971160889,4|0,1:0|0:0,0:0:0:0:
267,159,46595,22,0,P|250:195|265:276,1,112.5
298,335,47095,6,0,P|258:366|157:335,1,157.499995193482
148,262,47595,6,0,P|11:222|94:370,1,404.999987640381
251,248,48595,86,0,B|382:235|382:235|429:265,1,180
422,261,49929,2,0,B|392:187|457:157|422:71,1,180
295,37,51262,6,0,B|312:80|287:85|305:130,3,90,2|2|2|2,0:0|0:0|0:0|0:0,0:0:0:0:
181,113,52595,2,0,B|176:134|176:134|177:147|177:147|170:157|170:157|174:170|174:170|168:183|168:183|169:206,3,90,2|2|2|2,0:0|0:0|0:0|0:0,0:0:0:0:
68,28,53929,70,0,L|79:86,1,45,2|2,0:0|0:0,0:0:0:0:
20,129,54262,2,0,L|9:187,1,45,2|2,0:0|0:0,0:0:0:0:
172,202,54595,22,0,L|183:260,1,45,2|2,0:0|0:0,0:0:0:0:
124,303,54928,2,0,L|113:361,1,45,2|2,0:0|0:0,0:0:0:0:
330,163,55262,6,0,L|319:221,1,45,2|2,0:0|0:0,0:0:0:0:
245,72,55595,2,0,L|256:130,1,45,2|2,0:0|0:0,0:0:0:0:
293,296,55929,70,0,P|350:313|423:263,1,135,2|0,0:0|0:0,0:0:0:0:
442,189,56595,22,0,B|444:157|444:157|439:141|439:141|444:94,2,90,2|2|2,0:0|0:0|0:0,0:0:0:0:
442,189,57595,1,2,0:0:0:0:
344,98,57929,6,2,L|344:72,8,22.5
351,181,58707,6,0,L|348:216,4,30,6|2|2|2|2,0:0|0:0|0:0|0:0|0:0,0:0:0:0:
351,181,59262,54,8,P|305:153|255:160,1,90,2|8,0:0|0:0,0:0:0:0:
267,165,59679,1,8,0:0:0:0:
264,175,59762,1,8,0:0:0:0:
261,185,59845,1,8,0:0:0:0:
258,196,59929,1,8,0:0:0:0:
168,160,60095,1,2,0:0:0:0:
86,163,60262,1,10,0:0:0:0:
4,166,60429,1,2,0:0:0:0:
78,266,60595,22,0,P|110:261|181:288,1,90,10|0,0:0|0:0,0:0:0:0:
226,355,61262,2,0,P|258:337|315:328,1,90,2|8,0:0|0:0,0:0:0:0:
324,338,61679,1,8,0:0:0:0:
339,346,61762,1,8,0:0:0:0:
356,350,61845,1,8,0:0:0:0:
374,351,61929,6,0,L|381:161,1,180,10|8,0:0|0:0,0:0:0:0:
416,61,62873,6,0,P|430:58|448:49,3,30,2|2|2|2,0:0|0:0|0:0|0:0,0:0:0:0:
186,48,63429,53,8,0:0:0:0:
188,61,63512,1,8,0:0:0:0:
190,74,63595,1,8,0:0:0:0:
261,142,63762,1,8,0:0:0:0:
119,134,63929,2,0,P|87:143|65:153,1,45,8|0,0:0|0:0,0:0:0:0:
261,142,64262,2,0,P|293:151|315:161,1,45,8|0,0:0|0:0,0:0:0:0:
191,216,64595,22,0,L|186:318,1,90,8|10,0:0|0:0,0:0:0:0:
192,317,65012,1,8,0:0:0:0:
198,328,65095,1,8,0:0:0:0:
205,339,65179,1,8,0:0:0:0:
211,351,65262,1,10,0:0:0:0:
294,327,65429,1,8,0:0:0:0:
110,343,65595,2,0,P|102:314|104:285,1,45,10|0,0:0|0:0,0:0:0:0:
306,284,65929,6,0,P|296:310|294:342,1,45,10|0,0:0|0:0,0:0:0:0:
380,331,66262,1,10,0:0:0:0:
393,329,66345,1,8,0:0:0:0:
406,327,66429,1,8,0:0:0:0:
419,325,66512,1,8,0:0:0:0:
432,323,66595,1,10,0:0:0:0:
496,263,66762,1,8,0:0:0:0:
410,232,66929,1,10,0:0:0:0:
411,218,67012,1,8,0:0:0:0:
412,204,67095,1,8,0:0:0:0:
413,190,67179,1,8,0:0:0:0:
415,176,67262,70,0,P|384:152|326:159,1,90,10|8,0:0|0:0,0:0:0:0:
335,154,67929,1,8,0:0:0:0:
269,206,68262,1,10,0:0:0:0:
255,205,68345,1,8,0:0:0:0:
241,204,68429,1,10,0:0:0:0:
227,202,68512,1,8,0:0:0:0:
213,201,68595,1,10,0:0:0:0:
152,137,68762,21,8,0:0:0:0:
212,69,68929,1,10,0:0:0:0:
124,52,69095,1,10,0:0:0:0:
63,119,69262,2,0,L|0:114,2,45,10|8|8,0:0|0:0|0:0,0:0:0:0:
66,132,69679,1,8,0:0:0:0:
69,145,69762,1,8,0:0:0:0:
72,158,69845,1,8,0:0:0:0:
75,171,69929,5,10,0:0:0:0:
57,264,70095,1,8,0:0:0:0:
190,351,70262,69,8,0:0:0:0:
182,266,70428,1,8,0:0:0:0:
175,182,70595,1,8,0:0:0:0:
287,216,70929,21,8,0:0:0:0:
299,216,71012,1,8,0:0:0:0:
312,217,71095,1,8,0:0:0:0:
325,218,71179,1,8,0:0:0:0:
338,219,71262,1,10,0:0:0:0:
439,225,71595,5,8,0:0:0:0:
421,318,71761,1,8,0:0:0:0:
401,51,71929,69,10,0:0:0:0:
408,135,72096,1,8,0:0:0:0:
416,220,72262,1,8,0:0:0:0:
424,305,72429,1,8,0:0:0:0:
330,185,72595,21,10,0:0:0:0:
318,185,72678,1,8,0:0:0:0:
305,186,72761,1,8,0:0:0:0:
292,187,72845,1,8,0:0:0:0:
279,188,72928,1,8,0:0:0:0:
265,189,73012,1,8,0:0:0:0:
253,189,73095,1,8,0:0:0:0:
240,190,73178,1,8,0:0:0:0:
227,191,73262,1,8,0:0:0:0:
58,155,73595,5,8,0:0:0:0:
51,239,73762,1,8,0:0:0:0:
179,50,73929,1,10,0:0:0:0:
179,50,74262,69,8,0:0:0:0:
178,63,74345,1,8,0:0:0:0:
177,76,74428,1,8,0:0:0:0:
176,89,74512,1,8,0:0:0:0:
175,102,74595,1,10,0:0:0:0:
240,180,74762,21,8,0:0:0:0:
328,168,74929,1,8,0:0:0:0:
416,156,75095,1,8,0:0:0:0:
294,249,75262,6,0,L|286:357,1,90,10|10,0:0|0:0,0:0:0:0:
143,319,75762,1,10,0:0:0:0:
142,306,75845,1,8,0:0:0:0:
141,293,75929,1,8,0:0:0:0:
140,280,76012,1,8,0:0:0:0:
139,267,76095,1,8,0:0:0:0:
185,186,76262,2,0,P|155:176|124:176,1,45,10|0,0:0|0:0,0:0:0:0:
38,78,76595,70,0,P|68:68|99:68,1,45,10|0,0:0|0:0,0:0:0:0:
166,96,76929,1,10,0:0:0:0:
250,59,77095,1,8,0:0:0:0:
263,58,77178,1,8,0:0:0:0:
276,57,77261,1,8,0:0:0:0:
289,56,77345,1,8,0:0:0:0:
302,55,77428,1,8,0:0:0:0:
398,47,77595,2,0,L|392:97,1,45,10|0,0:0|0:0,0:0:0:0:
381,201,77929,21,10,0:0:0:0:
393,204,78012,1,8,0:0:0:0:
406,204,78095,1,10,0:0:0:0:
419,201,78179,1,8,0:0:0:0:
429,193,78262,1,10,0:0:0:0:
354,301,78595,5,10,0:0:0:0:
266,289,78762,1,10,0:0:0:0:
178,277,78929,1,10,0:0:0:0:
180,290,79012,1,8,0:0:0:0:
182,303,79095,1,10,0:0:0:0:
184,316,79179,1,8,0:0:0:0:
186,329,79262,69,10,0:0:0:0:
98,341,79429,1,2,0:0:0:0:
35,276,79595,2,0,L|44:172,1,90,10|10,0:0|0:0,0:0:0:0:
45,173,80012,1,10,0:0:0:0:
48,159,80095,1,10,0:0:0:0:
133,90,80262,1,10,0:0:0:0:
135,103,80345,1,8,0:0:0:0:
137,116,80428,1,10,0:0:0:0:
139,129,80512,1,8,0:0:0:0:
141,142,80595,21,10,0:0:0:0:
229,181,80762,1,10,0:0:0:0:
295,109,80929,2,0,L|359:103,1,45,10|2,0:0|0:0,0:0:0:0:
433,55,81262,2,0,L|426:162,1,90,10|2,0:0|0:0,0:0:0:0:
383,217,81762,1,10,0:0:0:0:
452,296,81929,5,10,0:0:0:0:
348,320,82095,1,10,0:0:0:0:
452,296,82262,1,10,0:0:0:0:
383,217,82429,1,10,0:0:0:0:
260,372,82595,69,10,0:0:0:0:
187,309,82762,1,10,0:0:0:0:
88,303,82929,1,2,0:0:0:0:
76,283,83012,1,2,0:0:0:0:
74,261,83095,1,2,0:0:0:0:
80,240,83178,1,2,0:0:0:0:
92,228,83262,22,0,B|160:232|160:232|192:216|192:216|268:220,1,180,4|0,0:0|0:0,0:0:0:0:
268,220,84595,2,0,P|303:171|420:165,2,180
68,88,87262,6,0,B|196:70|196:70|168:91|157:115,1,180
321,260,88595,2,0,B|327:287|320:320|293:339|270:345|270:345|227:328|215:266|225:225|260:194,1,270
307,140,89762,1,0,0:0:0:0:
395,108,89929,70,0,B|435:151|435:151|418:272,2,180
395,108,92595,22,0,P|391:155|411:204,1,90
375,277,93262,2,0,P|334:238|318:196,1,90
216,39,93929,6,0,P|188:106|185:139,1,90
102,197,94595,2,0,P|88:142|91:100,1,90
433,159,95262,6,0,P|377:128|300:148,1,125.999996154785
231,64,95929,2,0,P|271:25|342:12,1,125.999996154785
364,299,96596,5,4,0:3:0:0:
364,299,96929,1,4,0:3:0:0:
64,283,97262,1,8,0:0:0:0:
150,204,97429,1,0,1:0:0:0:
175,319,97596,1,4,0:3:0:0:
422,214,97762,6,0,B|381:195|381:195|283:208,1,135,12|0,0:0|0:0,0:0:0:0:
276,197,98096,6,0,B|338:189|338:189|358:166|358:166|404:191|460:181|485:128,1,225,12|0,0:0|0:0,0:0:0:0:
406,88,98596,69,4,0:3:0:0:
406,88,98929,1,4,0:3:0:0:
152,42,99262,1,8,0:0:0:0:
189,152,99429,1,0,1:0:0:0:
73,128,99596,1,4,0:3:0:0:
105,361,99762,22,0,B|112:262|112:262|93:211,1,135,12|0,0:0|0:0,0:0:0:0:
27,186,100096,6,0,L|189:171,1,135,12|0,0:0|0:0,0:0:0:0:
211,245,100429,102,0,B|310:250|310:250|265:285,1,135,12|0,0:0|0:0,0:0:0:0:
268,281,100762,1,0,1:0:0:0:
365,307,100929,6,0,P|390:243|335:174,1,135,12|0,0:0|0:0,0:0:0:0:
272,153,101262,85,4,0:3:0:0:
272,153,101595,1,4,0:3:0:0:
482,26,101928,1,8,0:0:0:0:
445,136,102095,1,0,1:0:0:0:
366,50,102262,1,4,0:3:0:0:
234,43,102428,6,0,B|326:34|326:34|384:56,1,135,12|0,0:0|0:0,0:0:0:0:
393,9,102762,6,0,B|388:73|388:73|375:103|375:103|372:195,1,180,12|0,0:0|0:0,0:0:0:0:
366,343,103262,85,4,0:3:0:0:
366,343,103595,1,4,0:3:0:0:
76,234,103928,1,8,0:0:0:0:
113,344,104095,1,0,1:0:0:0:
192,258,104262,1,4,0:3:0:0:
340,347,104428,6,0,B|246:369|246:369|187:340,1,135,12|0,0:0|0:0,0:0:0:0:
192,258,104762,6,0,B|195:202|195:202|210:178|210:178|215:95,1,135,12|0,0:0|0:0,0:0:0:0:
159,52,105095,102,0,P|97:43|41:116,1,135,12|0,0:0|0:0,0:0:0:0:
79,165,105428,1,0,1:0:0:0:
250,50,105595,6,0,L|333:57,1,45,12|0,0:0|0:0,0:0:0:0:
347,122,105762,1,0,1:0:0:0:
455,21,105928,6,8,L|460:113,1,72,8|8,3:0|3:0,3:0:0:0:
453,105,106178,1,8,3:0:0:0:
449,117,106262,2,8,L|454:209,1,72,8|8,3:0|3:0,3:0:0:0:
446,333,106595,22,4,P|407:308|358:317,1,72,4|4,0:3|0:3,0:3:0:0:
373,318,106845,1,4,0:3:0:0:
363,328,106928,2,4,P|320:358|275:346,1,72,4|4,0:3|0:3,0:3:0:0:
203,312,107262,5,4,0:3:0:0:
258,233,107428,1,8,0:3:0:0:
256,225,107512,1,8,0:3:0:0:
255,217,107595,1,8,0:3:0:0:
254,209,107678,1,8,0:3:0:0:
253,201,107762,1,8,0:3:0:0:
252,193,107845,1,8,0:3:0:0:
250,164,107928,101,8,1:2:0:0:
276,140,108011,1,8,0:3:0:0:
311,133,108094,1,8,0:3:0:0:
345,144,108177,1,8,0:3:0:0:
364,134,108262,21,4,0:3:0:0:
339,107,108345,1,4,0:3:0:0:
306,96,108428,1,4,0:3:0:0:
177,55,108595,5,4,0:3:0:0:
177,55,108928,1,4,0:3:0:0:
192,258,109261,1,8,0:0:0:0:
76,234,109428,1,0,1:0:0:0:
113,344,109594,1,4,0:3:0:0:
291,124,109761,6,0,B|172:137|172:137|141:177,1,161.999995056153,12|0,0:0|0:0,0:0:0:0:
190,263,110095,6,0,B|211:225|264:220|312:247|304:266|292:288|346:323|393:328|435:281,1,269.999991760254,12|0,0:0|0:0,0:0:0:0:
462,224,110595,69,4,0:3:0:0:
462,224,110928,1,4,0:3:0:0:
383,20,111261,1,8,0:0:0:0:
420,130,111428,1,0,1:0:0:0:
499,44,111595,1,4,0:3:0:0:
304,106,111761,1,4,0:3:0:0:
304,106,112345,1,4,0:3:0:0:
202,98,112761,21,0,0:0:0:0:
202,98,112845,1,0,1:0:0:0:
202,98,112928,2,0,L|137:103,1,45,8|0,0:0|0:0,0:0:0:0:
39,189,113094,1,8,0:0:0:0:
39,189,113178,1,8,0:0:0:0:
39,189,113261,2,0,L|151:198,1,90,8|8,0:0|0:0,0:0:0:0:
262,260,113594,1,8,0:3:0:0:
158,350,113761,1,8,0:3:0:0:
152,333,113844,1,8,0:3:0:0:
151,314,113928,1,8,0:3:0:0:
382,266,114094,1,8,0:3:0:0:
244,138,114261,6,8,P|230:111|226:81,2,60
312,84,114573,2,8,P|314:54|326:26,2,60
397,73,114906,2,8,P|415:49|440:32,2,60
404,161,115261,101,8,0:0:0:0:
326,166,115372,1,8,0:0:0:0:
248,171,115483,1,8,0:0:0:0:
171,201,115594,86,0,B|151:227|151:227|157:321,1,90,4|0,0:3|0:0,0:0:0:0:
47,364,115927,2,0,B|67:338|67:338|61:244,1,90,4|0,0:3|0:0,0:0:0:0:
16,177,116260,6,0,L|153:184,1,135,4|0,0:3|0:0,0:0:0:0:
167,184,116594,1,0,1:0:0:0:
263,52,116760,6,0,B|229:32|188:38|169:60|169:60|171:107,1,135,12|0,0:0|0:0,0:0:0:0:
312,212,117094,2,0,B|346:192|361:154|352:126|352:126|310:104,1,135,12|0,0:0|0:0,0:0:0:0:
248,144,117427,1,0,1:0:0:0:
180,280,117594,102,0,B|216:312|216:312|308:316,1,135,4|0,0:3|0:0,0:0:0:0:
316,292,117927,2,0,L|160:300,1,135,4|0,0:3|0:0,0:0:0:0:
116,344,118260,2,0,P|64:348|12:284,1,135,4|0,0:3|0:0,0:0:0:0:
56,208,118594,1,0,1:0:0:0:
308,192,118760,6,0,B|342:172|357:134|348:106|348:106|306:84,1,135,12|0,0:0|0:0,0:0:0:0:
144,154,119094,2,0,B|144:193|169:225|198:231|198:231|238:206,1,135,12|0,0:0|0:0,0:0:0:0:
259,32,119427,2,0,B|225:12|184:18|165:40|165:40|167:87,1,135,12|0,0:0|0:0,0:0:0:0:
240,128,119760,1,0,1:0:0:0:
61,116,119927,2,0,B|36:152|36:152|59:235,1,90,12|0,0:0|0:0,0:0:0:0:
198,333,120260,6,0,L|152:341,28,36
258,275,122705,6,0,B|364:231|345:351|473:286,1,210,4|0,1:0|0:0,0:0:0:0:
486,208,123260,21,8,0:0:0:0:
488,171,123344,1,8,0:3:0:0:
478,145,123427,1,8,0:3:0:0:
466,131,123510,1,8,0:3:0:0:
451,120,123594,1,8,0:3:0:0:
433,115,123677,1,8,0:3:0:0:
415,115,123760,1,8,0:3:0:0:
397,118,123844,1,8,0:3:0:0:
364,144,123927,5,8,0:0:0:0:
327,146,124011,1,4,0:3:0:0:
301,136,124094,1,4,0:3:0:0:
287,124,124177,1,4,0:3:0:0:
276,109,124260,1,4,0:3:0:0:
271,91,124344,1,4,0:3:0:0:
271,73,124427,1,4,0:3:0:0:
274,55,124511,1,4,0:3:0:0:
292,37,124594,5,4,0:3:0:0:
247,30,124677,1,4,0:3:0:0:
202,25,124760,1,4,0:3:0:0:
67,77,124927,6,0,P|87:72|124:68,1,45,4|0,1:0|0:0,0:0:0:0:
177,131,125093,2,0,P|171:150|156:184,1,45,4|0,1:0|0:0,0:0:0:0:
75,199,125260,2,0,P|60:184|38:154,1,45,4|0,1:0|0:0,0:0:0:0:
49,317,125427,6,0,B|80:358|139:338|139:338|165:306|165:306|260:288,1,198.000006042481,4|0,0:0|1:0,0:0:0:0:
406,331,125927,2,0,P|346:345|297:309,1,99.0000030212403,8|0,0:0|0:0,0:0:0:0:
364,176,126260,1,0,1:0:0:0:
448,204,126427,1,0,1:0:0:0:
297,235,126593,1,8,0:0:0:0:
361,163,126760,1,0,1:0:0:0:
168,216,126927,21,0,1:0:0:0:
160,124,127093,1,0,1:0:0:0:
28,272,127260,1,8,0:0:0:0:
36,180,127426,1,0,1:0:0:0:
136,320,127593,37,2,1:3:0:0:
136,320,127677,1,2,0:3:0:0:
136,320,127760,1,2,1:3:0:0:
36,180,127927,1,8,0:0:0:0:
114,48,128093,6,0,B|143:26|191:33|218:60|218:60|331:67,1,198.000006042481,0|0,1:0|1:0,0:0:0:0:
370,151,128593,2,0,P|309:165|265:138,1,99.0000030212403,8|0,0:0|1:0,0:0:0:0:
74,206,128927,5,0,1:0:0:0:
185,238,129094,1,0,1:0:0:0:
160,124,129261,1,8,0:0:0:0:
110,309,129427,6,0,B|132:348|184:360|228:336|228:336|313:327,1,198.000006042481,0|0,1:0|1:0,0:0:0:0:
480,331,129927,2,0,P|438:298|364:314,1,99.0000030212403,8|0,0:0|1:0,0:0:0:0:
262,195,130260,5,0,1:0:0:0:
360,204,130427,1,0,1:0:0:0:
185,238,130593,1,8,0:0:0:0:
262,184,130760,1,0,1:0:0:0:
32,142,130927,5,0,1:0:0:0:
46,229,131093,1,0,1:0:0:0:
200,45,131260,1,8,0:0:0:0:
186,132,131426,1,0,1:0:0:0:
423,74,131594,21,0,1:0:0:0:
337,63,131760,1,0,1:0:0:0:
203,132,131927,1,8,0:0:0:0:
189,45,132093,1,0,1:0:0:0:
306,216,132260,5,0,1:0:0:0:
396,197,132427,1,0,1:0:0:0:
469,272,132593,1,8,0:0:0:0:
441,359,132760,1,0,1:0:0:0:
318,345,132927,69,2,1:3:0:0:
318,345,133010,1,2,0:3:0:0:
318,345,133093,1,2,1:3:0:0:
396,197,133260,1,8,0:0:0:0:
223,285,133427,54,0,B|165:280|165:280|131:299|131:299|70:305|30:242,1,198.000006042481,0|0,1:0|1:0,0:0:0:0:
213,176,133927,2,0,L|313:175,1,99.0000030212403,8|0,0:0|1:0,0:0:0:0:
44,65,134260,5,0,1:0:0:0:
88,179,134427,1,0,1:0:0:0:
165,84,134593,1,8,0:0:0:0:
362,41,134760,6,0,B|371:98|371:98|408:128|420:187|388:235,1,198.000006042481,0|0,1:0|1:0,0:0:0:0:
319,376,135260,2,0,P|307:332|338:273,1,99.0000030212403,8|0,0:0|1:0,0:0:0:0:
410,341,135593,5,0,1:0:0:0:
311,175,135760,1,0,1:0:0:0:
216,343,135927,1,8,0:0:0:0:
177,321,136010,1,8,0:0:0:0:
132,317,136093,1,8,0:0:0:0:
87,313,136177,1,8,0:0:0:0:
39,307,136260,6,0,B|15:260|15:260|31:192,1,107.999996704102,4|0,0:0|1:0,0:0:0:0:
239,148,136593,2,0,B|263:195|263:195|247:263,1,107.999996704102,8|0,0:0|1:0,0:0:0:0:
21,89,136927,21,0,1:0:0:0:
144,208,137093,1,0,1:0:0:0:
187,42,137260,1,8,0:0:0:0:
21,89,137427,1,0,1:0:0:0:
239,148,137593,6,0,L|383:140,1,107.999996704102,0|0,1:0|1:0,1:0:0:0:
491,274,137927,1,8,0:0:0:0:
328,258,138093,1,0,1:0:0:0:
482,108,138260,1,2,1:3:0:0:
482,108,138343,1,2,0:3:0:0:
482,108,138427,1,2,1:3:0:0:
404,337,138593,1,8,0:0:0:0:
190,279,138760,6,0,B|141:229|56:253|41:303|41:303|64:377,1,215.999993408203,4|0,1:0|1:0,0:0:0:0:
254,358,139260,2,0,P|288:287|260:226,1,107.999996704102,8|0,0:0|1:0,0:0:0:0:
108,158,139593,1,0,1:0:0:0:
312,123,139760,2,0,L|453:134,1,107.999996704102,0|8,1:0|0:0,0:0:0:0:
170,16,140093,6,0,B|182:87|182:87|210:115|210:115|233:179|188:228,1,215.999993408203,0|0,1:0|1:0,0:0:0:0:
0,168,140593,2,0,L|136:155,1,107.999996704102,8|0,0:0|1:0,0:0:0:0:
300,276,140927,5,0,1:0:0:0:
329,141,141093,1,0,1:0:0:0:
398,367,141260,1,8,0:0:0:0:
288,280,141427,1,0,1:0:0:0:
432,184,141593,22,0,B|464:232|464:232|449:317,1,107.999996704102,4|0,1:2|1:0,0:0:0:0:
191,323,141927,2,0,B|170:268|170:268|204:189,1,107.999996704102,8|0,0:0|1:0,0:0:0:0:
397,70,142260,21,0,1:0:0:0:
219,45,142427,1,0,1:0:0:0:
324,256,142593,1,8,0:0:0:0:
301,106,142760,1,0,1:0:0:0:
80,184,142927,6,0,L|64:312,1,107.999996704102,0|0,1:0|1:0,0:0:0:0:
308,348,143260,1,8,0:0:0:0:
232,220,143427,1,0,1:0:0:0:
158,354,143593,1,2,1:3:0:0:
158,354,143677,1,2,0:3:0:0:
158,354,143760,1,2,1:3:0:0:
375,220,143927,1,8,0:0:0:0:
174,70,144093,6,0,B|225:58|254:103|254:103|227:160|227:160|234:256,1,215.999993408203,0|0,1:0|1:0,0:0:0:0:
55,363,144593,2,0,P|44:324|92:250,1,107.999996704102,8|0,0:0|1:0,0:0:0:0:
323,178,144927,1,0,1:0:0:0:
132,156,145093,2,0,L|-10:146,1,107.999996704102,0|8,1:0|0:0,0:0:0:0:
170,328,145427,6,0,B|204:361|256:361|296:322|296:322|389:325,1,215.999993408203,0|0,1:0|1:0,0:0:0:0:
452,67,145927,5,8,0:0:0:0:
412,38,146010,1,8,0:0:0:0:
363,34,146093,1,8,0:0:0:0:
320,58,146177,1,8,0:0:0:0:
303,85,146260,101,8,0:3:0:0:
333,75,146343,1,8,0:3:0:0:
365,78,146427,1,8,0:3:0:0:
390,97,146510,1,8,0:3:0:0:
389,119,146593,5,4,0:3:0:0:
384,137,146677,1,4,0:3:0:0:
379,155,146760,1,4,0:3:0:0:
375,173,146843,1,4,0:3:0:0:
365,206,146927,22,0,L|259:200,1,90,4|0,0:0|1:0,0:0:0:0:
74,313,147260,1,8,0:0:0:0:
182,342,147427,2,0,B|197:301|187:274|187:274|155:235|155:235|162:142,1,180,0|0,1:0|1:0,0:0:0:0:
256,104,147927,1,8,0:0:0:0:
77,11,148093,22,0,P|62:52|67:97,1,90,0|0,1:0|1:0,0:0:0:0:
159,173,148427,1,0,1:0:0:0:
256,104,148593,2,0,L|352:96,1,90,8|0,0:0|0:0,0:0:0:0:
475,204,148927,1,0,1:0:0:0:
338,196,149093,1,0,1:0:0:0:
472,328,149260,1,8,0:0:0:0:
238,365,149427,6,0,B|228:344|229:323|229:323|343:306,1,135,0|0,1:0|0:0,0:0:0:0:
377,360,149760,1,0,1:0:0:0:
202,229,149927,2,0,L|71:219,1,90,8|0,0:0|1:0,0:0:0:0:
31,352,150260,2,0,P|107:342|130:307,1,90,0|0,1:0|1:0,0:0:0:0:
155,96,150593,1,8,0:0:0:0:
20,160,150760,1,0,1:0:0:0:
203,228,150927,6,0,B|225:201|256:195|289:204|289:204|317:226|317:226|399:220,1,180,0|8,1:0|0:0,0:0:0:0:
468,254,151427,1,0,1:0:0:0:
316,344,151593,1,0,1:0:0:0:
364,116,151760,1,0,1:0:0:0:
324,352,151927,1,8,0:0:0:0:
372,124,152094,1,0,1:0:0:0:
116,332,152260,54,0,B|140:376|196:376|220:336|220:336|187:305|196:264|196:264|220:236|216:184,1,270,4|0,0:0|1:0,0:0:0:0:
180,59,152927,1,0,1:0:0:0:
100,116,153093,2,0,P|106:179|142:212,1,90,0|8,1:0|0:0,0:0:0:0:
408,196,153427,21,0,1:0:0:0:
328,128,153593,2,0,L|216:132,1,90,0|0,1:0|1:0,0:0:0:0:
408,196,153927,2,0,B|436:176|432:140|432:140|420:104|420:104|416:12,1,180,8|0,0:0|1:0,0:0:0:0:
320,216,154427,1,0,1:0:0:0:
476,300,154593,1,8,0:0:0:0:
308,368,154760,6,0,B|256:380|216:340|216:340|100:336,1,180,0|0,1:0|1:0,0:0:0:0:
0,248,155260,2,0,P|40:228|112:240,1,90,8|0,0:0|1:0,0:0:0:0:
136,336,155593,1,0,1:0:0:0:
220,204,155760,2,0,L|228:112,1,90,0|8,1:0|0:0,0:0:0:0:
7,79,156093,6,0,B|19:131|75:147|123:127|123:127|151:67,1,180,0|0,1:0|1:0,0:0:0:0:
284,40,156593,2,0,P|312:80|312:128,1,90,8|0,0:0|1:0,0:0:0:0:
220,204,156927,1,0,1:0:0:0:
332,356,157093,1,0,1:0:0:0:
421,319,157260,1,8,0:0:0:0:
395,282,157343,1,8,0:0:0:0:
356,261,157426,1,8,0:0:0:0:
312,261,157510,1,8,0:0:0:0:
265,295,157593,6,0,L|157:304,1,99.0000030212403,0|0,1:0|1:0,0:0:0:0:
24,208,157927,1,8,0:0:0:0:
24,208,158093,1,0,1:0:0:0:
172,58,158260,1,0,1:0:0:0:
68,36,158427,1,0,1:0:0:0:
246,175,158593,1,8,0:0:0:0:
146,190,158760,1,0,1:0:0:0:
288,28,158927,5,0,1:0:0:0:
288,28,159093,1,0,1:0:0:0:
378,204,159260,1,8,0:0:0:0:
258,172,159427,1,0,1:0:0:0:
466,116,159593,1,0,1:0:0:0:
370,348,159760,1,0,1:0:0:0:
370,188,159927,1,8,0:0:0:0:
172,340,160093,22,0,B|200:378|245:384|275:351|275:351|276:305,1,148.50000453186,0|0,1:0|0:0,0:0:0:0:
237,244,160427,1,0,1:0:0:0:
368,348,160593,2,0,L|473:336,1,99.0000030212403,8|0,0:0|1:0,0:0:0:0:
242,160,160927,2,0,P|184:173|160:211,1,99.0000030212403,0|0,1:0|1:0,0:0:0:0:
73,354,161260,1,8,0:0:0:0:
38,230,161427,1,0,1:0:0:0:
237,244,161593,22,0,B|298:235|298:235|338:260|338:260|393:275|433:226,1,198.000006042481,0|8,1:0|0:0,0:0:0:0:
439,162,162093,1,0,1:0:0:0:
275,332,162260,1,0,1:0:0:0:
311,88,162427,1,0,1:0:0:0:
284,340,162593,1,8,0:0:0:0:
320,96,162760,1,0,1:0:0:0:
104,174,162927,6,0,B|82:214|103:259|146:273|146:273|192:236|192:236|311:224,1,297.000009063721,0|0,1:0|1:0,0:0:0:0:
163,105,163593,1,0,1:0:0:0:
51,99,163760,1,0,1:0:0:0:
4,193,163927,2,0,P|0:244|36:296,1,99.0000030212403,8|0,0:0|1:0,0:0:0:0:
182,352,164260,6,0,B|223:317|223:317|374:304,1,198.000006042481,0|8,1:0|0:0,0:0:0:0:
450,354,164760,1,0,1:0:0:0:
507,203,164927,2,0,B|495:138|409:104|360:141|360:141|391:158|398:198,1,247.500007553101,0|0,1:0|0:0,0:0:0:0:
318,212,165427,6,0,P|250:232|216:161,1,148.50000453186,0|0,1:0|0:0,0:0:0:0:
214,176,165760,6,0,B|143:183|143:183|108:167|108:167|11:179,1,198.000006042481,0|0,1:0|0:0,0:0:0:0:
108,383,166260,1,0,1:0:0:0:
195,296,166427,1,0,1:0:0:0:
76,264,166594,1,8,0:0:0:0:
298,368,166760,6,0,B|324:346|322:306|288:282|288:282|238:302|238:302|186:295,1,198.000006042481,0|0,1:0|1:0,0:0:0:0:
396,292,167260,2,0,L|501:278,1,99.0000030212403,8|0,0:0|1:0,0:0:0:0:
306,48,167593,1,8,0:0:0:0:
345,206,167760,1,0,1:0:0:0:
112,161,167927,1,8,0:0:0:0:
259,138,168093,1,0,1:0:0:0:
66,277,168260,6,0,L|69:311,1,26.9999991760254,8|0,1:0|0:0,0:0:0:0:
203,233,168593,2,0,L|200:267,1,26.9999991760254,8|0,1:0|0:0,0:0:0:0:
50,244,168927,22,0,L|53:278,1,26.9999991760254,8|0,1:0|0:0,0:0:0:0:
220,195,169260,2,0,L|217:229,1,26.9999991760254,8|0,1:0|0:0,0:0:0:0:
169,34,169760,6,0,L|135:23,1,26.9999991760254,8|0,1:0|0:0,0:0:0:0:
334,68,170093,2,0,L|368:72,1,26.9999991760254,8|0,1:0|0:0,0:0:0:0:
153,109,170427,70,0,L|118:104,1,26.9999991760254,8|0,1:0|0:0,0:0:0:0:
319,143,170760,2,0,L|352:153,1,26.9999991760254,8|0,1:0|0:0,0:0:0:0:
293,325,171260,22,0,L|282:294,1,26.9999991760254,8|0,1:0|0:0,0:0:0:0:
415,299,171593,2,0,L|412:266,1,26.9999991760254,8|0,1:0|0:0,0:0:0:0:
270,344,171927,6,0,L|259:313,1,26.9999991760254,8|0,1:0|0:0,0:0:0:0:
444,308,172260,2,0,L|441:275,1,26.9999991760254,8|0,1:0|0:0,0:0:0:0:
56,299,172760,70,0,L|21:294,1,26.9999991760254,8|0,1:0|0:0,0:0:0:0:
237,258,173093,2,0,L|271:262,1,26.9999991760254,8|0,1:0|0:0,0:0:0:0:
72,224,173427,22,0,L|38:213,1,26.9999991760254,8|0,1:0|0:0,0:0:0:0:
222,333,173760,2,0,L|255:343,1,26.9999991760254,8|0,1:0|0:0,0:0:0:0:
184,104,174260,6,0,L|190:72,1,26.9999991760254,8|0,1:0|0:0,0:0:0:0:
147,271,174594,2,0,L|139:306,1,26.9999991760254,8|0,1:0|0:0,0:0:0:0:
97,126,174927,70,0,L|96:89,1,26.9999991760254,8|0,1:0|0:0,0:0:0:0:
253,159,175260,2,0,L|268:125,1,26.9999991760254,8|0,1:0|0:0,0:0:0:0:
396,336,175760,22,0,L|410:360,1,26.9999991760254,8|0,1:0|0:0,0:0:0:0:
395,233,176093,2,0,L|412:201,1,26.9999991760254,8|0,1:0|0:0,0:0:0:0:
307,285,176426,2,0,L|279:285,1,26.9999991760254,8|0,1:0|0:0,0:0:0:0:
72,60,176926,1,8,0:0:0:0:
100,56,177010,1,8,0:0:0:0:
128,52,177093,1,4,0:3:0:0:
156,48,177176,1,4,0:3:0:0:
182,44,177260,5,0,1:0:0:0:
182,58,177343,1,0,1:0:0:0:
182,74,177426,1,0,1:0:0:0:
328,148,177593,1,0,1:0:0:0:
316,155,177677,1,0,1:0:0:0:
303,162,177760,1,0,1:0:0:0:
269,76,177927,1,0,1:0:0:0:
262,88,178010,1,0,1:0:0:0:
255,101,178093,1,0,1:0:0:0:
75,235,178260,69,8,1:0:0:0:
78,247,178343,1,0,1:0:0:0:
81,262,178426,1,0,1:0:0:0:
192,330,178593,1,0,1:0:0:0:
181,321,178676,1,0,1:0:0:0:
169,310,178759,1,0,1:0:0:0:
18,374,178926,1,0,1:0:0:0:
20,361,179010,1,0,1:0:0:0:
23,346,179093,1,0,1:0:0:0:
111,376,179260,1,0,1:0:0:0:
106,363,179343,1,0,1:0:0:0:
101,349,179426,1,0,1:0:0:0:
400,324,179593,21,8,1:0:0:0:
388,320,179676,1,0,1:0:0:0:
373,317,179759,1,0,1:0:0:0:
309,203,179926,1,0,1:0:0:0:
318,214,180009,1,0,1:0:0:0:
328,227,180092,1,0,1:0:0:0:
259,376,180259,1,0,1:0:0:0:
272,374,180343,1,0,1:0:0:0:
287,372,180426,1,0,1:0:0:0:
260,283,180593,1,0,1:0:0:0:
273,288,180676,1,0,1:0:0:0:
286,294,180759,1,0,1:0:0:0:
128,156,180926,5,8,1:0:0:0:
125,142,181009,1,0,1:0:0:0:
122,129,181092,1,0,1:0:0:0:
10,61,181259,1,0,1:0:0:0:
21,70,181342,1,0,1:0:0:0:
33,81,181425,1,0,1:0:0:0:
184,16,181592,1,0,1:0:0:0:
182,30,181676,1,0,1:0:0:0:
179,45,181759,1,0,1:0:0:0:
91,15,181926,1,0,1:0:0:0:
96,28,182009,1,0,1:0:0:0:
102,42,182092,1,0,1:0:0:0:
316,212,182260,69,8,1:0:0:0:
322,198,182343,1,0,1:0:0:0:
327,185,182426,1,0,1:0:0:0:
288,72,182593,22,0,L|316:108,2,31.4999990386963,2|2|2,0:3|0:3|0:3,0:3:0:0:
424,120,182926,2,0,L|378:126,2,31.4999990386963,2|2|2,0:3|0:3|0:3,0:3:0:0:
317,242,183260,5,0,1:0:0:0:
317,226,183343,1,0,1:0:0:0:
316,212,183426,1,0,1:0:0:0:
426,326,183593,1,0,1:0:0:0:
410,334,183676,1,0,1:0:0:0:
394,338,183760,1,0,1:0:0:0:
378,337,183843,1,0,1:0:0:0:
362,332,183926,6,0,L|280:343,1,62.9999980773926
76,277,184260,1,0,0:0:0:0:
99,362,184426,1,0,0:0:0:0:
244,260,184593,1,0,0:0:0:0:
244,260,184760,1,2,0:0:0:0:
99,362,184926,6,0,B|70:368|70:368|13:344,1,62.9999980773926,0|2,0:0|0:0,0:0:0:0:
162,196,185260,1,8,0:0:0:0:
162,293,185426,1,8,0:0:0:0:
169,306,185510,1,8,0:0:0:0:
176,319,185593,1,8,0:0:0:0:
75,275,185760,1,8,0:3:0:0:
244,260,185926,2,0,B|280:258|280:258|298:267|298:267|321:263|321:263|351:262,1,94.499997116089,4|0,0:3|0:0,0:0:0:0:
412,254,186260,1,8,0:0:0:0:
162,196,186426,38,0,P|146:155|168:102,1,90,4|0,0:1|0:0,0:0:0:0:
237,65,186926,1,0,3:3:0:0:
237,65,187093,1,0,3:3:0:0:
106,42,187260,2,0,L|57:45,1,45
236,66,187593,1,0,3:0:0:0:
303,187,187760,22,0,B|327:164|327:164|392:156,1,90
468,178,188260,1,0,3:0:0:0:
468,178,188426,1,0,3:0:0:0:
412,74,188593,2,0,L|352:69,1,45
468,178,188926,1,0,3:0:0:0:
271,268,189093,6,0,L|279:367,1,90
360,382,189593,1,0,3:0:0:0:
360,382,189760,1,0,3:0:0:0:
423,326,189926,2,0,L|489:327,1,45
360,382,190260,1,0,3:0:0:0:
198,314,190426,70,0,L|102:317,1,90
38,280,190926,2,0,P|26:313|30:338,1,45,0|0,3:0|3:0,0:0:0:0:
71,198,191260,2,0,L|61:136,1,45,2|0,0:3|1:0,0:0:0:0:
61,139,191510,1,0,1:0:0:0:
58,125,191593,1,0,1:0:0:0:
139,68,191759,1,0,0:0:0:0:
444,312,191926,54,0,P|394:349|320:310,1,116.999994644165,4|0,0:0|1:0,0:0:0:0:
263,67,192259,1,8,0:0:0:0:
234,211,192426,1,0,1:0:0:0:
459,157,192593,1,0,1:0:0:0:
325,139,192759,1,0,1:0:0:0:
377,265,192926,1,8,0:0:0:0:
69,324,193093,6,0,B|25:289|23:209|73:174|73:174|112:173|162:201,1,233.999989288331,0|0,1:0|1:0,0:0:0:0:
343,338,193593,1,8,0:0:0:0:
198,316,193759,1,0,1:0:0:0:
420,198,193926,1,0,1:0:0:0:
275,220,194092,1,0,1:0:0:0:
330,82,194259,1,8,0:0:0:0:
445,294,194426,6,0,B|478:316|518:312|532:280|532:280|514:237|514:237|512:128,1,233.999989288331,0|0,1:0|1:0,0:0:0:0:
330,82,194926,1,8,0:0:0:0:
275,220,195093,1,0,1:0:0:0:
52,44,195259,1,0,1:0:0:0:
74,190,195426,1,0,1:0:0:0:
190,98,195593,1,8,0:0:0:0:
184,344,195759,6,0,B|202:318|196:270|164:260|164:260|120:288|120:288|11:293,1,233.999989288331,0|0,1:0|1:0,0:0:0:0:
275,220,196259,1,8,0:0:0:0:
74,190,196426,1,0,1:0:0:0:
200,96,196593,1,0,1:0:0:0:
288,328,196759,101,0,1:0:0:0:
480,280,196926,1,8,0:0:0:0:
288,328,197093,1,0,1:0:0:0:
336,88,197259,86,0,B|384:48|476:80|480:144|480:144|432:160|424:220,1,233.999989288331,0|8,1:0|0:0,0:0:0:0:
400,360,197759,1,0,1:0:0:0:
168,200,197926,1,0,1:0:0:0:
320,224,198093,1,0,1:0:0:0:
223,343,198259,1,8,0:0:0:0:
48,108,198426,6,0,B|56:156|56:156|48:184|48:184|64:264|64:264|56:296|56:296|72:384,1,233.999989288331,0|0,1:0|1:0,0:0:0:0:
168,200,198926,2,0,P|184:152|136:84,1,116.999994644165,8|0,0:0|1:0,0:0:0:0:
20,24,199259,2,0,L|96:28,1,58.4999973220826,0|0,1:0|0:0,0:0:0:0:
256,64,199426,2,0,B|204:32|204:32|318:35,1,175.499991966248,0|0,1:0|0:0,0:0:0:0:
489,114,199759,6,0,B|457:151|397:138|377:102|377:102|406:80|409:30,1,175.499991966248,0|0,1:2|0:0,0:0:0:0:
406,39,200093,1,0,1:0:0:0:
297,150,200259,2,0,B|324:179|324:179|332:269,1,116.999994644165,8|0,0:0|1:0,0:0:0:0:
409,314,200593,1,0,1:0:0:0:
272,336,200759,1,0,1:0:0:0:
409,314,200926,1,8,0:0:0:0:
105,309,201093,6,0,B|72:257|72:257|132:250|132:250|145:244|145:244|217:237|217:237|198:264,1,233.999989288331,0|0,1:0|1:0,0:0:0:0:
158,364,201593,2,0,L|22:354,1,116.999994644165,8|0,0:0|1:0,0:0:0:0:
94,149,201926,1,0,1:0:0:0:
62,47,202093,1,0,1:0:0:0:
334,57,202259,101,8,0:0:0:0:
296,17,202343,1,8,0:0:0:0:
244,7,202426,1,8,0:0:0:0:
195,28,202509,1,8,0:0:0:0:
171,75,202593,86,0,B|230:81|230:81|247:99|247:99|337:111|337:111|352:108|352:108|413:115,1,233.999989288331,4|8,0:0|0:0,0:0:0:0:
390,315,203093,1,0,1:0:0:0:
390,315,203259,2,0,P|353:278|376:184,1,116.999994644165,0|0,1:0|1:0,0:0:0:0:
482,64,203593,2,0,B|499:101|499:101|481:205,1,116.999994644165,8|0,0:0|1:0,0:0:0:0:
280,359,203926,6,0,B|271:316|231:308|231:308|206:333|169:327|169:327|118:332,1,175.499991966248,0|0,1:0|0:0,0:0:0:0:
111,333,204259,1,8,0:0:0:0:
50,167,204426,6,0,B|92:116|178:129|200:186|200:186|169:261,1,233.999989288331,0|0,1:0|1:0,0:0:0:0:
43,384,204926,2,0,P|25:351|55:295,1,58.4999973220826,8|0,0:0|0:0,0:0:0:0:
179,235,205093,6,0,B|212:272|300:258|260:216|305:198|384:220|396:260|391:300,1,233.999989288331,0|0,1:0|1:0,0:0:0:0:
474,254,205593,2,0,P|471:310|428:349,1,116.999994644165,8|0,0:0|1:0,0:0:0:0:
314,315,205926,1,0,1:0:0:0:
430,175,206093,2,0,L|436:50,1,116.999994644165,0|8,1:0|0:0,0:0:0:0:
184,119,206426,70,0,B|213:179|309:183|337:130|337:130|333:64,1,233.999989288331,0|0,1:0|1:0,0:0:0:0:
117,48,206926,2,0,P|89:97|104:161,1,116.999994644165,8|0,0:0|1:0,0:0:0:0:
223,270,207259,5,0,1:0:0:0:
35,242,207426,1,0,1:0:0:0:
229,288,207593,1,8,0:0:0:0:
27,262,207760,1,0,1:0:0:0:
222,383,207926,6,0,B|266:378|266:378|290:363|290:363|340:355,1,116.999994644165,4|0,0:0|1:0,0:0:0:0:
466,278,208259,1,8,0:0:0:0:
254,216,208426,1,2,1:2:0:0:
254,216,208509,1,2,0:2:0:0:
254,216,208593,2,0,P|317:258|378:230,1,116.999994644165,2|0,1:2|1:0,0:0:0:0:
494,140,208926,2,0,L|368:150,1,116.999994644165,8|0,0:0|1:0,0:0:0:0:
146,60,209259,6,0,L|141:184,1,116.999994644165,0|0,1:0|1:0,0:0:0:0:
60,368,209593,1,8,0:0:0:0:
26,252,209759,1,0,1:0:0:0:
265,185,209926,1,0,1:0:0:0:
242,359,210093,1,0,1:0:0:0:
29,255,210259,1,8,0:0:0:0:
300,282,210426,70,0,B|369:286|369:286|410:322|410:322|441:333|509:325|529:257,1,233.999989288331,0|0,1:0|1:0,0:0:0:0:
433,102,210926,2,0,L|298:118,1,116.999994644165,8|0,0:0|1:0,0:0:0:0:
194,355,211259,1,0,1:0:0:0:
39,201,211426,2,0,P|89:196|162:264,1,116.999994644165,0|8,1:0|0:0,0:0:0:0:
376,206,211759,6,0,B|268:195|268:195|227:174|206:122|242:63,1,233.999989288331,0|0,1:0|1:0,0:0:0:0:
144,229,212259,2,0,L|155:384,1,116.999994644165,8|0,0:0|1:0,0:0:0:0:
103,85,212593,5,8,0:0:0:0:
270,299,212759,1,0,1:0:0:0:
258,18,212926,5,8,0:0:0:0:
144,229,213093,1,0,1:0:0:0:
420,90,213259,101,4,0:0:0:0:
59,337,213632,21,2,0:3:0:0:
59,337,213965,1,2,0:3:0:0:
59,337,214298,1,2,0:3:0:0:
59,337,214632,1,2,0:3:0:0:
59,337,214965,1,2,0:3:0:0:
59,337,215298,1,2,0:3:0:0:
59,337,215632,1,2,0:3:0:0:
59,337,215965,1,2,0:3:0:0:
59,337,216298,1,2,0:3:0:0:
59,337,216632,1,2,0:3:0:0:
59,337,216965,1,2,0:3:0:0:
130,226,217259,102,0,L|123:302,1,45,0|0,1:0|0:0,0:0:0:0:
59,337,217621,5,2,0:3:0:0:
59,337,217952,1,2,0:3:0:0:
59,337,218283,1,2,0:3:0:0:
59,337,218615,1,2,0:3:0:0:
130,226,218926,102,0,L|123:302,1,45,0|0,1:0|0:0,0:0:0:0:
59,337,219258,5,2,0:3:0:0:
59,337,219591,1,2,0:3:0:0:
209,344,219926,53,0,1:0:0:0:
209,344,220093,1,0,1:0:0:0:
301,328,220426,1,0,1:0:0:0:
301,328,220593,1,0,1:0:0:0:
301,328,220759,1,0,1:0:0:0:
393,312,221093,1,0,1:0:0:0:
346,135,221259,53,4,0:3:0:0:
332,212,221426,1,4,1:3:0:0:
333,116,221593,37,4,1:3:0:0:
345,225,221759,1,4,1:3:0:0:
263,148,221926,101,4,1:3:0:0:
416,183,222093,1,4,1:3:0:0:
243,174,222259,21,4,1:3:0:0:
434,158,222426,1,4,1:3:0:0:
263,52,222593,5,4,1:3:0:0:
300,249,222759,1,4,1:3:0:0:
114,368,222926,5,4,1:3:0:0:
177,177,223093,1,4,1:3:0:0:
287,367,223259,5,4,1:3:0:0:
45,301,223426,1,4,1:3:0:0:
175,79,223593,101,4,1:3:0:0:
202,335,223759,1,4,1:3:0:0:
450,310,223926,6,0,P|429:281|389:263,1,58.4999973220826,4|0,0:0|0:0,0:0:0:0:
205,253,224093,2,0,P|235:236|279:237,1,58.4999973220826,0|0,1:0|0:0,0:0:0:0:
511,203,224259,86,0,P|479:188|435:193,1,58.4999973220826,8|0,0:0|0:0,0:0:0:0:
197,130,224426,2,0,P|231:130|269:154,1,58.4999973220826,0|0,1:0|0:0,0:0:0:0:
511,80,224593,6,0,P|476:82|440:108,1,58.4999973220826,0|0,1:0|0:0,0:0:0:0:
251,20,224760,2,0,P|280:37|301:76,1,58.4999973220826,0|0,1:0|0:0,0:0:0:0:
316,329,224926,6,0,L|333:250,1,58.4999973220826,8|0,0:0|0:0,0:0:0:0:
383,39,225093,2,0,L|364:115,1,58.4999973220826,0|0,1:0|0:0,0:0:0:0:
130,205,225259,70,0,B|97:155|97:155|116:61,1,116.999994644165,0|0,1:0|1:0,0:0:0:0:
133,20,225509,1,0,0:0:0:0:
133,20,225593,1,8,0:0:0:0:
205,253,225759,2,0,P|141:295|46:226,1,175.499991966248,0|0,1:0|0:0,0:0:0:0:
194,135,226093,1,0,1:0:0:0:
266,351,226259,1,8,0:0:0:0:
435,201,226426,1,8,1:0:0:0:
435,201,226509,1,8,0:0:0:0:
435,201,226592,6,0,B|376:198|376:198|345:217|345:217|293:223|255:177,1,175.499991966248,0|0,1:0|0:0,0:0:0:0:
194,135,226926,2,0,P|143:108|86:124,1,116.999994644165,8|0,0:0|1:0,0:0:0:0:
219,376,227259,5,0,1:0:0:0:
281,102,227426,1,0,1:0:0:0:
13,183,227593,1,8,0:0:0:0:
219,376,227759,1,0,1:0:0:0:
134,189,227926,6,0,L|122:339,1,116.999994644165,0|0,1:0|1:0,0:0:0:0:
119,380,228176,1,0,1:0:0:0:
119,380,228259,1,8,0:0:0:0:
392,350,228426,2,0,B|405:329|409:312|409:312|390:266|328:248|285:289,1,175.499991966248,0|0,1:0|0:0,0:0:0:0:
222,330,228759,2,0,B|193:283|213:235|213:235|235:218|240:199|240:199|225:157|225:157|231:101,1,233.999989288331,0|0,1:0|1:0,0:0:0:0:
495,46,229259,69,0,1:0:0:0:
457,222,229426,1,0,1:0:0:0:
327,25,229593,1,8,0:0:0:0:
136,173,229759,6,0,B|78:207|4:138|31:74|31:74|115:59,1,233.999989288331,0|0,1:0|1:0,0:0:0:0:
352,104,230259,1,8,0:0:0:0:
198,86,230426,1,0,1:0:0:0:
420,12,230593,5,0,1:0:0:0:
373,224,230759,1,0,1:0:0:0:
268,22,230926,1,8,0:0:0:0:
432,2,231093,1,0,1:0:0:0:
264,192,231259,6,0,B|256:248|256:248|264:288|264:288|248:376,1,175.499991966248,0|0,1:0|0:0,0:0:0:0:
224,364,231593,69,8,0:0:0:0:
408,332,231760,1,0,1:0:0:0:
160,188,231926,5,0,1:0:0:0:
360,232,232093,1,0,1:0:0:0:
136,312,232259,1,8,0:0:0:0:
232,112,232426,5,0,1:0:0:0:
250,364,232593,1,0,1:0:0:0:
488,204,232759,2,0,B|484:144|396:112|348:156|348:156|340:224,1,233.999989288331,0|0,1:0|1:0,0:0:0:0:
248,356,233259,6,0,B|243:288|243:288|227:259|227:259|216:141,1,175.499991966248,0|0,1:0|0:0,0:0:0:0:
284,12,233593,2,0,L|218:19,1,58.4999973220826,8|0,0:0|0:0,0:0:0:0:
91,86,233759,2,0,L|157:93,1,58.4999973220826,0|0,1:0|0:0,0:0:0:0:
357,84,233926,2,0,B|238:99|238:99|316:145,1,175.499991966248,0|0,1:0|0:0,0:0:0:0:
340,204,234259,5,8,0:0:0:0:
126,185,234426,1,0,1:0:0:0:
104,381,234593,53,12,0:0:0:0:
35,103,234759,1,0,1:0:0:0:
140,196,234926,1,10,0:0:0:0:
4,240,235093,1,0,1:0:0:0:
272,324,235259,5,10,0:0:0:0:
16,256,235426,1,0,1:0:0:0:
156,192,235593,1,10,0:0:0:0:
142,345,235759,1,0,1:0:0:0:
476,232,235926,5,10,0:0:0:0:
236,283,236093,1,0,1:0:0:0:
247,297,236176,1,0,1:0:0:0:
258,310,236259,1,10,0:0:0:0:
392,348,236426,1,0,1:0:0:0:
415,95,236593,1,10,0:0:0:0:
407,365,236759,1,0,1:0:0:0:
236,283,236926,1,10,0:0:0:0:
493,216,237093,1,0,1:0:0:0:
283,29,237259,5,10,0:0:0:0:
341,279,237426,1,0,1:0:0:0:
446,51,237593,1,10,0:0:0:0:
192,156,237759,1,0,1:0:0:0:
197,173,237843,1,0,1:0:0:0:
202,189,237926,1,10,0:0:0:0:
329,132,238093,1,0,1:0:0:0:
101,75,238259,1,10,0:0:0:0:
338,116,238426,1,0,1:0:0:0:
11,212,238593,101,10,0:0:0:0:
237,321,238759,1,0,1:0:0:0:
234,339,238843,1,0,1:0:0:0:
231,356,238926,1,10,0:0:0:0:
428,48,239092,1,0,1:0:0:0:
431,66,239175,1,0,1:0:0:0:
434,83,239259,1,10,0:0:0:0:
164,192,239426,5,0,1:0:0:0:
444,232,239593,1,10,0:0:0:0:
280,108,239759,1,0,1:0:0:0:
259,346,239926,6,0,B|304:362|304:362|355:346,1,90,4|0,0:0|1:0,0:0:0:0:
507,161,240259,1,8,0:0:0:0:
438,241,240426,2,0,L|449:340,1,90,0|0,1:0|1:0,0:0:0:0:
402,136,240759,1,0,1:0:0:0:
304,271,240926,2,0,L|309:175,1,90,8|0,0:0|1:0,0:0:0:0:
146,70,241259,21,0,1:0:0:0:
225,56,241426,1,0,1:0:0:0:
291,103,241593,1,8,0:0:0:0:
308,181,241759,1,0,1:0:0:0:
142,268,241926,2,0,L|147:365,1,90,0|0,1:0|1:0,0:0:0:0:
97,139,242259,1,8,0:0:0:0:
47,227,242426,6,0,B|111:238|111:238|148:226|148:226|233:245,1,180,0|0,1:0|1:0,0:0:0:0:
304,294,242926,2,0,P|357:292|386:258,1,90,8|0,0:0|0:0,0:0:0:0:
294,13,243259,5,0,1:0:0:0:
245,74,243426,1,0,1:0:0:0:
262,149,243593,1,8,0:0:0:0:
325,198,243759,6,0,B|465:182|465:182|429:243,1,180,0|0,1:0|1:0,0:0:0:0:
382,269,244259,2,0,P|380:319|409:357,1,90,8|0,0:0|0:0,0:0:0:0:
463,293,244593,1,0,1:0:0:0:
306,374,244759,1,0,0:0:0:0:
257,243,244926,5,8,0:0:0:0:
216,240,245009,1,8,0:0:0:0:
175,235,245093,1,8,0:0:0:0:
134,233,245176,1,8,0:0:0:0:
93,229,245259,22,0,B|83:271|83:271|110:320,1,80.9999975280763,0|0,1:0|0:0,0:0:0:0:
209,134,245593,2,0,B|219:176|219:176|192:225,1,80.9999975280763,0|0,1:0|0:0,0:0:0:0:
93,39,245926,2,0,B|83:81|83:81|110:130,1,80.9999975280763,0|0,1:0|0:0,0:0:0:0:
101,114,246259,1,0,0:0:0:0:
192,40,246426,2,0,L|280:46,1,80.9999975280763,0|0,1:0|0:0,0:0:0:0:
425,113,246759,1,0,0:0:0:0:
490,61,246926,1,0,1:0:0:0:
360,52,247093,22,2,B|351:88|338:100|338:100|348:151|348:151|324:177|316:230,1,161.999995056153,2|0,0:0|0:0,0:0:0:0:
365,335,247593,1,8,0:0:0:0:
399,347,247676,1,8,0:0:0:0:
434,339,247759,1,8,0:0:0:0:
457,310,247843,1,8,0:0:0:0:
456,268,247926,22,0,L|294:281,1,135,0|0,1:0|0:0,0:0:0:0:
264,336,248259,2,0,P|218:345|180:316,1,90,8|0,1:0|0:0,0:0:0:0:
182,155,248592,6,0,B|223:172|223:172|238:284,1,135
179,318,248926,1,8,0:0:0:0:
42,299,249092,6,0,L|54:122,1,135
54,138,249426,1,0,0:0:0:0:
110,53,249592,2,0,P|152:40|193:56,1,90,8|0,0:0|0:0,0:0:0:0:
283,167,249926,86,0,L|436:154,1,135,0|0,1:0|0:0,0:0:0:0:
466,88,250259,2,0,P|425:62|373:96,1,90,8|0,1:0|0:0,0:0:0:0:
346,255,250592,6,0,P|412:296|485:251,1,135,0|0,1:0|0:0,0:0:0:0:
506,213,250926,1,8,0:0:0:0:
324,369,251092,6,0,B|291:335|291:335|179:350,1,135,0|0,1:0|0:0,0:0:0:0:
122,363,251426,1,0,1:0:0:0:
335,257,251592,1,8,0:0:0:0:
213,240,251759,2,0,B|159:235|159:235|129:247|129:247|52:240,1,135,0|0,1:0|0:0,0:0:0:0:
15,198,252092,1,0,1:0:0:0:
214,83,252259,6,0,L|221:158,1,67.5,8|0,0:0|0:0,0:0:0:0:
224,321,252592,6,0,B|264:312|264:312|303:333,1,80.9999975280763,4|0,0:0|0:0,0:0:0:0:
317,201,252926,2,0,B|351:222|351:222|364:265,1,80.9999975280763,0|0,1:0|0:0,0:0:0:0:
467,181,253259,2,0,B|476:221|476:221|454:260,1,80.9999975280763,0|0,1:0|0:0,0:0:0:0:
418,334,253592,1,8,0:0:0:0:
384,136,253759,2,0,L|390:41,1,80.9999975280763,0|0,1:0|0:0,0:0:0:0:
317,201,254092,2,0,B|279:182|279:182|207:180,1,80.9999975280763,0|0,1:0|0:0,0:0:0:0:
73,95,254426,22,0,P|90:88|115:85,1,40.4999987640381
184,123,254592,2,0,P|159:175|184:239,1,121.499996292114,0|0,1:0|0:0,0:0:0:0:
179,365,254926,5,8,0:0:0:0:
143,372,255009,1,8,0:0:0:0:
110,356,255092,1,8,0:0:0:0:
98,321,255176,1,8,0:0:0:0:
120,287,255259,6,0,L|270:295,1,135,0|0,1:0|0:0,0:0:0:0:
328,339,255592,2,0,P|384:343|422:301,1,90,8|0,1:0|0:0,0:0:0:0:
391,139,255925,6,0,B|361:169|361:169|352:284,1,135,0|0,1:0|0:0,0:0:0:0:
409,324,256259,1,8,0:0:0:0:
275,170,256425,6,0,L|135:179,1,135
119,179,256759,1,0,0:0:0:0:
40,224,256925,2,0,B|23:184|23:184|44:125,1,90,8|0,0:0|0:0,0:0:0:0:
184,40,257259,86,0,B|240:44|240:44|266:61|266:61|324:66,1,135,0|0,1:0|0:0,0:0:0:0:
390,22,257592,2,0,P|435:21|475:69,1,90,8|0,1:0|0:0,0:0:0:0:
357,152,257925,6,0,L|369:299,1,135,0|0,1:0|0:0,0:0:0:0:
376,363,258259,1,8,0:0:0:0:
105,177,258425,6,0,P|147:141|229:147,1,135,0|0,1:0|0:0,0:0:0:0:
270,217,258759,1,0,1:0:0:0:
326,66,258925,1,8,0:0:0:0:
185,223,259092,6,0,B|188:280|188:280|215:310|215:310|211:363|156:377,1,180,0|0,1:0|1:0,0:0:0:0:
22,298,259592,2,0,P|69:288|113:326,1,90,8|0,0:0|0:0,0:0:0:0:
288,363,259925,5,2,0:0:0:0:
359,355,260092,1,0,0:0:0:0:
430,349,260259,1,2,0:0:0:0:
501,340,260425,1,0,0:0:0:0:
407,235,260592,21,2,0:0:0:0:
331,259,260759,1,0,0:0:0:0:
407,235,260925,1,2,0:0:0:0:
270,203,261092,2,0,L|169:199,1,90,0|2,0:0|0:0,0:0:0:0:
393,143,261425,5,0,0:0:0:0:
468,138,261592,1,2,0:0:0:0:
427,74,261759,1,0,0:0:0:0:
351,79,261925,1,2,0:0:0:0:
265,50,262092,69,2,0:0:0:0:
268,66,262175,1,2,0:0:0:0:
271,82,262259,1,2,0:0:0:0:
201,138,262425,1,2,0:0:0:0:
125,85,262592,21,2,0:0:0:0:
122,62,262675,1,0,0:0:0:0:
130,40,262759,1,0,0:0:0:0:
94,172,262925,1,2,0:0:0:0:
72,163,263008,1,0,0:0:0:0:
57,145,263092,1,0,0:0:0:0:
201,138,263259,2,0,L|220:359,1,180,2|2,0:0|0:0,0:0:0:0:
121,366,263759,5,2,0:0:0:0:
121,366,263925,1,2,0:0:0:0:
69,278,264092,1,0,0:0:0:0:
47,270,264176,1,0,0:0:0:0:
24,273,264259,1,2,0:0:0:0:
122,367,264425,1,0,0:0:0:0:
216,317,264592,69,2,0:0:0:0:
201,138,264759,1,2,0:0:0:0:
201,138,264842,1,2,0:0:0:0:
201,138,264925,1,2,0:0:0:0:
169,231,265092,1,2,0:0:0:0:
287,261,265259,22,0,B|332:239|368:275|368:275|412:319|479:286,1,180,4|8,0:0|0:0,0:0:0:0:
508,220,265759,1,0,0:0:0:0:
453,144,265925,2,0,P|398:144|357:187,1,90,0|0,1:0|0:0,0:0:0:0:
287,261,266259,6,0,L|276:139,1,90,8|0,0:0|0:0,0:0:0:0:
196,108,266592,2,0,P|151:139|83:121,1,90,0|0,1:0|0:0,0:0:0:0:
96,128,266842,1,0,0:0:0:0:
80,111,266925,1,8,0:0:0:0:
136,49,267092,1,0,0:0:0:0:
16,181,267259,2,0,P|55:222|112:206,1,90,0|0,1:0|0:0,0:0:0:0:
270,270,267592,2,0,P|230:261|171:314,1,90,8|0,0:0|0:0,0:0:0:0:
11,308,267925,70,0,B|101:326|101:326|123:377,1,135,0|0,1:0|0:0,0:0:0:0:
194,378,268259,2,0,L|285:369,1,90,8|0,0:0|0:0,0:0:0:0:
460,315,268592,22,0,P|470:260|441:212,1,90,0|0,1:0|0:0,0:0:0:0:
288,270,268925,2,0,L|405:277,1,90,8|0,0:0|0:0,0:0:0:0:
473,137,269259,2,0,B|402:142|402:142|372:168|372:168|297:171,1,180,0|8,1:0|0:0,0:0:0:0:
212,137,269759,1,0,0:0:0:0:
162,57,269925,6,0,B|48:38|48:38|7:56|0:117,1,180,0|8,1:0|0:0,0:0:0:0:
47,173,270425,1,0,0:0:0:0:
212,137,270592,6,0,L|205:262,1,90,0|8,1:0|0:3,0:0:0:0:
207,311,270842,1,8,0:3:0:0:
207,311,270925,1,4,0:3:0:0:
133,364,271092,1,4,0:3:0:0:
46,336,271259,1,4,0:3:0:0:
305,105,271759,6,0,L|315:270,1,135,4|0,1:0|0:0,0:0:0:0:
362,323,272092,1,8,0:0:0:0:
386,340,272175,1,8,0:0:0:0:
414,348,272258,1,8,0:3:0:0:
444,344,272341,1,8,0:3:0:0:
470,330,272425,1,4,0:3:0:0:
489,307,272508,1,4,0:3:0:0:
499,279,272591,1,4,0:3:0:0:
207,105,273092,102,0,L|197:270,1,135,4|0,1:0|0:0,0:0:0:0:
150,323,273425,1,8,0:0:0:0:
126,340,273508,1,8,0:0:0:0:
98,348,273591,1,8,0:3:0:0:
68,344,273674,1,8,0:3:0:0:
42,330,273758,1,8,0:3:0:0:
23,307,273841,1,8,0:3:0:0:
13,279,273924,1,8,0:3:0:0:
305,105,274425,6,0,L|315:273,1,144,4|0,1:0|0:0,0:0:0:0:
362,323,274926,1,8,0:0:0:0:
386,340,275009,1,8,0:0:0:0:
414,348,275092,1,8,0:0:0:0:
444,344,275175,1,8,0:0:0:0:
470,330,275259,5,8,0:0:0:0:
489,307,275342,1,8,0:0:0:0:
499,279,275425,1,8,0:0:0:0:
497,250,275509,1,8,0:0:0:0:
480,222,275592,5,8,0:0:0:0:
463,187,275675,1,8,0:0:0:0:
457,140,275759,1,8,0:0:0:0:
472,94,275842,1,8,0:0:0:0:
496,53,275925,86,0,P|444:86|375:79,1,116.999994644165,4|0,1:2|0:0,0:0:0:0:
331,145,276147,2,0,P|286:130|244:74,1,116.999994644165,0|0,1:2|0:0,0:0:0:0:
152,24,276370,2,0,L|160:163,1,116.999994644165,0|0,1:2|0:0,0:0:0:0:
245,224,276592,6,0,P|196:261|127:254,1,116.999994644165,0|0,1:2|0:0,0:0:0:0:
83,320,276814,2,0,P|38:305|0:233,1,116.999994644165,0|0,1:2|0:0,0:0:0:0:
42,149,277036,2,0,L|175:139,1,116.999994644165,0|0,1:2|0:0,0:0:0:0:
320,168,277259,6,0,B|340:204|340:204|332:292,1,116.999994644165,0|0,1:0|0:0,0:0:0:0:
424,368,277481,2,0,B|444:332|444:332|436:244,1,116.999994644165,0|0,1:0|0:0,0:0:0:0:
480,172,277703,2,0,P|496:108|436:56,1,116.999994644165,0|0,1:0|0:0,0:0:0:0:
271,97,277925,86,0,L|140:101,1,116.999994644165,0|0,1:2|0:0,0:0:0:0:
63,68,278147,2,0,P|13:106|17:176,1,116.999994644165,0|0,1:0|0:0,0:0:0:0:
151,203,278370,2,0,P|177:153|133:88,1,116.999994644165,0|0,1:0|0:0,0:0:0:0:
9,157,278592,6,0,B|29:195|29:195|16:294,1,116.999994644165,0|0,1:0|0:0,0:0:0:0:
47,348,278814,2,0,B|116:367|116:367|162:346,1,116.999994644165,0|0,1:0|0:0,0:0:0:0:
272,264,279036,2,0,P|293:295|295:334,1,77.9999964294435,0|0,1:0|0:0,0:0:0:0:
286,355,279203,1,0,0:0:0:0:
278,372,279259,6,0,L|413:385,1,116.999994644165,0|0,1:0|0:0,0:0:0:0:
480,324,279481,2,0,B|492:243|492:243|462:181,1,116.999994644165,0|0,1:0|0:0,0:0:0:0:
410,152,279703,2,0,B|395:121|395:121|407:40,1,116.999994644165,0|0,1:0|0:0,0:0:0:0:
476,211,279925,86,0,P|420:243|356:217,1,116.999994644165,0|0,1:0|0:0,0:0:0:0:
300,168,280147,2,0,P|243:156|195:187,1,116.999994644165,0|0,1:0|0:0,0:0:0:0:
262,250,280370,2,0,B|270:328|270:328|255:373,1,116.999994644165,0|0,1:0|0:0,0:0:0:0:
116,373,280592,6,0,P|63:381|13:324,1,116.999994644165,0|0,1:0|0:0,0:0:0:0:
76,256,280814,2,2,P|129:264|179:207,1,116.999994644165,0|0,1:0|0:0,0:0:0:0:
115,148,281036,2,2,P|62:156|12:99,1,116.999994644165,0|0,1:0|0:0,0:0:0:0:
206,95,281259,6,0,L|349:86,1,116.999994644165,4|0,1:0|0:0,0:0:0:0:
398,44,281481,2,0,P|458:47|493:120,1,116.999994644165,0|0,1:0|0:0,0:0:0:0:
462,170,281703,2,0,B|486:210|486:210|474:302,1,116.999994644165,0|0,1:0|0:0,0:0:0:0:
351,384,281925,70,0,B|327:344|327:344|339:252,1,116.999994644165,0|0,1:0|0:0,0:0:0:0:
281,204,282147,2,0,P|224:190|179:229,1,116.999994644165,0|0,1:0|0:0,0:0:0:0:
144,348,282370,2,0,B|67:352|67:352|24:312,1,116.999994644165,0|0,1:0|0:0,0:0:0:0:
76,248,282592,6,0,B|152:252|152:252|196:212,1,116.999994644165,0|0,1:0|0:0,0:0:0:0:
134,156,282814,2,0,B|58:160|58:160|14:120,1,116.999994644165,0|0,1:0|0:0,0:0:0:0:
91,57,283036,2,0,P|156:45|197:86,1,116.999994644165,0|0,1:0|0:0,0:0:0:0:
260,144,283259,6,0,B|344:156|344:156|392:124,1,116.999994644165,0|0,1:0|0:0,0:0:0:0:
394,59,283481,2,0,P|430:43|497:76,1,116.999994644165,0|0,1:0|0:0,0:0:0:0:
400,216,283703,2,0,L|417:361,1,116.999994644165,0|0,1:0|0:0,0:0:0:0:
469,176,283925,6,0,P|440:143|350:150,1,116.999994644165,0|0,1:0|0:0,0:0:0:0:
314,202,284147,2,0,L|300:338,1,116.999994644165,0|0,1:0|0:0,0:0:0:0:
224,371,284370,2,0,B|149:375|149:375|114:351,1,116.999994644165,0|0,1:0|0:0,0:0:0:0:
46,254,284592,70,0,P|92:212|177:242,1,116.999994644165,0|0,1:0|0:0,0:0:0:0:
229,242,284814,2,0,L|216:89,1,116.999994644165,0|0,1:0|0:0,0:0:0:0:
141,89,285036,2,0,B|60:80|60:80|43:50,1,116.999994644165,0|0,1:0|0:0,0:0:0:0:
216,42,285258,6,0,B|233:12|233:12|333:0,1,116.999994644165,0|0,1:0|0:0,0:0:0:0:
391,50,285481,2,0,B|473:60|473:60|490:90,1,116.999994644165,0|0,1:0|0:0,0:0:0:0:
475,214,285703,2,0,P|421:173|347:191,1,116.999994644165,0|0,1:0|0:0,0:0:0:0:
307,235,285925,6,0,P|293:301|342:360,1,116.999994644165,0|0,1:0|0:0,0:0:0:0:
407,374,286147,2,0,P|469:347|490:274,1,116.999994644165,0|0,1:0|0:0,0:0:0:0:
307,235,286370,2,0,L|164:241,1,116.999994644165,0|0,1:0|0:0,0:0:0:0:
36,335,286592,102,0,P|18:265|62:206,1,116.999994644165,0|0,1:0|0:0,0:0:0:0:
115,189,286814,1,0,1:0:0:0:
51,74,286925,1,8,0:0:0:0:
51,74,287036,2,0,L|188:84,1,116.999994644165,0|0,1:0|0:0,0:0:0:0:
343,127,287258,6,0,B|371:136|394:135|419:120|419:120|442:101|472:92|515:113,2,155.999992858887,0|0|0,1:0|1:0|1:0,0:0:0:0:
190,239,287925,6,0,L|192:216,18,22.5
173,329,288814,1,0,1:0:0:0:
104,276,288925,1,8,0:0:0:0:
182,333,289036,2,0,B|225:327|225:327|268:334,1,77.9999964294435,0|0,1:0|0:0,0:0:0:0:
357,342,289258,86,0,P|432:345|460:321,1,90,0|0,1:0|0:0,0:0:0:0:
488,248,289481,2,0,P|452:181|418:169,1,90,0|0,1:0|0:0,0:0:0:0:
340,180,289703,2,0,B|309:189|295:225|307:254|307:254|335:242|358:244|358:244|397:257,1,180,0|2,1:0|0:0,0:0:0:0:
452,183,290258,53,8,0:0:0:0:
452,183,290314,1,8,0:0:0:0:
452,183,290370,2,0,L|457:136,1,45,8|8,0:0|0:0,0:0:0:0:
363,40,290536,54,0,L|293:46,1,60,0|0,1:0|0:0,0:0:0:0:
257,104,290814,2,0,L|189:98,1,60,0|0,1:0|0:0,0:0:0:0:
143,42,291092,2,0,L|83:47,1,60,0|0,1:0|0:0,0:0:0:0:
17,82,291370,1,0,1:0:0:0:
165,295,291647,53,8,0:0:0:0:
165,295,291703,1,8,0:0:0:0:
165,295,291758,2,0,L|172:248,1,45,8|8,0:0|0:0,0:0:0:0:
35,215,291925,54,0,P|41:276|98:309,1,116.999994644165,0|0,1:0|0:0,0:0:0:0:
165,295,292147,1,0,1:0:0:0:
265,228,292258,1,8,0:0:0:0:
265,228,292370,2,0,B|273:308|273:308|326:353,1,116.999994644165,0|0,1:0|0:0,0:0:0:0:
402,313,292592,6,0,B|410:232|410:232|463:188,1,116.999994644165,0|0,1:0|0:0,0:0:0:0:
511,260,292814,1,0,1:0:0:0:
496,121,292925,1,8,0:0:0:0:
496,121,293036,2,0,L|371:114,1,116.999994644165,0|0,1:0|0:0,0:0:0:0:
309,63,293258,6,0,B|251:51|251:51|191:84,1,116.999994644165,0|0,1:0|0:0,0:0:0:0:
181,158,293481,1,0,1:0:0:0:
65,62,293592,1,8,0:0:0:0:
65,62,293703,2,0,L|76:180,1,116.999994644165,0|0,1:0|0:0,0:0:0:0:
38,259,293925,86,0,B|21:314|21:314|54:363,1,116.999994644165,0|0,1:0|0:0,0:0:0:0:
140,373,294147,1,0,1:0:0:0:
223,271,294258,1,8,0:0:0:0:
223,271,294370,2,0,L|340:284,1,116.999994644165,0|0,1:0|0:0,0:0:0:0:
461,350,294592,6,0,B|450:308|450:308|470:260|470:260|457:185,1,155.999992858887,0|0,1:0|0:0,0:0:0:0:
398,144,294870,2,0,B|370:101|370:101|466:98,1,116.999994644165,0|0,1:0|0:0,0:0:0:0:
485,21,295092,2,0,L|382:15,1,77.9999964294435,0|0,1:0|0:0,0:0:0:0:
301,32,295258,6,0,B|286:83|286:83|302:155|302:155|284:242,1,194.999991073609,0|0,1:0|0:0,0:0:0:0:
261,302,295592,2,0,L|268:372,3,58.4999973220826,0|0|0|0,1:0|1:0|1:0|1:0,1:0:0:0:
166,307,295925,85,0,1:0:0:0:
124,346,296008,1,8,1:0:0:0:
67,349,296091,1,0,1:0:0:0:
21,315,296174,1,8,1:0:0:0:
21,300,296258,5,0,1:0:0:0:
49,301,296341,1,8,1:0:0:0:
76,290,296424,1,0,1:0:0:0:
96,269,296507,1,8,1:0:0:0:
103,246,296592,5,0,1:0:0:0:
98,221,296675,1,8,1:0:0:0:
96,196,296758,1,0,1:0:0:0:
104,172,296841,1,8,1:0:0:0:
100,148,296925,1,0,1:0:0:0:
99,124,297008,1,8,1:0:0:0:
108,100,297091,1,0,1:0:0:0:
112,76,297175,1,8,1:0:0:0:
114,42,297258,70,0,B|156:27|213:21|270:35|291:112|404:132|456:68|456:68|336:69|317:167,1,540,4|0,1:0|0:0,0:0:0:0:
294,242,298592,6,0,B|268:343|326:351|326:351|327:283|226:294,1,252,4|0,1:0|0:0,0:0:0:0:
135,296,299258,2,0,B|46:306|62:372|62:372|117:351|69:258,1,252,4|0,1:0|0:0,0:0:0:0:
46,145,299925,6,0,B|13:90|60:19|159:22|166:116|166:116|166:152|161:182|146:205|134:216|134:216|135:167|188:125|246:123|284:154,1,540,4|0,1:0|0:0,0:0:0:0:
360,199,301258,6,0,B|405:245|485:240|518:175|496:127|496:127|453:130|420:173|426:237|446:270|446:270|476:320|455:353|429:386|383:363,1,540,4|0,1:0|0:0,0:0:0:0:
184,270,302592,70,0,B|148:232|98:226|60:255|57:284|57:284|83:276|104:263|115:240|115:206,1,252,4|0,1:0|0:0,0:0:0:0:
181,165,303258,2,0,B|231:152|262:112|255:65|232:48|232:48|226:74|227:99|241:120|270:137,1,252,4|0,1:0|0:0,0:0:0:0:
273,214,303925,2,0,B|258:264|277:310|322:328|348:316|348:316|328:298|306:286|281:288|252:305,1,252,4|0,1:0|0:0,0:0:0:0:
184,270,304592,2,0,B|148:232|98:226|60:255|57:284|57:284|83:276|104:263|115:240|115:206,1,252,4|0,1:0|0:0,0:0:0:0:
102,136,305258,5,4,1:0:0:0:
256,192,305342,12,0,310592,0:0:0:0:
