osu file format v14

[General]
AudioFilename: audio.mp3
AudioLeadIn: 0
PreviewTime: 54293
Countdown: 0
SampleSet: Soft
StackLeniency: 0.3
Mode: 0
LetterboxInBreaks: 0
WidescreenStoryboard: 0

[Editor]
Bookmarks: 14263,35079
DistanceSpacing: 0.3
BeatDivisor: 4
GridSize: 4
TimelineZoom: 1.5

[Metadata]
Title:Sayonara Moon Town
TitleUnicode:サヨナラムーンタウン
Artist:Scenarioart
ArtistUnicode:シナリオアート
Creator:toybot
Version:Goodbye
Source:BORUTO-ボルト- NARUTO NEXT GENERATIONS
Tags:naruto-ナルト- 疾風伝 ボルト:新世代ナルト shippuden opening
BeatmapID:1371131
BeatmapSetID:647217

[Difficulty]
HPDrainRate:6
CircleSize:4
OverallDifficulty:8.5
ApproachRate:9.2
SliderMultiplier:1.9
SliderTickRate:1

[Events]
//Background and Video events
0,0,"image.jpg",0,0
Video,0,"video.flv"
//Break Periods
//Storyboard Layer 0 (Background)
//Storyboard Layer 1 (Fail)
//Storyboard Layer 2 (Pass)
//Storyboard Layer 3 (Foreground)
//Storyboard Sound Samples

[TimingPoints]
799,306.122448979592,4,2,1,70,1,0
13043,-133.333333333333,4,2,1,70,0,0
13656,-66.6666666666667,4,2,1,60,0,0
13809,-66.6666666666667,4,2,1,5,0,0
13885,-80,4,2,1,60,0,0
14038,-80,4,2,1,5,0,0
14115,-100,4,2,1,60,0,0
14191,-100,4,2,1,5,0,0
14268,-111.111111111111,4,2,1,60,0,0
33860,-111.111111111111,4,2,1,30,0,0
34472,-111.111111111111,4,2,1,25,0,0
34931,-111.111111111111,4,2,1,40,0,0
35084,-111.111111111111,4,2,1,65,0,0
42355,-111.111111111111,4,2,1,5,0,0
42431,-111.111111111111,4,2,1,65,0,0
52227,-83.3333333333333,4,2,1,65,0,0
52686,-100,4,2,1,65,0,0
53145,-111.111111111111,4,2,1,65,0,0
53452,-111.111111111111,4,2,1,50,0,0
53911,-111.111111111111,4,2,1,40,0,0
54370,-200,4,2,1,50,0,0
54600,-200,4,2,1,5,0,0
54676,-100,4,2,1,70,0,1
74268,-100,4,2,1,60,0,1
79166,-111.111111111111,4,2,1,65,0,1
84064,-200,4,2,1,50,0,0
84140,-200,4,2,1,5,0,0

[Colours]
Combo1 : 201,201,148
Combo2 : 230,0,115
Combo3 : 108,0,217
Combo4 : 0,128,192

[HitObjects]
83,104,799,6,0,B|187:88|148:168|273:146,1,190,4|8,3:2|0:0,0:0:0:0:
407,24,1258,2,0,B|303:8|342:88|217:66,1,190,0|0,0:0|3:0,0:0:0:0:
360,227,1717,1,8,0:0:0:0:
383,100,1870,1,0,0:0:0:0:
276,237,2023,6,0,P|332:307|421:288,1,190,0|8,3:2|0:0,0:0:0:0:
209,311,2482,2,0,P|152:381|63:362,1,190,0|0,0:0|3:0,0:0:0:0:
102,171,2941,1,8,0:0:0:0:
125,305,3094,1,0,0:0:0:0:
62,100,3247,6,0,B|119:90|119:90|178:125|178:125|254:111,1,190,0|8,3:2|0:0,0:0:0:0:
372,187,3707,2,0,B|315:177|315:177|256:212|256:212|180:198,1,190,0|0,0:0|3:0,0:0:0:0:
389,104,4166,1,8,0:0:0:0:
423,259,4319,1,0,0:0:0:0:
479,47,4472,6,0,L|469:141,1,95,0|0,3:2|0:0,0:0:0:0:
318,267,4778,1,8,0:0:0:0:
270,176,4931,2,0,P|362:188|423:259,1,190,0|0,0:0|3:0,0:0:0:0:
296,356,5390,1,8,0:0:0:0:
184,139,5543,5,0,0:0:0:0:
184,139,5620,1,8,0:0:0:0:
184,139,5696,2,0,B|159:255|226:213|210:323,1,190,0|8,3:2|0:0,0:0:0:0:
0,276,6156,2,0,B|-16:166|51:208|22:72,1,190,0|0,0:0|3:0,0:0:0:0:
173,233,6615,2,0,L|78:244,1,95,8|0,0:0|0:0,0:0:0:0:
323,131,6921,6,0,L|538:103,1,190,0|8,3:2|0:0,0:0:0:0:
395,303,7380,2,0,L|180:331,1,190,0|0,0:0|3:0,0:0:0:0:
236,140,7839,2,0,P|254:197|285:248,1,95,8|0,0:0|0:0,0:0:0:0:
134,276,8145,6,0,P|105:189|157:114,1,190,0|8,3:2|0:0,0:0:0:0:
403,177,8605,2,0,P|370:92|282:68,1,190,0|0,0:0|3:0,0:0:0:0:
257,320,9064,2,0,L|357:284,1,95,8|0,0:0|3:0,0:0:0:0:
236,140,9370,6,0,L|281:256,1,95,0|0,3:2|3:0,0:0:0:0:
332,152,9676,1,8,0:0:0:0:
182,226,9829,1,0,0:0:0:0:
182,226,9906,1,8,0:0:0:0:
182,226,9982,1,0,3:0:0:0:
296,66,10135,1,0,3:0:0:0:
361,248,10288,1,8,0:0:0:0:
157,95,10441,5,0,0:0:0:0:
157,95,10518,1,8,0:0:0:0:
157,95,10594,2,0,P|86:81|-5:182,1,190,4|8,3:2|0:0,0:0:0:0:
197,187,11054,2,0,P|268:173|359:274,1,190,0|0,0:0|3:0,0:0:0:0:
119,343,11513,1,8,0:0:0:0:
98,174,11666,1,0,0:0:0:0:
166,265,11819,6,0,L|46:258,1,95,0|0,3:2|0:0,0:0:0:0:
10,78,12125,2,0,L|116:85,1,95,8|0,0:0|0:0,0:0:0:0:
271,126,12431,5,0,3:0:0:0:
230,43,12584,1,0,3:0:0:0:
313,54,12737,1,4,3:0:0:0:
181,116,12890,1,8,3:0:0:0:
352,170,13043,6,0,B|417:189|474:133|474:133|465:179|419:198,1,213.750008153916,2|0,0:3|3:0,0:0:0:0:
427,193,13656,6,0,P|343:187|292:110,1,142.500005435944,8|0,0:0|0:0,0:0:0:0:
319,187,13885,2,0,P|286:118|327:36,1,118.75,8|0,0:0|0:0,0:0:0:0:
278,83,14115,2,0,P|287:60|299:40,1,47.5,8|0,0:0|0:0,0:0:0:0:
444,98,14268,6,0,B|359:120|367:60|265:85,1,170.999994781494,4|8,3:2|0:0,0:0:0:0:
263,250,14727,1,0,0:0:0:0:
134,188,14880,1,0,3:0:0:0:
134,188,15033,2,0,B|219:210|211:150|313:175,1,170.999994781494,0|8,3:0|0:0,0:0:0:0:
376,226,15492,6,0,P|397:285|391:325,1,85.4999973907472,0|0,0:0|3:0,0:0:0:0:
312,285,15799,1,8,0:0:0:0:
457,185,15952,2,0,P|489:132|440:34,1,170.999994781494,0|0,0:0|3:0,0:0:0:0:
377,85,16411,1,8,0:0:0:0:
242,43,16564,5,0,0:0:0:0:
242,43,16640,1,0,0:0:0:0:
242,43,16717,2,0,P|157:54|71:58,1,170.999994781494,0|8,3:0|0:0,0:0:0:0:
170,142,17176,1,0,0:0:0:0:
95,241,17329,1,0,3:0:0:0:
95,241,17482,2,0,P|179:229|265:225,1,170.999994781494,0|8,3:0|0:0,0:0:0:0:
358,164,17941,6,0,L|351:264,1,85.4999973907472,0|0,0:0|3:0,0:0:0:0:
285,115,18247,1,8,0:0:0:0:
445,219,18401,1,0,0:0:0:0:
445,219,18477,1,0,0:0:0:0:
445,219,18554,2,0,L|452:119,1,85.4999973907472,0|0,3:0|3:0,0:0:0:0:
432,309,18860,1,8,0:0:0:0:
432,309,19166,6,0,P|351:280|273:340,1,170.999994781494,0|8,3:0|0:0,0:0:0:0:
212,367,19625,1,0,0:0:0:0:
96,224,19778,1,0,3:0:0:0:
96,224,19931,2,0,P|177:195|255:255,1,170.999994781494,0|8,3:0|0:0,0:0:0:0:
244,236,20390,6,0,P|234:194|234:129,1,85.4999973907472,0|0,0:0|3:0,0:0:0:0:
286,74,20696,1,8,0:0:0:0:
332,259,20850,2,0,B|247:244|271:308|165:286,1,170.999994781494,0|0,0:0|3:0,0:0:0:0:
313,345,21309,1,8,0:0:0:0:
402,179,21462,5,0,0:0:0:0:
402,179,21538,1,0,0:0:0:0:
402,179,21615,2,0,P|432:231|409:339,1,170.999994781494,0|8,3:0|0:0,0:0:0:0:
332,259,22074,1,0,0:0:0:0:
260,338,22227,1,0,3:0:0:0:
260,338,22380,2,0,P|230:286|253:178,1,170.999994781494,0|8,3:0|0:0,0:0:0:0:
372,82,22839,6,0,L|271:72,1,85.4999973907472,0|0,0:0|3:0,0:0:0:0:
203,32,23145,2,0,L|196:132,1,85.4999973907472,8|0,0:0|0:0,0:0:0:0:
48,171,23452,2,0,L|149:181,1,85.4999973907472,0|0,3:0|3:0,0:0:0:0:
288,297,23758,1,8,0:0:0:0:
348,214,23911,5,8,0:0:0:0:
348,214,23987,1,8,0:0:0:0:
348,214,24064,2,0,P|266:204|198:253,1,170.999994781494,4|8,3:2|0:0,0:0:0:0:
110,222,24523,1,0,0:0:0:0:
48,293,24676,1,0,3:0:0:0:
48,293,24829,2,0,P|122:305|210:231,1,170.999994781494,0|8,3:0|0:0,0:0:0:0:
228,146,25288,6,0,L|218:33,1,85.4999973907472,0|0,0:0|3:0,0:0:0:0:
307,189,25594,1,8,0:0:0:0:
135,42,25747,2,0,B|232:67|211:-6|312:20,1,170.999994781494,0|0,0:0|3:0,0:0:0:0:
361,104,26207,1,8,0:0:0:0:
223,227,26360,5,0,0:0:0:0:
223,227,26513,2,0,P|172:224|121:110,1,170.999994781494,0|8,3:0|0:0,0:0:0:0:
170,63,26972,1,0,0:0:0:0:
309,212,27125,1,0,3:0:0:0:
309,212,27278,2,0,P|306:263|192:314,1,170.999994781494,0|8,3:0|0:0,0:0:0:0:
202,144,27737,6,0,P|242:140|311:129,1,85.4999973907472,0|0,0:0|3:0,0:0:0:0:
387,12,28043,1,8,0:0:0:0:
444,88,28196,1,0,0:0:0:0:
444,88,28273,1,0,0:0:0:0:
444,88,28350,2,0,P|403:91|335:103,1,85.4999973907472,0|0,3:0|3:0,0:0:0:0:
199,263,28656,1,8,0:0:0:0:
240,104,28809,1,0,0:0:0:0:
122,188,28962,6,0,P|207:182|290:200,1,170.999994781494,0|8,3:0|0:0,0:0:0:0:
401,311,29421,1,0,0:0:0:0:
384,151,29574,1,0,3:0:0:0:
384,151,29727,2,0,L|364:274,1,85.4999973907472,0|0,3:0|0:0,0:0:0:0:
465,118,30033,1,8,0:0:0:0:
290,200,30186,6,0,P|232:194|192:79,1,170.999994781494,0|8,0:0|0:0,0:0:0:0:
279,29,30645,2,0,L|271:115,1,85.4999973907472,0|0,0:0|3:0,0:0:0:0:
160,236,30952,1,0,3:0:0:0:
80,112,31105,2,0,L|88:197,1,85.4999973907472,8|0,0:0|0:0,0:0:0:0:
220,332,31411,6,0,P|164:316|121:323,1,85.4999973907472,2|0,3:2|0:0,0:0:0:0:
280,254,31717,1,10,0:0:0:0:
352,318,31870,2,0,P|407:331|488:240,1,170.999994781494,0|0,0:0|3:0,0:0:0:0:
195,235,32329,2,0,P|147:234|91:190,1,85.4999973907472,2|8,0:0|0:0,0:0:0:0:
77,141,32635,5,2,0:0:0:0:
276,226,32788,1,0,3:0:0:0:
87,309,32941,1,10,0:0:0:0:
292,242,33094,1,0,0:0:0:0:
160,94,33247,5,8,0:0:0:0:
197,370,33401,1,8,0:0:0:0:
200,356,33860,5,2,0:3:0:0:
203,342,34472,1,2,0:3:0:0:
206,328,34931,1,0,0:0:0:0:
107,344,35084,5,4,3:2:0:0:
317,326,35237,1,0,0:0:0:0:
109,327,35390,1,2,0:0:0:0:
308,308,35543,1,0,3:0:0:0:
110,311,35696,2,0,L|94:209,1,85.4999973907472,8|0,0:0|0:0,0:0:0:0:
303,292,36003,2,0,L|304:194,1,85.4999973907472,2|0,0:0|3:0,0:0:0:0:
203,246,36309,5,8,0:0:0:0:
203,246,36462,2,0,L|186:54,1,170.999994781494,0|0,3:0|3:0,0:0:0:0:
415,97,36921,2,0,P|366:181|274:166,1,170.999994781494,8|2,0:0|0:0,0:0:0:0:
300,182,37380,1,0,3:0:0:0:
330,104,37533,5,8,0:0:0:0:
356,266,37686,1,0,0:0:0:0:
303,100,37839,1,2,0:0:0:0:
326,278,37992,1,0,3:0:0:0:
273,96,38145,2,0,L|165:77,1,85.4999973907472,8|0,0:0|0:0,0:0:0:0:
298,292,38452,2,0,L|198:333,1,85.4999973907472,2|0,0:0|3:0,0:0:0:0:
57,221,38758,5,8,0:0:0:0:
57,221,38911,2,0,L|227:202,1,170.999994781494,0|0,3:0|3:0,0:0:0:0:
240,286,39370,2,0,L|156:296,1,85.4999973907472,8|0,0:0|0:0,0:0:0:0:
137,127,39676,2,0,L|221:116,1,85.4999973907472,2|0,0:0|3:0,0:0:0:0:
309,19,39982,5,12,0:0:0:0:
337,166,40135,1,0,0:0:0:0:
190,194,40288,1,2,0:0:0:0:
162,47,40441,1,0,3:0:0:0:
340,147,40594,2,0,L|424:136,1,85.4999973907472,8|0,0:0|0:0,0:0:0:0:
170,271,40901,2,0,L|85:281,1,85.4999973907472,2|0,0:0|3:0,0:0:0:0:
309,327,41207,6,0,L|507:302,1,170.999994781494,8|2,0:0|0:0,0:0:0:0:
375,239,41666,1,0,3:0:0:0:
231,361,41819,2,0,L|220:272,1,85.4999973907472,8|0,0:0|0:0,0:0:0:0:
113,168,42125,2,0,P|160:197|242:177,1,128.249996086121,2|0,0:0|0:0,0:0:0:0:
329,147,42431,6,0,B|242:130|256:200|133:172,1,170.999994781494,8|2,0:0|0:0,0:0:0:0:
186,12,42890,2,0,L|195:96,1,85.4999973907472,0|8,3:0|0:0,0:0:0:0:
219,281,43196,1,0,0:0:0:0:
90,282,43350,2,0,P|126:210|234:206,1,170.999994781494,2|8,0:0|0:0,0:0:0:0:
312,321,43809,5,0,0:0:0:0:
461,255,43962,2,0,P|420:261|361:266,1,85.4999973907472,2|0,0:0|3:0,0:0:0:0:
199,284,44268,1,8,0:0:0:0:
270,119,44421,1,8,0:0:0:0:
371,257,44574,1,2,3:2:0:0:
371,257,44880,5,12,0:0:0:0:
143,225,45033,1,0,0:0:0:0:
377,238,45186,1,2,0:0:0:0:
144,206,45339,1,0,3:0:0:0:
383,220,45492,2,0,L|410:130,1,85.4999973907472,8|0,0:0|0:0,0:0:0:0:
144,187,45799,2,0,L|137:90,1,85.4999973907472,2|0,0:0|3:0,0:0:0:0:
258,252,46105,5,8,0:0:0:0:
258,252,46258,2,0,L|277:69,1,170.999994781494,0|0,3:0|3:0,0:0:0:0:
321,317,46717,2,0,P|346:372|371:396,1,85.4999973907472,8|0,0:0|0:0,0:0:0:0:
173,297,47023,2,0,P|128:338|87:357,1,85.4999973907472,2|0,0:0|3:0,0:0:0:0:
238,360,47329,5,8,0:0:0:0:
169,213,47482,1,0,0:0:0:0:
241,343,47635,1,2,0:0:0:0:
355,245,47788,1,0,3:0:0:0:
245,324,47941,2,0,L|264:212,1,85.4999973907472,8|0,0:0|0:0,0:0:0:0:
159,101,48247,2,0,L|246:173,1,85.4999973907472,2|0,0:0|3:0,0:0:0:0:
395,138,48554,5,8,0:0:0:0:
395,138,48707,2,0,L|288:177,1,85.4999973907472,0|2,3:0|0:0,0:0:0:0:
138,271,49013,1,0,3:0:0:0:
84,188,49166,2,0,P|145:178|242:265,1,170.999994781494,8|2,0:0|0:0,0:0:0:0:
282,356,49625,1,0,3:0:0:0:
338,195,49778,6,0,P|340:239|347:299,1,85.4999973907472,4|0,3:2|0:0,0:0:0:0:
202,316,50084,1,2,0:0:0:0:
266,134,50237,1,0,3:0:0:0:
107,204,50390,2,0,P|76:154|106:42,1,170.999994781494,8|2,0:0|0:0,0:0:0:0:
188,174,50850,1,0,3:0:0:0:
41,264,51003,6,0,P|106:241|200:317,1,170.999994781494,8|2,0:0|0:0,0:0:0:0:
352,311,51462,2,0,P|300:322|264:359,1,85.4999973907472,0|8,3:0|0:0,0:0:0:0:
283,236,51768,1,0,0:0:0:0:
427,357,51921,2,0,P|479:346|515:309,1,85.4999973907472,2|0,0:0|3:0,0:0:0:0:
466,45,52227,6,0,P|427:151|435:264,1,227.999993041992,4|0,0:0|3:0,0:0:0:0:
208,166,52686,2,0,P|263:238|273:348,1,190,8|0,0:0|3:0,0:0:0:0:
327,100,53145,2,0,L|336:185,1,85.4999973907472,8|0,0:0|0:0,0:0:0:0:
159,280,53452,5,8,0:0:0:0:
119,292,53528,1,8,0:0:0:0:
79,279,53605,1,8,0:0:0:0:
53,246,53681,1,8,0:0:0:0:
51,204,53758,1,8,0:0:0:0:
72,168,53834,1,8,0:0:0:0:
111,151,53911,1,2,0:0:0:0:
111,151,54370,6,0,L|199:160,1,71.25
204,170,54676,6,0,P|205:122|193:76,1,95,4|0,3:2|0:0,0:0:0:0:
365,225,54982,2,0,P|317:224|271:236,1,95,10|0,0:0|0:0,0:0:0:0:
410,53,55288,2,0,P|409:100|421:146,1,95,0|0,3:0|3:0,0:0:0:0:
271,236,55594,2,0,P|318:236|364:224,1,95,10|0,0:0|0:0,0:0:0:0:
299,53,55901,6,0,L|307:147,1,95,0|0,3:0|0:0,0:0:0:0:
193,291,56207,2,0,L|270:236,1,95,10|0,0:0|0:0,0:0:0:0:
450,263,56513,2,0,L|364:223,1,95,0|0,3:0|3:0,0:0:0:0:
312,43,56819,2,0,L|319:158,1,95,10|0,0:0|0:0,0:0:0:0:
72,246,57125,6,0,L|61:42,1,190,0|10,3:0|0:0,0:0:0:0:
328,37,57584,2,0,L|339:241,1,190,0|0,0:0|3:0,0:0:0:0:
155,134,58043,1,10,0:0:0:0:
246,173,58196,6,0,L|241:79,1,95,0|0,0:0|3:2,0:0:0:0:
300,242,58503,1,0,0:0:0:0:
128,322,58656,1,10,0:0:0:0:
314,321,58809,2,0,P|231:307|166:217,1,190,0|0,0:0|3:0,0:0:0:0:
211,41,59268,1,10,0:0:0:0:
282,109,59421,5,0,0:0:0:0:
282,109,59497,1,8,0:0:0:0:
282,109,59574,2,0,P|221:137|172:138,1,95,4|0,0:0|0:0,0:0:0:0:
369,29,59880,2,0,P|440:76|437:183,2,190,10|0|10,0:0|3:0|0:0,0:0:0:0:
272,206,60645,1,0,0:0:0:0:
361,129,60799,6,0,L|240:114,1,95,4|0,3:2|0:0,0:0:0:0:
79,203,61105,2,0,L|200:188,1,95,10|0,0:0|0:0,0:0:0:0:
68,288,61411,2,0,L|189:273,1,95,0|0,3:0|3:0,0:0:0:0:
395,334,61717,2,0,L|274:319,1,95,10|0,0:0|0:0,0:0:0:0:
214,370,62023,5,4,3:2:0:0:
185,182,62176,1,0,0:0:0:0:
268,236,62329,2,0,P|224:271|153:285,1,95,10|0,0:0|0:0,0:0:0:0:
112,99,62635,2,0,P|203:82|277:138,1,190,0|10,3:0|0:0,0:0:0:0:
437,226,63094,1,0,0:0:0:0:
369,108,63247,6,0,L|356:207,1,95,0|0,3:0|0:0,0:0:0:0:
143,276,63554,2,0,L|156:177,1,95,10|0,0:0|0:0,0:0:0:0:
260,143,63860,1,8,3:2:0:0:
130,284,64013,5,0,3:2:0:0:
132,252,64089,1,0,0:0:0:0:
135,220,64166,1,10,0:0:0:0:
138,189,64242,1,8,0:0:0:0:
140,157,64319,1,8,0:0:0:0:
143,126,64395,1,8,0:0:0:0:
146,94,64472,6,0,P|94:116|29:112,1,95,4|0,3:2|0:0,0:0:0:0:
290,204,64778,2,0,P|253:161|236:98,1,95,10|0,0:0|0:0,0:0:0:0:
414,199,65084,2,0,P|378:229|356:271,1,95,0|0,3:0|3:0,0:0:0:0:
173,266,65390,2,0,P|220:275|260:299,1,95,10|0,0:0|0:0,0:0:0:0:
149,177,65696,6,0,P|184:146|207:105,1,95,0|0,3:0|0:0,0:0:0:0:
389,110,66002,2,0,P|342:100|302:76,1,95,10|0,0:0|0:0,0:0:0:0:
235,2,66309,2,0,L|275:197,1,190,0|10,3:0|0:0,0:0:0:0:
197,314,66768,1,0,0:0:0:0:
364,284,66921,6,0,L|257:269,1,95,0|0,3:0|0:0,0:0:0:0:
140,152,67227,1,10,0:0:0:0:
84,234,67380,2,0,P|152:244|237:141,1,190,0|0,0:0|3:0,0:0:0:0:
173,60,67839,1,10,0:0:0:0:
427,135,67992,6,0,P|359:145|274:42,1,190
373,56,68452,1,10,0:0:0:0:
392,235,68605,1,0,0:0:0:0:
213,254,68758,1,0,3:0:0:0:
427,135,68911,1,0,3:0:0:0:
309,308,69064,2,0,L|297:186,1,95,10|0,0:0|0:0,0:0:0:0:
423,30,69370,6,0,L|435:152,1,95,4|0,3:2|0:0,0:0:0:0:
214,288,69676,2,0,L|197:90,1,190,10|0,0:0|3:0,0:0:0:0:
390,263,70135,1,0,3:0:0:0:
172,206,70288,2,0,L|74:213,1,95,10|0,0:0|0:0,0:0:0:0:
304,104,70594,6,0,L|402:97,1,95,4|0,3:2|0:0,0:0:0:0:
307,278,70901,2,0,P|280:236|251:196,1,95,10|0,0:0|0:0,0:0:0:0:
464,184,71207,2,0,P|439:229|421:272,1,95,0|0,3:0|3:0,0:0:0:0:
358,191,71513,2,0,L|350:71,1,95,10|0,0:0|0:0,0:0:0:0:
401,0,71819,6,0,P|337:69|229:34,1,190,4|10,3:2|0:0,0:0:0:0:
91,173,72278,1,0,0:0:0:0:
84,78,72431,2,0,P|147:98|186:142,1,95,0|0,3:0|3:0,0:0:0:0:
242,319,72737,1,10,0:0:0:0:
242,319,73043,5,0,3:0:0:0:
100,203,73196,1,0,0:0:0:0:
240,302,73350,1,12,0:0:0:0:
347,170,73503,1,0,0:0:0:0:
136,292,73656,5,8,0:0:0:0:
334,268,73809,1,8,0:0:0:0:
334,268,73885,1,8,0:0:0:0:
334,268,73962,2,0,L|444:258,1,95,0|0,3:0|3:0,0:0:0:0:
196,168,74268,6,0,L|5:150,1,190,4|0,3:2|3:0,0:0:0:0:
22,130,74727,2,0,L|213:112,1,190,8|0,0:0|3:0,0:0:0:0:
74,303,75186,1,12,0:0:0:0:
170,242,75339,6,0,L|73:224,1,95,0|0,3:0|0:0,0:0:0:0:
123,370,75645,2,0,L|217:353,1,95,8|0,0:0|0:0,0:0:0:0:
63,311,75952,1,0,3:0:0:0:
179,162,76105,2,0,P|187:106|176:41,1,95,12|0,0:0|3:0,0:0:0:0:
100,24,76411,1,0,0:0:0:0:
283,152,76564,5,0,0:0:0:0:
283,152,76640,1,8,0:0:0:0:
283,152,76717,2,0,P|331:164|452:73,1,190,4|0,3:2|3:0,0:0:0:0:
512,253,77176,2,0,P|464:265|343:174,1,190,8|0,0:0|3:0,0:0:0:0:
339,67,77635,1,12,0:0:0:0:
435,287,77788,6,0,L|428:384,1,95,0|0,3:0|0:0,0:0:0:0:
319,294,78094,1,8,0:0:0:0:
450,175,78247,2,0,L|443:80,1,95,0|0,0:0|3:0,0:0:0:0:
182,132,78554,5,12,0:0:0:0:
182,132,78656,2,0,P|176:180|181:220,1,63.3333333333333,0|0,3:0|3:0,3:0:0:0:
330,205,78860,1,8,0:0:0:0:
330,205,78962,2,0,P|336:157|331:117,1,63.3333333333333,0|0,3:0|3:0,3:0:0:0:
202,281,79166,6,0,B|112:274|140:351|36:338,1,170.999994781494,4|0,3:2|3:0,0:0:0:0:
314,325,79625,2,0,B|404:318|376:395|480:382,1,170.999994781494,8|0,0:0|3:0,0:0:0:0:
242,368,80084,1,12,0:0:0:0:
325,238,80237,6,0,L|313:125,1,85.4999973907472,0|0,3:0|0:0,0:0:0:0:
187,32,80543,2,0,L|199:145,1,85.4999973907472,8|0,0:0|0:0,0:0:0:0:
307,49,80850,1,0,3:0:0:0:
172,207,81003,2,0,P|119:211|69:183,1,85.4999973907472,12|0,0:0|0:0,0:0:0:0:
67,180,81232,1,8,0:0:0:0:
67,180,81309,1,0,3:0:0:0:
160,301,81462,1,8,0:0:0:0:
286,137,81615,6,0,P|346:114|435:179,1,170.999994781494,4|0,3:2|3:0,0:0:0:0:
363,370,82074,2,0,L|348:201,1,170.999994781494,8|0,0:0|3:0,0:0:0:0:
327,19,82533,1,12,0:0:0:0:
327,19,82839,5,0,3:0:0:0:
400,73,82992,2,0,P|348:107|294:107,1,85.4999973907472,8|0,0:0|0:0,0:0:0:0:
61,79,83299,1,0,0:0:0:0:
61,79,83375,1,8,0:0:0:0:
61,79,83452,2,0,P|131:61|225:193,1,256.499992172241,8|0,0:0|0:0,0:0:0:0:
33,292,84064,6,0,B|68:178|199:174|247:221|291:256|360:384|530:322|558:287|615:131|578:-74|440:35|290:19|319:95|268:199|352:198|408:209|422:152,1,950,4|0,0:0|0:0,0:0:0:0:
