osu file format v14

[General]
AudioFilename: audio.mp3
AudioLeadIn: 0
PreviewTime: 54293
Countdown: 0
SampleSet: Soft
StackLeniency: 0.3
Mode: 0
LetterboxInBreaks: 0
WidescreenStoryboard: 1

[Editor]
Bookmarks: 14263,35079
DistanceSpacing: 0.9
BeatDivisor: 4
GridSize: 4
TimelineZoom: 1.5

[Metadata]
Title:Sayonara Moon Town
TitleUnicode:サヨナラムーンタウン
Artist:Scenarioart
ArtistUnicode:シナリオアート
Creator:toybot
Version:Normal
Source:BORUTO-ボルト- NARUTO NEXT GENERATIONS
Tags:naruto-ナルト- 疾風伝 ボルト:新世代ナルト shippuden opening
BeatmapID:1372343
BeatmapSetID:647217

[Difficulty]
HPDrainRate:4
CircleSize:3.5
OverallDifficulty:5
ApproachRate:5.5
SliderMultiplier:1.15
SliderTickRate:1

[Events]
//Background and Video events
0,0,"image.jpg",0,0
Video,0,"video.flv"
//Break Periods
//Storyboard Layer 0 (Background)
//Storyboard Layer 1 (Fail)
//Storyboard Layer 2 (Pass)
//Storyboard Layer 3 (Foreground)
//Storyboard Sound Samples

[TimingPoints]
799,306.122448979592,4,2,1,70,1,0
13656,-100,4,2,1,60,0,0
13809,-100,4,2,1,5,0,0
13885,-100,4,2,1,60,0,0
14038,-100,4,2,1,5,0,0
14115,-100,4,2,1,60,0,0
14191,-100,4,2,1,5,0,0
14268,-100,4,2,1,60,0,0
33860,-100,4,2,1,30,0,0
34472,-100,4,2,1,25,0,0
34931,-100,4,2,1,40,0,0
35084,-100,4,2,1,65,0,0
42355,-100,4,2,1,5,0,0
42431,-100,4,2,1,65,0,0
44880,-100,4,2,1,65,0,0
52227,-100,4,2,1,65,0,0
52686,-100,4,2,1,65,0,0
53145,-100,4,2,1,65,0,0
53452,-100,4,2,1,50,0,0
53911,-100,4,2,1,40,0,0
54370,-100,4,2,1,50,0,0
54600,-100,4,2,1,5,0,0
54676,-100,4,2,1,70,0,1
74268,-100,4,2,1,60,0,1
79166,-100,4,2,1,65,0,1
84064,-100,4,2,1,50,0,0
87125,-100,4,2,1,5,0,0

[Colours]
Combo1 : 201,201,148
Combo2 : 230,0,115
Combo3 : 108,0,217
Combo4 : 0,128,192

[HitObjects]
40,112,799,6,0,L|156:104,1,115,4|8,3:2|0:0,0:0:0:0:
204,120,1258,2,0,P|232:104|264:12,1,115,0|0,0:0|3:0,0:0:0:0:
316,16,1717,1,8,0:0:0:0:
376,100,2023,2,0,P|364:176|364:236,1,115,0|8,3:2|0:0,0:0:0:0:
388,260,2482,2,0,P|320:256|264:352,1,172.5,0|8,0:0|0:0,0:0:0:0:
168,372,3247,5,0,3:2:0:0:
76,324,3554,1,8,0:0:0:0:
76,324,3707,2,0,P|74:269|64:200,1,115,0|0,0:0|3:0,0:0:0:0:
112,184,4166,2,0,L|184:196,1,57.5,8|0,0:0|0:0,0:0:0:0:
212,220,4472,1,0,3:2:0:0:
308,180,4778,1,8,0:0:0:0:
308,180,4931,2,0,P|309:125|320:56,1,115,0|0,0:0|3:0,0:0:0:0:
356,32,5390,1,8,0:0:0:0:
448,84,5696,6,0,P|476:144|460:208,1,115,0|8,3:2|0:0,0:0:0:0:
428,224,6156,2,0,L|440:356,1,115,0|0,0:0|3:0,0:0:0:0:
388,356,6615,2,0,L|320:344,1,57.5,8|0,0:0|0:0,0:0:0:0:
288,320,6921,1,0,3:2:0:0:
196,364,7227,1,8,0:0:0:0:
196,364,7380,2,0,P|152:352|80:352,1,115,0|0,0:0|3:0,0:0:0:0:
32,360,7839,1,8,0:0:0:0:
60,260,8145,6,0,L|48:184,2,57.5,0|0|8,3:2|0:0|0:0,0:0:0:0:
112,272,8605,2,0,P|168:252|228:252,1,115,0|0,0:0|3:0,0:0:0:0:
272,264,9064,2,0,P|296:220|280:140,1,115,8|0,0:0|3:0,0:0:0:0:
186,154,9676,1,8,0:0:0:0:
138,62,9982,2,0,P|111:52|83:50,2,57.5,0|0|8,3:0|3:0|0:0,0:0:0:0:
232,28,10594,6,0,L|356:20,1,115,4|8,3:2|0:0,0:0:0:0:
392,44,11054,2,0,P|408:88|396:156,1,115,0|0,0:0|3:0,0:0:0:0:
356,188,11513,2,0,L|368:248,1,57.5,8|0,0:0|0:0,0:0:0:0:
348,292,11819,1,0,3:2:0:0:
448,326,12125,1,8,0:0:0:0:
479,231,12431,1,0,3:0:0:0:
479,231,12584,2,0,P|449:183|456:123,1,115,8|4,3:0|3:0,0:0:0:0:
475,79,13043,6,0,B|359:99|367:27|247:51,1,230,2|8,0:3|0:0,0:0:0:0:
68,56,14268,6,0,P|48:108|68:188,1,115,4|8,3:2|0:0,0:0:0:0:
96,200,14727,2,0,L|112:336,2,115,0|0|8,0:0|3:0|0:0,0:0:0:0:
144,180,15492,1,0,0:0:0:0:
232,232,15799,1,8,0:0:0:0:
232,232,15952,2,0,P|288:240|360:200,1,115,0|0,0:0|3:0,0:0:0:0:
372,176,16411,1,8,0:0:0:0:
312,92,16717,6,0,P|259:70|203:78,1,115,0|8,3:0|0:0,0:0:0:0:
152,72,17176,2,0,L|168:208,1,115,0|0,0:0|3:0,0:0:0:0:
96,264,17788,1,8,0:0:0:0:
96,264,17941,2,0,L|32:260,2,57.5,0|0|8,0:0|3:0|0:0,0:0:0:0:
188,308,18554,2,0,L|200:380,2,57.5,0|0|8,3:0|3:0|0:0,0:0:0:0:
260,232,19166,6,0,P|264:177|276:92,1,115,0|8,3:0|0:0,0:0:0:0:
248,72,19625,2,0,P|288:40|368:60,1,115,0|0,0:0|3:0,0:0:0:0:
436,100,20237,1,8,0:0:0:0:
436,100,20390,2,0,P|432:188|432:224,1,115,0|8,0:0|0:0,0:0:0:0:
456,260,20850,2,0,B|368:240|384:304|280:280,1,172.5,0|8,0:0|0:0,0:0:0:0:
196,328,21615,5,0,3:0:0:0:
108,276,21921,1,8,0:0:0:0:
108,276,22074,2,0,P|108:224|96:148,1,115,0|0,0:0|3:0,0:0:0:0:
160,76,22686,1,8,0:0:0:0:
160,76,22839,2,0,L|148:16,2,57.5,0|0|8,0:0|3:0|0:0,0:0:0:0:
248,128,23452,2,0,L|316:136,2,57.5,0|0|8,3:0|3:0|0:0,0:0:0:0:
180,204,24064,6,0,P|164:268|164:328,1,115,4|8,3:2|0:0,0:0:0:0:
208,344,24523,2,0,P|248:316|328:328,1,115,0|0,0:0|3:0,0:0:0:0:
408,352,25135,1,8,0:0:0:0:
408,352,25288,2,0,L|421:219,1,115,0|8,0:0|0:0,0:0:0:0:
413,186,25747,1,0,3:0:0:0:
452,92,26054,1,0,3:0:0:0:
452,92,26207,2,0,P|417:100|392:100,1,57.5,8|0,0:0|0:0,0:0:0:0:
348,120,26513,6,0,P|296:104|232:112,1,115,0|8,3:0|0:0,0:0:0:0:
184,100,26972,2,0,L|164:228,2,115,0|0|8,0:0|3:0|0:0,0:0:0:0:
88,56,27890,1,0,3:0:0:0:
88,56,28043,1,8,0:0:0:0:
28,140,28350,2,0,L|44:200,1,57.5,0|0,3:0|3:0,0:0:0:0:
16,240,28656,2,0,P|13:270|4:312,1,57.5,8|0,0:0|0:0,0:0:0:0:
44,336,28962,6,0,P|84:300|152:304,1,115,0|8,3:0|0:0,0:0:0:0:
188,328,29421,2,0,L|312:312,1,115,0|0,0:0|3:0,0:0:0:0:
360,228,30033,1,8,0:0:0:0:
360,228,30186,2,0,L|232:212,1,115,0|8,0:0|0:0,0:0:0:0:
196,232,30645,2,0,P|172:172|248:84,1,172.5,0|8,0:0|0:0,0:0:0:0:
328,124,31411,5,2,3:2:0:0:
428,100,31717,1,10,0:0:0:0:
396,200,32023,1,0,0:0:0:0:
328,124,32329,2,0,L|264:120,1,57.5,2|8,0:0|0:0,0:0:0:0:
228,89,32635,5,2,0:0:0:0:
144,160,32941,2,0,P|139:131|133:103,1,57.5,10|0,0:0|0:0,0:0:0:0:
120,52,33247,1,8,0:0:0:0:
120,52,33401,1,8,0:0:0:0:
48,188,33860,6,0,P|76:236|228:208,1,230,2|2,0:3|0:3,0:0:0:0:
344,116,35084,6,0,P|377:112|424:104,1,57.5,4|0,3:2|0:0,0:0:0:0:
452,100,35390,2,0,L|440:172,1,57.5,2|0,0:0|3:0,0:0:0:0:
416,200,35696,2,0,L|436:340,2,115,8|2|8,0:0|0:0|0:0,0:0:0:0:
240,308,36921,1,8,0:0:0:0:
144,264,37227,1,2,0:0:0:0:
188,168,37533,6,0,L|172:108,1,57.5,8|0,0:0|0:0,0:0:0:0:
212,76,37839,2,0,L|220:12,1,57.5,2|0,0:0|3:0,0:0:0:0:
272,24,38145,2,0,P|320:16|400:48,2,115,8|2|8,0:0|0:0|0:0,0:0:0:0:
400,188,39370,1,8,0:0:0:0:
332,264,39676,1,2,0:0:0:0:
236,224,39982,6,0,L|164:216,2,57.5,12|0|2,0:0|0:0|0:0,0:0:0:0:
276,192,40441,1,0,3:0:0:0:
276,192,40594,2,0,L|260:60,1,115,8|2,0:0|0:0,0:0:0:0:
164,40,41207,2,0,P|135:85|64:92,1,115,8|2,0:0|0:0,0:0:0:0:
28,84,41666,2,0,L|20:160,1,57.5,0|8,3:0|0:0,0:0:0:0:
92,220,42125,1,2,0:0:0:0:
48,312,42431,6,0,B|132:284|120:360|232:328,1,172.5,8|0,0:0|3:0,0:0:0:0:
264,344,43043,2,0,P|280:288|268:232,1,115,8|2,0:0|0:0,0:0:0:0:
236,196,43503,2,0,L|228:128,1,57.5,0|8,0:0|0:0,0:0:0:0:
264,100,43809,1,0,0:0:0:0:
264,100,43962,1,2,0:0:0:0:
356,152,44268,2,0,L|416:144,2,57.5,8|8|2,0:0|0:0|3:2,0:0:0:0:
316,248,44880,6,0,P|322:275|332:312,1,57.5,4|0,0:0|0:0,0:0:0:0:
284,332,45186,2,0,P|244:320|216:316,1,57.5,2|0,0:0|3:0,0:0:0:0:
176,328,45492,2,0,P|168:280|136:208,2,115,8|2|8,0:0|0:0|0:0,0:0:0:0:
20,188,46717,1,8,0:0:0:0:
56,92,47023,1,2,0:0:0:0:
156,116,47329,6,0,L|220:108,1,57.5,8|0,0:0|0:0,0:0:0:0:
256,80,47635,2,0,L|328:92,1,57.5,2|0,0:0|3:0,0:0:0:0:
360,116,47941,2,0,L|348:0,2,115,8|2|8,0:0|0:0|0:0,0:0:0:0:
488,276,49166,1,8,0:0:0:0:
388,244,49472,1,2,0:0:0:0:
312,312,49778,6,0,L|240:324,1,57.5,4|0,3:2|0:0,0:0:0:0:
208,300,50084,2,0,L|144:292,1,57.5,2|0,0:0|3:0,0:0:0:0:
104,320,50390,2,0,P|76:276|96:196,1,115,8|2,0:0|0:0,0:0:0:0:
148,136,51003,1,8,0:0:0:0:
92,48,51309,2,0,P|53:44|24:40,2,57.5,2|0|8,0:0|3:0|0:0,0:0:0:0:
188,16,51921,1,2,0:0:0:0:
264,88,52227,6,0,L|388:64,1,115,4|0,0:0|3:0,0:0:0:0:
424,44,52686,2,0,L|396:176,1,115,8|0,0:0|3:0,0:0:0:0:
416,204,53145,1,8,0:0:0:0:
476,288,53452,2,0,B|392:272|404:344|308:324,1,172.5,8|2,0:0|0:0,0:0:0:0:
71,233,54676,6,0,L|59:97,1,115,4|10,3:2|0:0,0:0:0:0:
161,140,55288,1,0,3:0:0:0:
232,64,55594,1,10,0:0:0:0:
328,104,55901,2,0,P|384:91|456:84,2,115,0|10|0,3:0|0:0|3:0,0:0:0:0:
240,160,56819,1,10,0:0:0:0:
136,176,57125,6,0,P|92:148|88:68,1,115,0|10,3:0|0:0,0:0:0:0:
60,40,57584,2,0,L|196:64,1,115,0|0,0:0|3:0,0:0:0:0:
220,80,58043,1,10,0:0:0:0:
220,80,58196,2,0,P|264:48|336:56,1,115,0|0,0:0|0:0,0:0:0:0:
368,76,58656,1,10,0:0:0:0:
440,152,58962,2,0,L|504:136,2,57.5,0|0|10,0:0|3:0|0:0,0:0:0:0:
360,220,59574,5,4,0:0:0:0:
292,296,59880,2,0,P|236:320|180:304,1,115,10|0,0:0|3:0,0:0:0:0:
84,332,60492,2,0,L|68:196,1,115,10|4,0:0|3:2,0:0:0:0:
120,128,61105,1,10,0:0:0:0:
212,168,61411,2,0,P|257:149|330:137,1,115,0|10,3:0|0:0,0:0:0:0:
309,34,62023,6,0,P|256:56|199:66,1,115,4|10,3:2|0:0,0:0:0:0:
103,29,62635,1,0,3:0:0:0:
120,128,62941,1,10,0:0:0:0:
89,226,63247,2,0,L|77:290,1,57.5,0|0,3:0|0:0,0:0:0:0:
117,318,63554,2,0,P|173:306|241:302,1,115,10|8,0:0|3:2,0:0:0:0:
277,322,64013,1,0,3:2:0:0:
277,322,64166,1,10,0:0:0:0:
360,265,64472,6,0,P|372:209|344:149,1,115,4|10,3:2|0:0,0:0:0:0:
378,57,65084,2,0,L|254:73,1,115,0|10,3:0|0:0,0:0:0:0:
164,104,65696,1,0,3:0:0:0:
64,84,66003,1,10,0:0:0:0:
16,176,66309,2,0,P|24:232|32:256,1,57.5,0|0,3:0|0:0,0:0:0:0:
64,268,66615,2,0,P|58:296|55:324,1,57.5,10|0,0:0|0:0,0:0:0:0:
100,352,66921,6,0,P|156:332|216:336,1,115,0|10,3:0|0:0,0:0:0:0:
260,356,67380,2,0,L|392:344,1,115,0|0,0:0|3:0,0:0:0:0:
424,360,67839,1,10,0:0:0:0:
424,360,67992,2,0,P|460:308|452:248,1,115,0|0,0:0|0:0,0:0:0:0:
428,216,68452,1,10,0:0:0:0:
476,124,68758,2,0,L|404:116,1,57.5,0|0,3:0|3:0,0:0:0:0:
372,92,69064,1,10,0:0:0:0:
292,156,69370,5,4,3:2:0:0:
204,100,69676,2,0,L|84:116,1,115,10|0,0:0|3:0,0:0:0:0:
36,204,70288,2,0,P|100:208|152:248,1,115,10|4,0:0|3:2,0:0:0:0:
184,332,70901,1,10,0:0:0:0:
268,276,71207,2,0,L|256:208,1,57.5,0|0,3:0|3:0,0:0:0:0:
292,180,71513,1,10,0:0:0:0:
380,236,71819,6,0,L|360:368,2,115,4|10|0,3:2|0:0|3:0,0:0:0:0:
416,140,72737,1,10,0:0:0:0:
344,68,73043,2,0,P|312:76|276:84,1,57.5,0|0,3:0|0:0,0:0:0:0:
243,108,73350,2,0,P|303:120|351:168,1,115,12|8,0:0|0:0,0:0:0:0:
323,204,73809,1,8,0:0:0:0:
323,204,73962,2,0,L|311:288,1,57.5,0|0,3:0|3:0,0:0:0:0:
341,305,74268,6,0,B|253:281|265:361|169:337,1,172.5,4|8,3:2|0:0,0:0:0:0:
60,238,75186,1,12,0:0:0:0:
60,238,75339,2,0,L|52:106,1,115,0|8,3:0|0:0,0:0:0:0:
136,60,75952,1,0,3:0:0:0:
184,80,76105,2,0,L|244:68,1,57.5,12|0,0:0|3:0,0:0:0:0:
288,92,76411,1,0,3:0:0:0:
388,60,76717,6,0,L|376:248,1,172.5,4|8,3:2|0:0,0:0:0:0:
456,364,77635,1,12,0:0:0:0:
456,364,77788,2,0,P|392:344|332:364,1,115,0|8,3:0|0:0,0:0:0:0:
244,368,78401,1,0,3:0:0:0:
200,344,78554,2,0,L|208:272,1,57.5,12|8,0:0|0:0,0:0:0:0:
176,244,78860,2,0,L|160:172,1,57.5,0|0,3:0|3:0,0:0:0:0:
200,152,79166,6,0,B|284:164|284:164|376:124,2,172.5,4|8|12,3:2|0:0|0:0,0:0:0:0:
152,136,80237,1,0,3:0:0:0:
57,178,80543,2,0,L|33:54,1,115,8|0,0:0|3:0,0:0:0:0:
73,26,81003,2,0,P|109:18|181:74,1,115,12|0,0:0|3:0,0:0:0:0:
217,82,81462,1,8,0:0:0:0:
217,82,81615,6,0,L|341:70,1,115,4|0,3:2|3:0,0:0:0:0:
381,90,82074,1,8,0:0:0:0:
351,189,82380,1,0,3:0:0:0:
351,189,82533,2,0,P|263:177|187:289,1,230,12|0,0:0|0:0,0:0:0:0:
291,277,83452,2,0,B|327:147|243:182|273:33,1,230,8|4,0:0|0:0,0:0:0:0:
256,192,84217,12,0,87125,0:0:0:0:
