osu file format v14

[General]
AudioFilename: audio.mp3
AudioLeadIn: 0
PreviewTime: 54293
Countdown: 0
SampleSet: Soft
StackLeniency: 0.3
Mode: 0
LetterboxInBreaks: 0
WidescreenStoryboard: 1

[Editor]
Bookmarks: 14263,35079
DistanceSpacing: 0.3
BeatDivisor: 4
GridSize: 4
TimelineZoom: 1.5

[Metadata]
Title:Sayonara Moon Town
TitleUnicode:サヨナラムーンタウン
Artist:Scenarioart
ArtistUnicode:シナリオアート
Creator:toybot
Version:Insane
Source:BORUTO-ボルト- NARUTO NEXT GENERATIONS
Tags:naruto-ナルト- 疾風伝 ボルト:新世代ナルト shippuden opening
BeatmapID:1383192
BeatmapSetID:647217

[Difficulty]
HPDrainRate:5.5
CircleSize:4.5
OverallDifficulty:8
ApproachRate:9
SliderMultiplier:1.6
SliderTickRate:1

[Events]
//Background and Video events
0,0,"image.jpg",0,0
Video,0,"video.flv"
//Break Periods
//Storyboard Layer 0 (Background)
//Storyboard Layer 1 (Fail)
//Storyboard Layer 2 (Pass)
//Storyboard Layer 3 (Foreground)
//Storyboard Sound Samples

[TimingPoints]
799,306.122448979592,4,2,1,70,1,0
13043,-133.333333333333,4,2,1,70,0,0
13656,-100,4,2,1,60,0,0
13809,-100,4,2,1,5,0,0
13885,-100,4,2,1,60,0,0
14038,-100,4,2,1,5,0,0
14115,-100,4,2,1,60,0,0
14191,-100,4,2,1,5,0,0
14268,-111.111111111111,4,2,1,60,0,0
23834,-111.111111111111,4,2,1,40,0,0
24064,-111.111111111111,4,2,1,60,0,0
33860,-200,4,2,1,30,0,0
34472,-166.666666666667,4,2,1,25,0,0
34931,-111.111111111111,4,2,1,40,0,0
35084,-111.111111111111,4,2,1,65,0,0
42355,-100,4,2,1,5,0,0
42431,-100,4,2,1,65,0,0
44880,-111.111111111111,4,2,1,65,0,0
52227,-100,4,2,1,65,0,0
52686,-100,4,2,1,65,0,0
53145,-100,4,2,1,65,0,0
53452,-100,4,2,1,50,0,0
53911,-100,4,2,1,40,0,0
54370,-100,4,2,1,50,0,0
54600,-100,4,2,1,5,0,0
54676,-100,4,2,1,70,0,1
74268,-100,4,2,1,60,0,1
79166,-100,4,2,1,65,0,1
84064,-100,4,2,1,50,0,0
84140,-100,4,2,1,5,0,0
87125,-100,4,2,1,5,0,0

[Colours]
Combo1 : 201,201,148
Combo2 : 230,0,115
Combo3 : 108,0,217
Combo4 : 0,128,192

[HitObjects]
0,132,799,6,0,B|67:173|67:173|147:150,1,160,4|8,3:2|0:0,0:0:0:0:
261,214,1258,2,0,L|181:222,1,80,0|0,0:0|3:0,0:0:0:0:
324,156,1564,1,0,3:0:0:0:
188,83,1717,2,0,L|287:100,1,80,8|0,0:0|0:0,0:0:0:0:
467,90,2023,6,0,L|387:98,1,80,0|0,3:2|0:0,0:0:0:0:
364,296,2329,1,8,0:0:0:0:
431,343,2482,2,0,P|438:266|381:215,1,160,0|0,0:0|3:0,0:0:0:0:
228,184,2941,2,0,P|220:224|236:276,1,80,8|0,0:0|0:0,0:0:0:0:
368,208,3247,6,0,P|376:168|360:116,1,80,0|0,3:2|0:0,0:0:0:0:
232,40,3554,1,8,0:0:0:0:
304,72,3707,2,0,L|136:100,1,160,0|0,0:0|3:0,0:0:0:0:
8,28,4166,2,0,L|88:40,1,80,8|0,0:0|0:0,0:0:0:0:
152,184,4472,6,0,L|72:172,1,80,0|0,3:2|0:0,0:0:0:0:
228,283,4778,1,8,0:0:0:0:
274,216,4931,2,0,P|218:204|146:292,1,160,0|0,0:0|3:0,0:0:0:0:
336,282,5390,1,8,0:0:0:0:
293,131,5543,1,0,0:0:0:0:
461,177,5696,6,0,P|422:187|382:189,1,80,0|0,3:2|0:0,0:0:0:0:
271,24,6003,1,8,0:0:0:0:
351,49,6156,2,0,B|430:41|411:102|505:93,1,160,0|0,0:0|3:0,0:0:0:0:
302,210,6615,2,0,L|292:130,1,80,8|0,0:0|0:0,0:0:0:0:
431,27,6921,6,0,L|421:106,1,80,0|0,3:2|0:0,0:0:0:0:
302,210,7227,1,8,0:0:0:0:
218,117,7380,2,0,P|270:60|345:75,1,160,0|0,0:0|3:0,0:0:0:0:
213,205,7839,2,0,P|173:207|127:193,1,80,8|0,0:0|0:0,0:0:0:0:
149,28,8145,5,0,3:2:0:0:
149,28,8299,2,0,P|188:25|235:40,1,80,0|8,0:0|0:0,0:0:0:0:
370,152,8605,1,0,0:0:0:0:
320,221,8759,2,0,P|297:188|287:140,1,80,0|0,3:0|3:0,0:0:0:0:
463,28,9064,5,8,0:0:0:0:
452,189,9217,1,0,0:0:0:0:
384,46,9370,1,0,3:2:0:0:
370,152,9523,1,0,0:0:0:0:
303,37,9676,6,0,L|204:21,1,80,8|0,0:0|0:0,0:0:0:0:
124,198,9982,1,0,3:0:0:0:
266,157,10135,1,0,3:0:0:0:
181,101,10288,2,0,L|194:185,1,80,8|0,0:0|0:0,0:0:0:0:
285,275,10594,6,0,P|245:258|149:332,1,160,4|8,3:2|0:0,0:0:0:0:
287,360,11054,2,0,P|334:353|384:353,1,80,0|0,0:0|3:0,0:0:0:0:
315,188,11360,1,0,3:0:0:0:
466,241,11513,2,0,P|426:239|386:233,1,80,8|0,0:0|0:0,0:0:0:0:
203,80,11819,5,0,3:2:0:0:
231,235,11972,1,0,0:0:0:0:
299,93,12125,1,8,0:0:0:0:
160,167,12278,1,0,0:0:0:0:
160,167,12355,1,8,0:0:0:0:
160,167,12431,1,0,3:0:0:0:
315,188,12584,2,0,L|416:176,1,80,0|0,3:0|3:0,0:0:0:0:
473,168,12890,1,4,3:0:0:0:
473,168,13043,5,2,0:3:0:0:
473,168,13656,2,0,B|480:130|480:130|467:82,1,80,8|0,0:0|0:0,0:0:0:0:
319,103,13885,2,0,B|312:141|312:141|325:189,1,80,8|0,0:0|0:0,0:0:0:0:
396,130,14115,2,0,L|393:74,1,40,8|0,0:0|0:0,0:0:0:0:
331,27,14268,6,0,L|188:12,1,143.999995605469,4|8,3:2|0:0,0:0:0:0:
61,87,14727,2,0,P|101:87|135:67,1,71.9999978027344,0|0,0:0|3:0,0:0:0:0:
192,206,15033,2,0,P|155:174|58:174,1,143.999995605469,0|8,3:0|0:0,0:0:0:0:
102,242,15492,6,0,P|133:269|133:382,1,143.999995605469,0|8,0:0|0:0,0:0:0:0:
71,316,15952,2,0,P|65:357|45:389,1,71.9999978027344,0|0,0:0|3:0,0:0:0:0:
24,252,16258,1,0,3:0:0:0:
142,366,16411,1,8,0:0:0:0:
248,236,16564,5,0,0:0:0:0:
248,236,16640,1,0,0:0:0:0:
248,236,16717,2,0,L|400:226,1,143.999995605469,0|8,3:0|0:0,0:0:0:0:
462,315,17176,2,0,P|425:313|386:300,1,71.9999978027344,0|0,0:0|3:0,0:0:0:0:
442,101,17482,2,0,P|477:163|470:234,1,143.999995605469,0|8,3:0|0:0,0:0:0:0:
381,144,17941,2,0,P|350:125|315:121,1,71.9999978027344,0|0,0:0|3:0,0:0:0:0:
371,54,18247,5,8,0:0:0:0:
326,201,18401,1,0,0:0:0:0:
326,201,18477,1,0,0:0:0:0:
326,201,18554,1,0,3:0:0:0:
246,72,18707,1,0,3:0:0:0:
381,144,18860,1,8,0:0:0:0:
381,144,19166,6,0,L|213:167,1,143.999995605469,0|8,3:0|0:0,0:0:0:0:
188,105,19625,2,0,P|166:133|160:168,1,71.9999978027344,0|0,0:0|3:0,0:0:0:0:
286,229,19931,2,0,P|311:190|287:95,1,143.999995605469,0|8,3:0|0:0,0:0:0:0:
209,234,20390,6,0,L|219:318,1,71.9999978027344,0|0,0:0|3:0,0:0:0:0:
283,339,20696,1,8,0:0:0:0:
139,282,20850,2,0,P|71:263|1:276,1,143.999995605469,0|0,0:0|3:0,0:0:0:0:
81,343,21309,2,0,P|37:357|14:378,1,71.9999978027344,8|0,0:0|0:0,0:0:0:0:
138,202,21615,6,0,P|148:149|107:64,1,143.999995605469,0|8,3:0|0:0,0:0:0:0:
72,151,22074,2,0,P|26:173|-15:174,1,71.9999978027344,0|0,0:0|3:0,0:0:0:0:
217,180,22380,2,0,P|251:189|281:209,1,71.9999978027344,0|0,3:0|0:0,0:0:0:0:
68,241,22686,2,0,P|30:290|42:381,1,143.999995605469,8|0,0:0|3:0,0:0:0:0:
234,322,23145,2,0,P|230:286|209:257,1,71.9999978027344,8|0,0:0|0:0,0:0:0:0:
104,320,23452,5,0,3:0:0:0:
168,376,23605,1,0,3:0:0:0:
140,240,23758,1,8,0:0:0:0:
316,277,23911,5,8,0:0:0:0:
316,277,23987,1,8,0:0:0:0:
316,277,24064,2,0,L|302:128,1,143.999995605469,4|8,3:2|0:0,0:0:0:0:
376,101,24523,2,0,P|399:143|433:177,1,71.9999978027344,0|0,0:0|3:0,0:0:0:0:
388,21,24829,2,0,P|352:25|321:42,1,71.9999978027344,0|0,3:0|0:0,0:0:0:0:
459,92,25135,1,8,0:0:0:0:
302,133,25288,6,0,P|274:177|288:267,1,143.999995605469,0|8,0:0|0:0,0:0:0:0:
371,278,25747,2,0,L|353:196,1,71.9999978027344,0|0,0:0|0:0,0:0:0:0:
320,351,26054,1,0,3:0:0:0:
440,233,26207,2,0,L|453:152,1,71.9999978027344,8|0,0:0|0:0,0:0:0:0:
392,97,26513,6,0,B|318:85|332:138|242:120,1,143.999995605469,0|8,3:0|0:0,0:0:0:0:
115,76,26972,2,0,P|148:64|184:65,1,71.9999978027344,0|0,0:0|3:0,0:0:0:0:
204,204,27278,2,0,P|167:216|123:212,1,71.9999978027344,0|0,3:0|0:0,0:0:0:0:
6,143,27584,2,0,L|78:153,1,71.9999978027344,8|0,0:0|0:0,0:0:0:0:
96,10,27890,1,0,3:0:0:0:
204,73,28043,2,0,L|132:82,1,71.9999978027344,8|0,0:0|0:0,0:0:0:0:
56,192,28350,5,0,3:0:0:0:
213,156,28503,1,0,3:0:0:0:
72,219,28656,1,8,0:0:0:0:
207,184,28809,1,0,0:0:0:0:
99,291,28962,6,0,P|157:306|233:240,1,143.999995605469,0|8,3:0|0:0,0:0:0:0:
329,145,29421,2,0,L|322:217,1,71.9999978027344,0|0,0:0|3:0,0:0:0:0:
241,75,29727,2,0,L|248:147,1,71.9999978027344,0|0,3:0|0:0,0:0:0:0:
406,182,30033,1,8,0:0:0:0:
434,265,30186,6,0,B|360:258|375:306|280:295,1,143.999995605469,0|8,0:0|0:0,0:0:0:0:
265,121,30645,2,0,P|300:124|329:145,1,71.9999978027344,0|0,0:0|3:0,0:0:0:0:
224,263,30952,1,0,3:0:0:0:
157,225,31105,2,0,P|155:189|169:156,1,71.9999978027344,8|0,0:0|0:0,0:0:0:0:
296,296,31411,6,0,P|274:340|169:353,1,143.999995605469,2|10,3:2|0:0,0:0:0:0:
288,217,31870,1,0,0:0:0:0:
288,216,32023,2,0,P|323:211|359:208,1,71.9999978027344,2|0,3:2|3:0,0:0:0:0:
174,124,32329,2,0,P|138:121|102:115,1,71.9999978027344,2|8,0:0|0:0,0:0:0:0:
261,68,32635,5,2,0:0:0:0:
190,240,32788,1,0,3:0:0:0:
333,128,32941,2,0,L|349:53,1,71.9999978027344,10|0,0:0|0:0,0:0:0:0:
195,12,33247,5,8,0:0:0:0:
258,183,33401,1,8,0:0:0:0:
258,183,33860,5,2,0:3:0:0:
152,191,34472,1,2,0:3:0:0:
48,201,34931,1,0,0:0:0:0:
48,201,35084,5,4,3:2:0:0:
102,257,35237,1,0,0:0:0:0:
81,331,35390,2,0,P|57:352|10:358,1,71.9999978027344,2|0,0:0|3:0,0:0:0:0:
177,237,35696,2,0,P|207:247|235:284,1,71.9999978027344,8|0,0:0|0:0,0:0:0:0:
48,201,36003,2,0,P|41:169|60:126,1,71.9999978027344,2|0,0:0|3:0,0:0:0:0:
143,89,36309,6,0,L|0:77,1,143.999995605469,8|0,0:0|0:0,0:0:0:0:
219,93,36768,1,0,3:0:0:0:
260,20,36921,2,0,L|188:13,1,71.9999978027344,8|0,0:0|0:0,0:0:0:0:
177,166,37227,2,0,L|248:172,1,71.9999978027344,2|0,0:0|3:0,0:0:0:0:
358,81,37533,5,8,0:0:0:0:
381,210,37686,1,0,0:0:0:0:
438,92,37839,1,2,0:0:0:0:
322,153,37992,1,0,3:0:0:0:
451,171,38145,2,0,P|461:214|453:248,1,71.9999978027344,8|0,0:0|0:0,0:0:0:0:
333,369,38452,2,0,P|323:334|328:299,1,71.9999978027344,2|0,0:0|3:0,0:0:0:0:
381,210,38758,6,0,P|353:252|245:245,1,143.999995605469,8|0,0:0|0:0,0:0:0:0:
322,117,39217,1,0,3:0:0:0:
303,192,39370,2,0,P|272:176|251:147,1,71.9999978027344,8|0,0:0|0:0,0:0:0:0:
322,116,39676,2,0,P|310:83|310:47,1,71.9999978027344,2|0,0:0|3:0,0:0:0:0:
455,60,39982,6,0,L|384:69,1,71.9999978027344,12|0,0:0|0:0,0:0:0:0:
179,139,40288,2,0,L|250:147,1,71.9999978027344,2|0,0:0|3:0,0:0:0:0:
456,190,40594,2,0,L|312:205,1,143.999995605469,8|2,0:0|0:0,0:0:0:0:
187,325,41207,5,8,0:0:0:0:
187,325,41513,1,2,0:0:0:0:
148,255,41666,2,0,P|199:246|269:323,1,143.999995605469,0|0,3:0|0:0,0:0:0:0:
85,310,42125,2,0,P|68:272|78:215,1,71.9999978027344,2|0,0:0|0:0,0:0:0:0:
192,97,42431,6,0,P|209:135|196:204,1,80,8|0,0:0|0:0,0:0:0:0:
118,63,42737,1,2,0:0:0:0:
118,63,42890,2,0,L|283:72,1,160,0|0,3:0|0:0,0:0:0:0:
447,183,43350,2,0,L|282:192,1,160,2|8,0:0|0:0,0:0:0:0:
341,21,43809,5,0,0:0:0:0:
341,21,43962,2,0,P|358:62|341:121,1,80,2|0,0:0|3:0,0:0:0:0:
228,240,44268,2,0,P|211:199|228:140,1,80,8|8,0:0|0:0,0:0:0:0:
277,71,44574,1,2,3:2:0:0:
277,71,44880,5,4,0:0:0:0:
287,191,45033,1,0,0:0:0:0:
410,123,45186,2,0,L|329:131,1,71.9999978027344,2|0,0:0|3:0,0:0:0:0:
156,232,45492,2,0,L|237:240,1,71.9999978027344,8|0,0:0|0:0,0:0:0:0:
194,85,45799,2,0,P|199:130|203:170,1,71.9999978027344,2|0,0:0|3:0,0:0:0:0:
324,273,46105,6,0,P|327:201|338:129,1,143.999995605469,8|0,0:0|0:0,0:0:0:0:
402,212,46564,1,0,3:0:0:0:
227,239,46717,2,0,L|150:232,1,71.9999978027344,8|0,0:0|0:0,0:0:0:0:
202,156,47023,1,2,0:0:0:0:
254,317,47176,1,0,3:0:0:0:
95,280,47329,6,0,P|81:243|90:187,1,71.9999978027344,8|0,0:0|0:0,0:0:0:0:
264,105,47635,2,0,P|277:138|277:173,1,71.9999978027344,2|0,0:0|3:0,0:0:0:0:
66,106,47941,1,8,0:0:0:0:
202,156,48247,1,2,0:0:0:0:
92,311,48554,6,0,P|60:251|82:170,1,143.999995605469,8|2,0:0|0:0,0:0:0:0:
140,58,49013,1,0,3:0:0:0:
211,127,49166,2,0,L|134:135,1,71.9999978027344,8|0,0:0|0:0,0:0:0:0:
280,76,49472,2,0,L|294:177,1,71.9999978027344,2|0,0:0|3:0,0:0:0:0:
218,31,49778,5,4,3:2:0:0:
360,102,49931,1,0,0:0:0:0:
211,127,50084,1,2,0:0:0:0:
320,13,50237,1,0,3:0:0:0:
136,62,50390,2,0,L|280:76,1,143.999995605469,8|2,0:0|0:0,0:0:0:0:
459,191,51003,6,0,P|388:189|329:227,1,143.999995605469,8|2,0:0|0:0,0:0:0:0:
283,298,51462,2,0,P|318:307|354:306,1,71.9999978027344,0|8,3:0|0:0,0:0:0:0:
426,269,51768,1,0,0:0:0:0:
307,159,51921,2,0,P|312:195|329:227,1,71.9999978027344,2|0,0:0|3:0,0:0:0:0:
379,58,52227,6,0,P|356:101|240:95,1,160,4|0,0:0|3:0,0:0:0:0:
90,139,52686,2,0,P|166:129|214:189,1,160,8|0,0:0|3:0,0:0:0:0:
126,341,53145,2,0,P|103:308|101:269,1,80,8|0,0:0|0:0,0:0:0:0:
290,192,53452,5,8,0:0:0:0:
278,229,53528,1,8,0:0:0:0:
248,256,53605,1,8,0:0:0:0:
210,264,53681,1,8,0:0:0:0:
172,252,53758,1,8,0:0:0:0:
90,139,53911,1,2,0:0:0:0:
90,139,54370,6,0,L|103:16,1,120,0|0,0:0|0:0,0:0:0:0:
102,18,54676,6,0,P|140:11|179:20,1,80,4|0,3:2|0:0,0:0:0:0:
128,208,54982,2,0,P|89:215|50:206,1,80,10|0,0:0|0:0,0:0:0:0:
204,104,55288,2,0,B|284:88|272:152|372:132,1,160,0|10,3:0|0:0,0:0:0:0:
500,60,55747,1,0,0:0:0:0:
412,8,55901,6,0,L|424:104,1,80,0|0,3:0|0:0,0:0:0:0:
400,264,56207,2,0,L|418:186,1,80,10|0,0:0|0:0,0:0:0:0:
196,127,56513,2,0,L|355:133,1,160,0|10,3:0|0:0,0:0:0:0:
493,218,56972,1,0,0:0:0:0:
512,141,57125,6,0,P|464:145|425:258,1,160,0|10,3:0|0:0,0:0:0:0:
305,230,57584,2,0,P|378:252|400:325,1,160,0|0,0:0|3:0,0:0:0:0:
493,218,58043,1,10,0:0:0:0:
326,306,58196,6,0,L|161:298,1,160,0|0,0:0|0:0,0:0:0:0:
38,219,58656,2,0,P|77:212|115:221,1,80,10|0,0:0|0:0,0:0:0:0:
107,365,58962,2,0,P|67:371|29:362,1,80,0|0,3:0|3:0,0:0:0:0:
166,298,59268,2,0,L|262:288,1,80,10|0,0:0|0:0,0:0:0:0:
398,192,59574,5,4,0:0:0:0:
398,192,59880,2,0,P|337:201|256:125,1,160,10|0,0:0|3:0,0:0:0:0:
274,5,60339,1,0,3:0:0:0:
345,35,60492,2,0,P|353:74|347:114,1,80,10|0,0:0|0:0,0:0:0:0:
193,185,60799,6,0,P|184:146|191:106,1,80,4|0,3:2|0:0,0:0:0:0:
304,226,61105,1,10,0:0:0:0:
181,285,61258,1,0,0:0:0:0:
262,144,61411,2,0,L|361:160,1,80,0|0,3:0|3:0,0:0:0:0:
399,320,61717,2,0,L|300:304,1,80,10|0,0:0|0:0,0:0:0:0:
371,79,62023,6,0,P|418:139|397:214,1,160,4|10,3:2|0:0,0:0:0:0:
242,226,62482,1,0,0:0:0:0:
293,67,62635,1,0,3:0:0:0:
340,156,62788,1,0,3:0:0:0:
202,65,62941,2,0,L|221:165,1,80,10|0,0:0|0:0,0:0:0:0:
307,285,63247,5,0,3:0:0:0:
162,235,63401,1,0,0:0:0:0:
318,194,63554,1,10,0:0:0:0:
217,310,63707,1,0,0:0:0:0:
203,156,63860,2,0,L|188:77,1,80,8|0,3:2|3:2,0:0:0:0:
274,26,64166,1,10,0:0:0:0:
303,30,64242,1,8,0:0:0:0:
333,34,64319,1,8,0:0:0:0:
362,39,64395,1,8,0:0:0:0:
392,43,64472,6,0,L|487:32,1,80,4|0,3:2|0:0,0:0:0:0:
359,200,64778,2,0,L|264:211,1,80,10|0,0:0|0:0,0:0:0:0:
334,124,65084,2,0,B|416:108|407:171|506:147,1,160,0|10,3:0|0:0,0:0:0:0:
459,74,65543,1,0,0:0:0:0:
359,200,65696,6,0,P|354:239|364:280,1,80,0|0,3:0|0:0,0:0:0:0:
448,315,66003,2,0,P|452:276|443:237,1,80,10|0,0:0|0:0,0:0:0:0:
288,324,66309,2,0,P|244:268|152:288,1,160,0|10,3:0|0:0,0:0:0:0:
20,348,66768,1,0,0:0:0:0:
100,360,66921,6,0,L|88:248,1,80,0|0,3:0|0:0,0:0:0:0:
44,128,67227,1,10,0:0:0:0:
4,200,67380,2,0,P|68:204|128:124,1,160,0|0,0:0|3:0,0:0:0:0:
183,51,67839,1,10,0:0:0:0:
224,124,67992,6,0,P|160:128|100:48,1,160,0|0,0:0|0:0,0:0:0:0:
289,77,68452,2,0,P|303:120|284:185,1,80,10|0,0:0|0:0,0:0:0:0:
318,5,68758,2,0,P|349:28|368:63,1,80,0|0,3:0|3:0,0:0:0:0:
295,240,69064,1,10,0:0:0:0:
441,185,69217,5,0,0:0:0:0:
441,185,69293,1,0,0:0:0:0:
441,185,69370,2,0,L|350:204,1,80,4|0,3:2|0:0,0:0:0:0:
218,264,69676,2,0,P|293:277|323:348,1,160,10|0,0:0|3:0,0:0:0:0:
243,342,70135,1,0,3:0:0:0:
346,215,70288,6,0,L|325:46,2,160,10|4|10,0:0|3:2|0:0,0:0:0:0:
409,111,71054,1,0,0:0:0:0:
264,170,71207,2,0,L|150:157,1,80,0|0,3:0|3:0,0:0:0:0:
390,276,71513,2,0,L|504:289,1,80,10|0,0:0|0:0,0:0:0:0:
248,322,71819,6,0,L|65:300,1,160,4|10,3:2|0:0,0:0:0:0:
75,180,72278,1,0,0:0:0:0:
118,114,72431,2,0,P|149:156|142:209,1,80,0|0,3:0|3:0,0:0:0:0:
32,246,72737,2,0,P|1:204|8:151,1,80,10|0,0:0|0:0,0:0:0:0:
168,51,73043,5,0,3:0:0:0:
199,256,73196,1,0,0:0:0:0:
199,256,73273,1,0,0:0:0:0:
199,256,73350,2,0,L|108:263,1,80,12|0,0:0|0:0,0:0:0:0:
250,120,73656,2,0,L|341:127,1,80,8|8,0:0|0:0,0:0:0:0:
420,103,73962,1,0,3:0:0:0:
417,132,74038,1,0,3:0:0:0:
414,162,74115,1,0,3:0:0:0:
412,192,74191,1,0,3:0:0:0:
409,222,74268,6,0,P|363:203|275:281,1,160,4|0,3:2|3:0,0:0:0:0:
407,337,74727,2,0,P|388:303|356:280,1,80,8|0,0:0|0:0,0:0:0:0:
332,356,75033,1,0,3:0:0:0:
464,272,75186,1,12,0:0:0:0:
344,172,75339,6,0,L|152:196,2,160,0|8|0,3:0|0:0|3:0,0:0:0:0:
404,120,76105,2,0,P|420:164|408:224,1,80,12|0,0:0|3:0,0:0:0:0:
284,224,76411,2,0,P|268:180|280:120,1,80,0|0,0:0|0:0,0:0:0:0:
324,80,76717,5,4,3:2:0:0:
364,260,76870,2,0,P|328:296|224:284,1,160,0|8,0:0|0:0,0:0:0:0:
269,147,77329,2,0,L|361:159,1,80,0|0,0:0|3:0,0:0:0:0:
416,204,77635,1,12,0:0:0:0:
204,195,77788,6,0,P|190:159|192:119,1,80,0|0,3:0|0:0,0:0:0:0:
110,111,78094,2,0,P|155:49|232:44,1,160,8|0,0:0|3:0,0:0:0:0:
325,125,78554,2,0,L|332:190,2,53.3333333333333,12|0|0,0:0|3:0|3:0,0:0:0:0:
235,223,78860,2,0,L|244:159,2,53.3333333333333,8|0|0,0:0|3:0|3:0,0:0:0:0:
283,303,79166,6,0,P|360:306|406:369,1,160,4|0,3:2|3:0,0:0:0:0:
219,358,79625,2,0,B|132:347|149:390|54:374,1,160,8|0,0:0|3:0,0:0:0:0:
32,180,80084,1,12,0:0:0:0:
95,298,80237,6,0,L|101:189,1,80,0|0,3:0|0:0,0:0:0:0:
192,103,80543,2,0,L|203:217,1,80,8|0,0:0|0:0,0:0:0:0:
115,136,80850,1,0,3:0:0:0:
280,158,81003,2,0,P|276:207|255:249,1,80,12|0,0:0|0:0,0:0:0:0:
256,244,81232,1,8,0:0:0:0:
245,252,81309,2,0,L|350:242,1,80,0|8,3:0|0:0,0:0:0:0:
453,135,81615,6,0,P|394:139|315:69,1,160,4|0,3:2|3:0,0:0:0:0:
252,140,82074,2,0,P|193:136|114:206,1,160,8|0,0:0|3:0,0:0:0:0:
43,160,82533,1,12,0:0:0:0:
43,160,82839,5,0,3:0:0:0:
211,225,82992,2,0,P|222:271|207:329,1,80,8|0,0:0|0:0,0:0:0:0:
59,319,83299,1,0,0:0:0:0:
59,319,83375,1,8,0:0:0:0:
59,319,83452,2,0,P|48:280|51:241,1,80,8|0,0:0|0:0,0:0:0:0:
202,144,83758,1,0,3:0:0:0:
136,273,83911,1,0,3:0:0:0:
120,120,84064,5,4,0:0:0:0:
256,192,84140,12,0,87125,0:0:0:0:
