osu file format v14

[General]
AudioFilename: audio.mp3
AudioLeadIn: 0
PreviewTime: 54293
Countdown: 0
SampleSet: Soft
StackLeniency: 0.3
Mode: 0
LetterboxInBreaks: 0
WidescreenStoryboard: 1

[Editor]
Bookmarks: 14263,35079
DistanceSpacing: 0.3
BeatDivisor: 4
GridSize: 4
TimelineZoom: 1.5

[Metadata]
Title:Sayonara Moon Town
TitleUnicode:サヨナラムーンタウン
Artist:Scenarioart
ArtistUnicode:シナリオアート
Creator:toybot
Version:Hard
Source:BORUTO-ボルト- NARUTO NEXT GENERATIONS
Tags:naruto-ナルト- 疾風伝 ボルト:新世代ナルト shippuden opening
BeatmapID:1371258
BeatmapSetID:647217

[Difficulty]
HPDrainRate:5
CircleSize:4
OverallDifficulty:7
ApproachRate:7.5
SliderMultiplier:1.5
SliderTickRate:1

[Events]
//Background and Video events
0,0,"image.jpg",0,0
Video,0,"video.flv"
//Break Periods
//Storyboard Layer 0 (Background)
//Storyboard Layer 1 (Fail)
//Storyboard Layer 2 (Pass)
//Storyboard Layer 3 (Foreground)
//Storyboard Sound Samples

[TimingPoints]
799,306.122448979592,4,2,1,70,1,0
13043,-133.333333333333,4,2,1,70,0,0
13656,-100,4,2,1,60,0,0
13809,-100,4,2,1,5,0,0
13885,-100,4,2,1,60,0,0
14038,-100,4,2,1,5,0,0
14115,-100,4,2,1,60,0,0
14191,-100,4,2,1,5,0,0
14268,-111.111111111111,4,2,1,60,0,0
33860,-200,4,2,1,30,0,0
34472,-166.666666666667,4,2,1,25,0,0
34931,-111.111111111111,4,2,1,40,0,0
35084,-111.111111111111,4,2,1,65,0,0
42355,-100,4,2,1,5,0,0
42431,-100,4,2,1,65,0,0
44880,-111.111111111111,4,2,1,65,0,0
52227,-100,4,2,1,65,0,0
52686,-100,4,2,1,65,0,0
53145,-100,4,2,1,65,0,0
53452,-100,4,2,1,50,0,0
53911,-100,4,2,1,40,0,0
54370,-100,4,2,1,50,0,0
54600,-100,4,2,1,5,0,0
54676,-100,4,2,1,70,0,1
74268,-100,4,2,1,60,0,1
79166,-100,4,2,1,65,0,1
84064,-100,4,2,1,50,0,0
87125,-100,4,2,1,5,0,0

[Colours]
Combo1 : 201,201,148
Combo2 : 230,0,115
Combo3 : 108,0,217
Combo4 : 0,128,192

[HitObjects]
48,240,799,6,0,P|48:204|40:160,1,75,4|0,3:2|0:0,0:0:0:0:
104,112,1105,1,8,0:0:0:0:
168,168,1258,2,0,P|208:184|300:128,1,150,0|0,0:0|3:0,0:0:0:0:
214,30,1717,2,0,P|214:66|222:110,1,75,8|0,0:0|0:0,0:0:0:0:
362,89,2023,2,0,P|362:53|354:9,1,75,0|0,3:2|0:0,0:0:0:0:
296,136,2329,1,8,0:0:0:0:
336,208,2482,2,0,P|392:253|464:238,1,150,0|0,0:0|3:0,0:0:0:0:
482,153,2941,2,0,P|447:165|410:174,1,75,8|0,0:0|0:0,0:0:0:0:
291,89,3247,6,0,P|327:97|362:110,2,75,0|0|8,3:2|0:0|0:0,0:0:0:0:
211,59,3707,2,0,L|225:212,1,150,0|0,0:0|3:0,0:0:0:0:
167,258,4166,2,0,P|129:276|92:278,1,75,8|0,0:0|0:0,0:0:0:0:
81,201,4472,2,0,P|63:166|73:99,1,75,0|0,3:2|0:0,0:0:0:0:
110,63,4778,1,8,0:0:0:0:
185,129,4931,2,0,L|339:104,1,150,0|0,0:0|3:0,0:0:0:0:
409,141,5390,1,8,0:0:0:0:
409,141,5543,1,0,0:0:0:0:
384,250,5696,6,0,L|393:330,2,75,0|0|8,3:2|0:0|0:0,0:0:0:0:
458,220,6156,2,0,B|382:234|393:193|305:212,1,150,0|0,0:0|3:0,0:0:0:0:
243,255,6615,2,0,L|154:248,1,75,8|0,0:0|0:0,0:0:0:0:
76,179,6921,2,0,L|165:172,1,75,0|0,3:2|0:0,0:0:0:0:
205,111,7227,1,8,0:0:0:0:
165,38,7380,2,0,P|197:77|299:88,1,150,0|0,0:0|3:0,0:0:0:0:
430,68,7839,2,0,P|390:89|358:134,1,75,8|0,0:0|0:0,0:0:0:0:
321,177,8145,6,0,L|339:354,1,150,0|8,3:2|0:0,0:0:0:0:
240,230,8605,2,0,L|240:389,1,150,0|0,0:0|3:0,0:0:0:0:
152,257,9064,2,0,L|140:347,1,75,8|0,0:0|0:0,0:0:0:0:
64,261,9370,1,0,3:2:0:0:
21,190,9523,1,0,0:0:0:0:
90,145,9676,1,8,0:0:0:0:
133,216,9829,2,0,P|179:222|252:152,1,150,0|0,0:0|3:0,0:0:0:0:
235,74,10288,1,8,0:0:0:0:
235,74,10441,1,0,3:2:0:0:
336,117,10594,5,4,3:2:0:0:
260,168,10747,2,0,L|186:154,1,75,0|8,0:0|0:0,0:0:0:0:
105,122,11054,2,0,P|63:174|76:253,1,150,0|0,0:0|3:0,0:0:0:0:
152,291,11513,1,8,0:0:0:0:
227,253,11666,1,0,0:0:0:0:
305,279,11819,2,0,P|357:270|395:270,1,75,0|0,3:2|0:0,0:0:0:0:
416,192,12125,1,8,0:0:0:0:
334,182,12278,1,0,0:0:0:0:
334,182,12355,1,8,0:0:0:0:
334,182,12431,2,0,L|254:171,1,75,0|0,3:0|3:0,0:0:0:0:
152,136,12737,1,4,3:0:0:0:
152,136,12890,1,4,3:0:0:0:
212,75,13043,6,0,P|236:135|183:218,1,168.750006437302,2|0,0:3|3:0,0:0:0:0:
151,135,13656,2,0,L|36:124,2,112.5,8|8|8,0:0|0:0|0:0,0:0:0:0:
100,212,14268,5,4,3:2:0:0:
201,380,14574,1,8,0:0:0:0:
201,380,14727,2,0,L|211:312,1,67.4999979400635,0|0,0:0|3:0,0:0:0:0:
273,247,15033,2,0,L|250:102,1,134.999995880127,0|8,3:0|0:0,0:0:0:0:
315,63,15492,2,0,P|355:54|439:121,1,134.999995880127,0|8,0:0|0:0,0:0:0:0:
458,178,15952,1,0,0:0:0:0:
413,249,16105,1,0,3:0:0:0:
413,249,16258,2,0,P|400:297|406:344,1,67.4999979400635,0|8,3:0|0:0,0:0:0:0:
479,296,16564,1,0,0:0:0:0:
399,335,16717,6,0,P|345:357|266:301,1,134.999995880127,0|8,3:0|0:0,0:0:0:0:
192,338,17176,2,0,P|184:267|172:185,2,134.999995880127,0|0|8,0:0|3:0|0:0,0:0:0:0:
111,316,17941,2,0,L|39:307,1,67.4999979400635,0|0,0:0|3:0,0:0:0:0:
77,219,18247,2,0,L|10:232,1,67.4999979400635,8|0,0:0|0:0,0:0:0:0:
24,148,18554,1,0,3:0:0:0:
24,148,18707,1,0,3:0:0:0:
101,112,18860,2,0,P|109:71|108:26,1,67.4999979400635,8|0,0:0|0:0,0:0:0:0:
186,13,19166,6,0,P|229:56|238:155,1,134.999995880127,0|8,3:0|0:0,0:0:0:0:
202,198,19625,2,0,L|124:206,1,67.4999979400635,0|0,0:0|3:0,0:0:0:0:
259,253,19931,2,0,L|423:269,1,134.999995880127,0|8,3:0|0:0,0:0:0:0:
460,213,20390,1,0,0:0:0:0:
414,143,20543,2,0,L|403:44,1,67.4999979400635,0|8,3:0|0:0,0:0:0:0:
340,27,20850,2,0,P|295:33|262:126,1,134.999995880127,0|0,0:0|3:0,0:0:0:0:
206,171,21309,1,8,0:0:0:0:
206,171,21462,1,0,0:0:0:0:
125,199,21615,6,0,L|44:188,1,67.4999979400635,0|0,3:0|0:0,0:0:0:0:
41,315,21921,1,8,0:0:0:0:
134,281,22074,2,0,P|205:267|286:262,1,134.999995880127,0|0,0:0|3:0,0:0:0:0:
441,308,22686,1,8,0:0:0:0:
368,354,22839,2,0,P|356:303|365:265,1,67.4999979400635,0|0,0:0|3:0,0:0:0:0:
414,221,23145,2,0,L|397:56,1,134.999995880127,8|0,0:0|3:0,0:0:0:0:
333,41,23605,1,0,3:0:0:0:
255,71,23758,2,0,L|166:80,1,67.4999979400635,8|0,0:0|0:0,0:0:0:0:
37,102,24064,6,0,P|78:103|150:166,1,134.999995880127,4|8,3:2|0:0,0:0:0:0:
102,230,24523,2,0,P|108:282|78:365,1,134.999995880127,0|0,0:0|3:0,0:0:0:0:
13,177,25135,1,8,0:0:0:0:
45,93,25288,2,0,L|187:79,1,134.999995880127,0|8,0:0|0:0,0:0:0:0:
244,136,25747,1,0,0:0:0:0:
244,136,25901,2,0,L|325:146,1,67.4999979400635,0|0,3:0|3:0,0:0:0:0:
391,107,26207,1,8,0:0:0:0:
466,166,26360,1,0,0:0:0:0:
466,166,26513,6,0,P|495:229|485:302,1,134.999995880127,0|8,3:0|0:0,0:0:0:0:
414,259,26972,2,0,L|335:267,1,67.4999979400635,0|0,0:0|3:0,0:0:0:0:
278,315,27278,2,0,L|138:299,1,134.999995880127,0|8,3:0|0:0,0:0:0:0:
65,268,27737,2,0,P|65:299|71:335,1,67.4999979400635,0|0,0:0|3:0,0:0:0:0:
0,215,28043,2,0,P|0:183|6:147,1,67.4999979400635,8|0,0:0|0:0,0:0:0:0:
70,91,28350,1,0,3:0:0:0:
154,146,28503,1,0,3:0:0:0:
228,66,28656,2,0,P|188:63|133:57,1,67.4999979400635,8|0,0:0|0:0,0:0:0:0:
232,181,28962,6,0,P|294:172|379:167,1,134.999995880127,0|8,3:0|0:0,0:0:0:0:
433,125,29421,2,0,P|469:185|445:254,1,134.999995880127,0|0,0:0|3:0,0:0:0:0:
286,289,30033,1,8,0:0:0:0:
359,334,30186,2,0,L|451:327,2,67.4999979400635,0|0|8,0:0|3:0|0:0,0:0:0:0:
274,281,30645,2,0,L|121:266,1,134.999995880127,0|0,0:0|3:0,0:0:0:0:
65,306,31105,1,8,0:0:0:0:
19,153,31411,6,0,P|59:111|158:123,1,134.999995880127,2|10,3:2|0:0,0:0:0:0:
207,145,31870,2,0,L|288:135,1,67.4999979400635,0|0,0:0|0:0,0:0:0:0:
360,82,32176,2,0,L|351:149,1,67.4999979400635,0|2,3:0|0:0,0:0:0:0:
411,210,32482,1,8,0:0:0:0:
490,176,32635,2,0,L|471:23,1,134.999995880127,2|10,0:0|0:0,0:0:0:0:
395,16,33094,1,0,0:0:0:0:
338,80,33247,5,8,0:0:0:0:
399,175,33401,1,8,0:0:0:0:
387,188,33860,6,0,L|233:198,1,150,2|2,0:3|0:3,0:0:0:0:
108,260,34931,1,0,0:0:0:0:
108,260,35084,6,0,L|96:190,1,67.4999979400635,4|0,3:2|0:0,0:0:0:0:
192,138,35390,2,0,L|184:205,1,67.4999979400635,2|0,0:0|3:0,0:0:0:0:
104,109,35696,1,8,0:0:0:0:
274,159,36003,1,2,0:0:0:0:
187,305,36309,1,8,0:0:0:0:
195,315,36921,2,0,P|235:296|328:296,1,134.999995880127,8|2,0:0|0:0,0:0:0:0:
407,325,37380,1,0,3:0:0:0:
484,244,37533,6,0,P|436:228|393:226,1,67.4999979400635,8|0,0:0|0:0,0:0:0:0:
319,169,37839,2,0,P|350:157|384:153,1,67.4999979400635,2|0,0:0|3:0,0:0:0:0:
456,106,38145,1,8,0:0:0:0:
299,46,38452,1,2,0:0:0:0:
226,181,38758,1,8,0:0:0:0:
213,188,39370,2,0,P|172:198|90:158,1,134.999995880127,8|2,0:0|0:0,0:0:0:0:
106,79,39829,1,0,3:0:0:0:
191,93,39982,6,0,L|180:10,1,67.4999979400635,12|0,0:0|0:0,0:0:0:0:
278,76,40288,2,0,L|285:7,1,67.4999979400635,2|0,0:0|3:0,0:0:0:0:
362,111,40594,2,0,P|405:42|455:18,1,134.999995880127,8|2,0:0|0:0,0:0:0:0:
405,194,41207,2,0,P|338:196|280:163,1,134.999995880127,8|2,0:0|0:0,0:0:0:0:
238,93,41666,1,0,3:0:0:0:
170,146,41819,2,0,L|178:227,1,67.4999979400635,8|0,0:0|0:0,0:0:0:0:
101,250,42125,1,2,0:0:0:0:
232,337,42431,6,0,B|312:351|294:301|392:314,1,150,8|2,0:0|0:0,0:0:0:0:
465,267,42890,2,0,P|462:310|456:342,2,75,0|8|0,3:0|0:0|0:0,0:0:0:0:
405,204,43350,2,0,L|389:109,1,75,2|0,0:0|0:0,0:0:0:0:
353,30,43656,1,8,0:0:0:0:
439,57,43809,1,0,0:0:0:0:
439,57,43962,2,0,P|389:106|311:111,1,150,2|8,0:0|0:0,0:0:0:0:
242,71,44421,1,8,0:0:0:0:
169,114,44574,2,0,L|86:110,1,75,2|0,3:2|0:0,0:0:0:0:
22,228,44880,6,0,P|32:285|32:307,1,67.4999979400635,4|0,0:0|0:0,0:0:0:0:
115,375,45186,2,0,P|119:337|127:307,1,67.4999979400635,2|0,0:0|3:0,0:0:0:0:
113,217,45492,1,8,0:0:0:0:
242,312,45799,1,2,0:0:0:0:
355,192,46105,2,0,P|361:132|295:67,1,134.999995880127,8|0,0:0|0:0,0:0:0:0:
240,122,46564,1,0,3:0:0:0:
163,92,46717,2,0,L|16:77,1,134.999995880127,8|2,0:0|0:0,0:0:0:0:
0,160,47176,1,0,3:0:0:0:
69,208,47329,6,0,L|155:190,1,67.4999979400635,8|0,0:0|0:0,0:0:0:0:
161,344,47635,2,0,P|158:308|143:274,1,67.4999979400635,2|0,0:0|3:0,0:0:0:0:
234,201,47941,2,0,P|232:275|257:340,1,134.999995880127,8|2,0:0|0:0,0:0:0:0:
427,214,48554,2,0,P|428:139|404:75,1,134.999995880127,8|2,0:0|0:0,0:0:0:0:
334,121,49013,1,0,3:0:0:0:
265,78,49166,2,0,L|195:71,1,67.4999979400635,8|0,0:0|0:0,0:0:0:0:
151,147,49472,2,0,L|80:157,1,67.4999979400635,2|0,0:0|3:0,0:0:0:0:
36,231,49778,5,12,0:0:0:0:
114,247,49931,1,0,0:0:0:0:
173,299,50084,2,0,P|187:347|186:383,1,67.4999979400635,2|0,0:0|3:0,0:0:0:0:
255,271,50390,2,0,P|274:226|365:200,1,134.999995880127,8|2,0:0|0:0,0:0:0:0:
215,166,51003,2,0,L|191:24,1,134.999995880127,8|2,0:0|0:0,0:0:0:0:
117,7,51462,1,0,3:0:0:0:
117,7,51615,2,0,P|100:47|106:88,1,67.4999979400635,8|0,0:0|0:0,0:0:0:0:
131,145,51921,1,2,0:0:0:0:
282,63,52227,6,0,P|327:50|416:135,1,150,4|0,0:0|3:0,0:0:0:0:
453,177,52686,2,0,P|381:186|327:137,1,150,8|0,0:0|3:0,0:0:0:0:
269,57,53145,2,0,L|169:73,1,75,8|0,0:0|0:0,0:0:0:0:
105,124,53452,2,0,L|118:176,5,37.5,8|8|8|8|8|0,0:0|0:0|0:0|0:0|0:0|0:0,0:0:0:0:
104,196,53911,5,2,0:0:0:0:
340,304,54370,5,0,0:0:0:0:
344,308,54676,2,0,P|400:314|463:231,1,150,4|10,3:2|0:0,0:0:0:0:
475,165,55135,1,0,0:0:0:0:
390,84,55288,2,0,L|383:233,1,150,0|10,3:0|0:0,0:0:0:0:
191,276,55901,2,0,L|184:126,1,150,0|10,3:0|0:0,0:0:0:0:
100,208,56360,1,0,0:0:0:0:
113,293,56513,2,0,P|157:350|230:350,1,150,0|10,3:0|0:0,0:0:0:0:
297,295,56972,1,0,0:0:0:0:
275,205,57125,6,0,P|277:167|284:119,1,75,0|0,3:0|0:0,0:0:0:0:
358,92,57431,1,10,0:0:0:0:
358,92,57584,2,0,B|283:108|295:58|197:76,1,150,0|0,0:0|3:0,0:0:0:0:
139,131,58043,1,10,0:0:0:0:
42,89,58196,2,0,P|58:159|48:240,1,150,0|0,0:0|0:0,0:0:0:0:
124,313,58656,2,0,P|127:276|140:241,1,75,10|0,0:0|0:0,0:0:0:0:
223,259,58962,2,0,P|238:292|263:320,1,75,0|0,3:0|3:0,0:0:0:0:
366,228,59268,2,0,P|329:225|294:213,1,75,10|0,0:0|0:0,0:0:0:0:
248,80,59574,5,4,0:0:0:0:
262,88,59880,2,0,B|337:71|329:125|417:103,1,150,10|0,0:0|3:0,0:0:0:0:
490,67,60339,1,0,3:0:0:0:
490,67,60492,2,0,L|481:156,1,75,10|0,0:0|0:0,0:0:0:0:
501,232,60799,2,0,P|452:225|377:315,1,150,4|10,3:2|0:0,0:0:0:0:
293,357,61258,1,0,0:0:0:0:
218,320,61411,2,0,P|171:316|133:311,1,75,0|0,3:0|3:0,0:0:0:0:
64,353,61717,2,0,P|60:306|55:268,1,75,10|0,0:0|0:0,0:0:0:0:
18,200,62023,6,0,P|54:146|148:153,1,150,4|10,3:2|0:0,0:0:0:0:
195,196,62482,1,0,0:0:0:0:
271,159,62635,2,0,P|312:157|345:151,2,75,0|0|10,3:0|3:0|0:0,0:0:0:0:
225,85,63094,1,0,0:0:0:0:
311,0,63247,2,0,L|308:74,1,75,0|0,3:0|0:0,0:0:0:0:
428,162,63554,2,0,L|419:87,1,75,10|0,0:0|0:0,0:0:0:0:
334,164,63860,2,0,P|316:225|339:310,1,150,8|10,3:2|0:0,0:0:0:0:
412,360,64319,1,8,0:0:0:0:
412,360,64395,1,8,0:0:0:0:
412,360,64472,6,0,L|231:340,1,150,4|10,3:2|0:0,0:0:0:0:
179,335,64931,1,0,0:0:0:0:
106,368,65084,2,0,P|72:324|95:221,1,150,0|10,3:0|0:0,0:0:0:0:
258,189,65696,2,0,P|274:117|235:55,1,150,0|10,3:0|0:0,0:0:0:0:
163,88,66155,1,0,0:0:0:0:
80,75,66308,2,0,L|-19:63,1,75,0|0,3:0|3:0,0:0:0:0:
10,180,66615,2,0,L|83:160,1,75,10|0,0:0|0:0,0:0:0:0:
161,208,66921,6,0,P|128:268|106:355,2,150,0|10|0,3:0|0:0|3:0,0:0:0:0:
233,258,67686,1,0,3:0:0:0:
309,214,67839,1,10,0:0:0:0:
394,238,67992,2,0,P|432:182|402:83,1,150,0|0,0:0|0:0,0:0:0:0:
336,110,68452,2,0,L|250:103,1,75,10|0,0:0|0:0,0:0:0:0:
144,157,68758,1,0,3:0:0:0:
191,225,68911,1,0,3:0:0:0:
257,177,69064,2,0,P|257:139|248:103,1,75,10|0,0:0|0:0,0:0:0:0:
124,64,69370,5,4,3:2:0:0:
135,70,69676,2,0,P|185:74|264:8,1,150,10|0,0:0|3:0,0:0:0:0:
334,53,70135,1,0,3:0:0:0:
411,24,70288,2,0,L|495:38,1,75,10|0,0:0|0:0,0:0:0:0:
433,182,70594,2,0,P|433:163|418:108,1,75,4|0,3:2|0:0,0:0:0:0:
349,173,70901,2,0,P|319:212|207:205,2,150,10|0|10,0:0|3:0|0:0,0:0:0:0:
400,248,71666,1,0,0:0:0:0:
481,271,71819,6,0,L|498:168,1,75,4|0,3:2|0:0,0:0:0:0:
420,67,72125,2,0,L|432:140,1,75,10|0,0:0|0:0,0:0:0:0:
349,173,72431,1,0,3:0:0:0:
393,258,72584,1,0,3:0:0:0:
301,252,72737,2,0,P|264:254|227:261,1,75,10|0,0:0|0:0,0:0:0:0:
79,340,73043,2,0,P|66:305|71:251,1,75,0|0,3:0|0:0,0:0:0:0:
137,215,73350,2,0,P|149:249|145:304,1,75,12|0,0:0|0:0,0:0:0:0:
19,196,73656,1,8,0:0:0:0:
110,128,73809,1,8,0:0:0:0:
110,128,73885,1,8,0:0:0:0:
110,128,73962,2,0,L|224:142,1,112.5,0|0,3:0|0:0,0:0:0:0:
248,159,74268,6,0,P|282:111|267:19,1,150,4|0,3:2|3:0,0:0:0:0:
325,94,74727,2,0,P|388:78|473:114,1,150,8|0,0:0|3:0,0:0:0:0:
386,161,75186,1,12,0:0:0:0:
467,201,75339,6,0,P|402:197|325:248,2,150,0|8|0,3:0|0:0|3:0,0:0:0:0:
488,303,76105,2,0,P|456:285|419:281,1,75,12|0,0:0|3:0,0:0:0:0:
432,365,76411,2,0,P|385:362|349:371,1,75,0|0,0:0|0:0,0:0:0:0:
270,328,76717,5,4,3:2:0:0:
270,328,76870,2,0,L|118:338,1,150,0|8,0:0|0:0,0:0:0:0:
37,353,77329,2,0,B|26:295|26:295|42:265|42:265|32:195,1,150,0|12,0:0|0:0,0:0:0:0:
133,164,77788,6,0,L|130:238,1,75,0|0,3:0|0:0,0:0:0:0:
54,115,78094,2,0,B|114:75|114:75|206:92,1,150,8|0,0:0|3:0,0:0:0:0:
257,146,78554,1,12,0:0:0:0:
413,111,78860,2,0,L|418:47,2,50,0|0|0,3:0|3:0|0:0,0:0:0:0:
374,135,79166,6,0,L|394:290,1,150,4|0,3:2|3:0,0:0:0:0:
463,334,79625,2,0,P|392:323|328:376,1,150,8|0,0:0|3:0,0:0:0:0:
271,303,80084,1,12,0:0:0:0:
197,344,80237,6,0,P|155:346|107:327,1,75,0|0,3:0|0:0,0:0:0:0:
39,340,80543,2,0,L|57:170,1,150,8|0,0:0|3:0,0:0:0:0:
131,148,81003,2,0,P|144:185|139:222,1,75,12|0,0:0|0:0,0:0:0:0:
52,103,81309,2,0,L|38:21,1,75,0|8,3:0|0:0,0:0:0:0:
136,49,81615,6,0,B|251:18|230:119|361:80,1,225,4|8,3:2|0:0,0:0:0:0:
427,41,82227,2,0,L|443:139,1,75,0|0,0:0|3:0,0:0:0:0:
503,183,82533,1,12,0:0:0:0:
292,165,82839,5,0,3:0:0:0:
349,237,82992,2,0,L|340:335,1,75,8|0,0:0|0:0,0:0:0:0:
265,348,83299,1,0,0:0:0:0:
265,348,83375,1,8,0:0:0:0:
265,348,83452,2,0,P|214:330|176:329,1,75,8|0,0:0|3:0,0:0:0:0:
170,248,83758,1,0,3:0:0:0:
39,354,84064,1,4,0:0:0:0:
256,192,84140,12,0,87125,0:0:0:0:
