osu file format v14

[General]
AudioFilename: audio.mp3
AudioLeadIn: 0
PreviewTime: 54293
Countdown: 0
SampleSet: Soft
StackLeniency: 0.3
Mode: 0
LetterboxInBreaks: 0
WidescreenStoryboard: 1

[Editor]
Bookmarks: 14263,35079
DistanceSpacing: 1.2
BeatDivisor: 4
GridSize: 4
TimelineZoom: 1.5

[Metadata]
Title:Sayonara Moon Town
TitleUnicode:サヨナラムーンタウン
Artist:Scenarioart
ArtistUnicode:シナリオアート
Creator:toybot
Version:Easy
Source:BORUTO-ボルト- NARUTO NEXT GENERATIONS
Tags:naruto-ナルト- 疾風伝 ボルト:新世代ナルト shippuden opening
BeatmapID:1372362
BeatmapSetID:647217

[Difficulty]
HPDrainRate:2
CircleSize:3
OverallDifficulty:2
ApproachRate:3
SliderMultiplier:0.8
SliderTickRate:1

[Events]
//Background and Video events
0,0,"image.jpg",0,0
Video,0,"video.flv"
//Break Periods
//Storyboard Layer 0 (Background)
//Storyboard Layer 1 (Fail)
//Storyboard Layer 2 (Pass)
//Storyboard Layer 3 (Foreground)
//Storyboard Sound Samples

[TimingPoints]
799,306.122448979592,4,2,1,70,1,0
13656,-100,4,2,1,60,0,0
13809,-100,4,2,1,5,0,0
13885,-100,4,2,1,60,0,0
14038,-100,4,2,1,5,0,0
14115,-100,4,2,1,60,0,0
14191,-100,4,2,1,5,0,0
14268,-100,4,2,1,60,0,0
33860,-100,4,2,1,40,0,0
34472,-100,4,2,1,35,0,0
34931,-100,4,2,1,40,0,0
35084,-100,4,2,1,65,0,0
41819,-100,4,2,2,65,0,0
41972,-100,4,2,1,65,0,0
42355,-100,4,2,1,5,0,0
42431,-100,4,2,1,65,0,0
44880,-100,4,2,1,65,0,0
52227,-100,4,2,1,65,0,0
52686,-100,4,2,1,65,0,0
53145,-100,4,2,1,65,0,0
53452,-100,4,2,1,50,0,0
53911,-100,4,2,1,40,0,0
54370,-100,4,2,1,50,0,0
54600,-100,4,2,1,5,0,0
54676,-100,4,2,1,70,0,1
54982,-100,4,2,2,70,0,1
55059,-100,4,2,1,70,0,1
56207,-100,4,2,2,70,0,1
56283,-100,4,2,1,70,0,1
57431,-100,4,2,2,70,0,1
57508,-100,4,2,1,70,0,1
58656,-100,4,2,2,70,0,1
58732,-100,4,2,1,70,0,1
59880,-100,4,2,2,70,0,1
59957,-100,4,2,1,70,0,1
63554,-100,4,2,2,70,0,1
63630,-100,4,2,1,70,0,1
64778,-100,4,2,2,70,0,1
64855,-100,4,2,1,70,0,1
66003,-100,4,2,2,70,0,1
66079,-100,4,2,1,70,0,1
67227,-100,4,2,2,70,0,1
67304,-100,4,2,1,70,0,1
69676,-100,4,2,2,70,0,1
69753,-100,4,2,1,70,0,1
72737,-100,4,2,2,70,0,1
72814,-100,4,2,1,70,0,1
73350,-100,4,2,2,70,0,1
73426,-100,4,2,1,70,0,1
74268,-100,4,2,1,60,0,1
79166,-100,4,2,1,65,0,1
84064,-100,4,2,1,50,0,0
87125,-100,4,2,1,5,0,0

[Colours]
Combo1 : 201,201,148
Combo2 : 230,0,115
Combo3 : 108,0,217
Combo4 : 0,128,192

[HitObjects]
108,192,799,6,0,P|80:132|96:68,2,120,4|0|8,3:2|0:0|0:0,0:0:0:0:
160,272,2023,2,0,P|220:258|272:288,1,120,0|0,3:2|0:0,0:0:0:0:
412,264,2941,1,8,0:0:0:0:
404,168,3247,6,0,L|388:40,2,120,0|0|8,3:2|0:0|0:0,0:0:0:0:
324,220,4472,2,0,L|309:339,2,120,0|0|8,3:2|0:0|0:0,0:0:0:0:
231,194,5696,6,0,P|220:155|252:83,2,120,0|0|8,3:2|0:0|0:0,0:0:0:0:
323,220,6921,2,0,P|293:271|224:290,1,120,0|0,3:2|0:0,0:0:0:0:
109,226,7839,1,8,0:0:0:0:
17,200,8145,6,0,P|47:149|116:130,1,120,0|0,3:2|0:0,0:0:0:0:
231,194,9064,1,8,0:0:0:0:
318,153,9370,2,0,L|450:133,2,120,0|0|8,3:2|0:0|0:0,0:0:0:0:
242,97,10594,6,0,P|198:72|125:82,1,120,4|0,3:2|0:0,0:0:0:0:
15,151,11513,1,8,0:0:0:0:
87,213,11819,2,0,L|99:309,1,80,0|8,3:2|0:0,0:0:0:0:
12,337,12431,2,0,B|96:321|84:373|184:353,1,160,0|2,3:0|0:3,0:0:0:0:
432,288,14268,6,0,P|448:232|352:130,1,200,4|0,3:2|3:0,0:0:0:0:
272,160,15339,2,0,L|136:176,1,120,8|8,0:0|0:0,0:0:0:0:
56,182,16105,1,0,3:0:0:0:
168,24,16717,6,0,L|377:56,1,200,0|0,3:0|3:0,0:0:0:0:
460,37,17788,2,0,P|412:97|424:229,1,200,8|0,0:0|3:0,0:0:0:0:
270,340,19166,6,0,P|218:352|133:251,1,200,0|0,3:0|3:0,0:0:0:0:
70,179,20237,2,0,L|55:51,1,120,8|8,0:0|0:0,0:0:0:0:
142,17,21003,1,0,3:0:0:0:
292,136,21615,6,0,P|350:142|402:114,1,120,0|0,3:0|0:0,0:0:0:0:
426,20,22380,1,0,3:0:0:0:
336,52,22686,2,0,B|228:36|256:112|136:92,1,200,8|0,0:0|3:0,0:0:0:0:
52,260,24064,6,0,P|88:300|228:263,1,200,4|0,3:2|3:0,0:0:0:0:
314,282,25135,2,0,P|363:250|375:193,1,120,8|8,0:0|0:0,0:0:0:0:
323,111,25901,2,0,P|319:69|319:27,1,80,0|8,3:0|0:0,0:0:0:0:
224,32,26513,6,0,P|229:92|232:156,1,120,0|0,3:0|0:0,0:0:0:0:
172,224,27278,1,0,3:0:0:0:
80,244,27584,2,0,P|136:236|216:344,1,200,8|0,0:0|3:0,0:0:0:0:
408,344,28962,6,0,L|432:136,1,200,0|0,3:0|3:0,0:0:0:0:
360,80,30033,2,0,P|304:112|236:104,1,120,8|8,0:0|0:0,0:0:0:0:
168,60,30799,6,0,P|124:52|40:124,2,160,0|2|2,3:0|3:2|0:0,0:0:0:0:
250,109,32329,1,0,0:0:0:0:
212,196,32635,2,0,L|220:284,1,80,2|8,0:0|0:0,0:0:0:0:
286,343,33247,1,8,0:0:0:0:
456,260,33860,6,0,L|468:88,1,160,2|2,0:3|0:3,0:0:0:0:
283,43,35084,6,0,P|207:34|151:88,2,160,4|8|8,3:2|0:0|0:0,0:0:0:0:
360,220,36921,2,0,L|272:212,1,80,8|2,0:0|0:0,0:0:0:0:
204,268,37533,2,0,L|35:248,2,160,8|8|8,0:0|0:0|0:0,0:0:0:0:
332,124,39370,2,0,P|324:64|324:32,1,80,8|2,0:0|0:0,0:0:0:0:
416,12,39982,6,0,P|428:72|428:176,1,160,12|8,0:0|0:0,0:0:0:0:
256,252,41207,2,0,B|192:264|196:224|128:240,2,120,8|0|2,0:0|3:0|0:0,0:0:0:0:
290,164,42431,2,0,P|343:219|339:297,1,160,8|8,0:0|0:0,0:0:0:0:
155,354,43656,1,8,0:0:0:0:
195,166,44268,2,0,L|184:76,1,80,8|2,0:0|3:2,0:0:0:0:
110,27,44880,6,0,L|287:52,2,160,4|8|8,0:0|0:0|0:0,0:0:0:0:
9,190,46717,2,0,L|103:173,1,80,8|2,0:0|0:0,0:0:0:0:
172,220,47329,2,0,P|190:267|154:377,2,160,8|8|8,0:0|0:0|0:0,0:0:0:0:
69,57,49166,1,8,0:0:0:0:
257,94,49778,6,0,L|422:70,1,160,4|8,3:2|0:0,0:0:0:0:
477,252,51003,2,0,P|427:257|345:175,1,160,8|8,0:0|0:0,0:0:0:0:
163,240,52227,2,0,P|162:185|150:106,2,120,4|8|8,0:0|0:0|0:0,0:0:0:0:
229,309,53452,2,0,P|181:333|108:316,1,120,8|2,0:0|0:0,0:0:0:0:
36,96,54676,6,0,L|206:110,1,160,4|0,3:2|3:0,0:0:0:0:
291,113,55594,1,10,0:0:0:0:
382,83,55901,2,0,P|437:144|420:221,1,160,0|0,3:0|3:0,0:0:0:0:
330,234,56819,1,10,0:0:0:0:
252,289,57125,2,0,P|171:269|121:268,2,120,0|0|10,3:0|0:0|0:0,0:0:0:0:
333,339,58350,2,0,P|392:334|469:262,1,160,0|0,3:2|0:0,0:0:0:0:
425,82,59574,6,0,L|247:71,1,160,4|0,0:0|3:0,0:0:0:0:
198,140,60492,2,0,P|143:142|75:59,1,160,10|10,0:0|0:0,0:0:0:0:
148,5,61411,1,0,3:0:0:0:
234,45,61717,2,0,L|405:27,1,160,10|10,0:0|0:0,0:0:0:0:
459,97,62635,1,0,3:0:0:0:
364,268,63247,2,0,P|413:285|511:226,1,160,0|8,3:0|3:2,0:0:0:0:
420,191,64166,1,10,0:0:0:0:
328,163,64472,6,0,P|281:174|197:100,1,160,4|0,3:2|3:0,0:0:0:0:
112,151,65390,1,10,0:0:0:0:
16,151,65696,2,0,P|16:243|44:315,1,160,0|0,3:0|3:0,0:0:0:0:
222,350,66921,2,0,B|282:339|278:369|356:350,2,120,0|0|10,3:0|0:0|0:0,0:0:0:0:
127,369,68145,1,0,3:0:0:0:
20,212,68758,2,0,L|4:128,1,80,0|10,3:0|0:0,3:0:0:0:
64,56,69370,6,0,P|141:68|206:9,1,160,4|0,3:2|3:0,0:0:0:0:
292,44,70288,2,8,L|315:213,1,160,10|10,0:0|0:0,0:0:0:0:
380,272,71207,1,0,3:0:0:0:
304,332,71513,2,0,B|252:344|252:344|140:320,1,160,10|10,0:0|0:0,0:0:0:0:
123,228,72431,2,0,P|62:276|55:353,2,160,0|4|0,3:0|3:2|3:0,0:0:0:0:
48,168,73962,1,0,3:0:0:0:
90,82,74268,6,0,B|216:68|192:164|312:148,1,240,4|12,3:2|0:0,0:0:0:0:
496,372,76105,2,0,L|402:353,1,80,12|0,0:0|0:0,0:0:0:0:
320,359,76717,6,0,B|253:341|212:281|272:176|344:224|348:276|332:284,1,240,4|12,3:2|0:0,0:0:0:0:
64,180,78554,2,0,P|51:119|60:85,1,80,12|0,0:0|3:0,0:0:0:0:
148,84,79166,6,0,B|193:101|255:100|308:40|308:40|292:84|296:116,1,240,4|12,3:2|0:0,0:0:0:0:
144,344,81003,1,12,0:0:0:0:
232,304,81309,1,0,3:0:0:0:
320,340,81615,6,0,P|359:291|340:187,1,160,4|0,3:2|0:0,0:0:0:0:
360,104,82533,2,0,L|190:130,1,160,12|0,0:0|3:0,0:0:0:0:
136,196,83452,1,8,0:0:0:0:
8,52,84064,5,4,0:0:0:0:
256,192,84217,12,0,87125,0:0:0:0:
