osu file format v14

[General]
AudioFilename: audio.mp3
AudioLeadIn: 0
PreviewTime: 55710
Countdown: 0
SampleSet: Soft
StackLeniency: 0.7
Mode: 0
LetterboxInBreaks: 0
WidescreenStoryboard: 1

[Editor]
DistanceSpacing: 1
BeatDivisor: 4
GridSize: 32
TimelineZoom: 1.4

[Metadata]
Title:Sayonara Moon Town (TV Size)
TitleUnicode:サヨナラムーンタウン (TV Size)
Artist:Scenarioart
ArtistUnicode:シナリオアート
Creator:Nevo
Version:Wanpachi's Hard
Source:BORUTO-ボルト- NARUTO NEXT GENERATIONS
Tags:ending jougan anime japanese rock pop killian wanpachi cycopton defy jrock jpop
BeatmapID:3713514
BeatmapSetID:1802118

[Difficulty]
HPDrainRate:5
CircleSize:4
OverallDifficulty:6
ApproachRate:8
SliderMultiplier:1.3
SliderTickRate:1

[Events]
//Background and Video events
0,0,"thumb-1920-833664.jpg",0,0
Video,1540,"Video(1).mp4"
//Break Periods
//Storyboard Layer 0 (Background)
//Storyboard Layer 1 (Fail)
//Storyboard Layer 2 (Pass)
//Storyboard Layer 3 (Foreground)
//Storyboard Layer 4 (Overlay)
//Storyboard Sound Samples

[TimingPoints]
991,306.122448979592,4,2,1,75,1,0
13235,-111.111111111111,4,2,1,60,0,0
15684,-111.111111111111,4,2,1,55,0,0
25480,-111.111111111111,4,2,1,55,0,0
36501,-100,4,2,1,65,0,0
56093,-90.9090909090909,4,2,1,75,0,1
75684,-100,4,2,1,75,0,0
76756,-100,4,2,1,75,0,0
78133,-100,4,2,1,75,0,0

[Colours]
Combo1 : 254,231,148
Combo2 : 0,217,217
Combo3 : 192,192,192

[HitObjects]
456,37,991,6,0,B|436:67|436:67|460:181,1,130,6|8,3:2|0:0,0:0:0:0:
475,240,1450,2,0,B|433:236|433:236|393:252|393:252|339:246,1,130,2|0,0:0|3:0,0:0:0:0:
264,238,1909,2,0,L|282:318,1,65,10|2,0:0|3:2,0:0:0:0:
205,344,2215,6,0,B|150:377|150:377|94:343,1,130,2|8,0:0|0:0,0:0:0:0:
24,305,2674,1,2,0:0:0:0:
24,305,2827,2,0,L|38:241,1,65,0|0,3:0|3:0,0:0:0:0:
117,210,3133,1,10,0:0:0:0:
30,64,3439,6,0,B|1:45|1:45|97:29,1,130,2|8,3:2|0:0,0:0:0:0:
175,0,3899,2,0,B|197:32|197:32|165:131,1,130,2|0,0:0|3:0,0:0:0:0:
159,202,4358,2,0,B|249:179,1,65,10|2,0:0|3:2,0:0:0:0:
282,127,4664,6,0,B|332:136|332:136|356:155|356:155|425:165,1,130,2|8,0:0|0:0,0:0:0:0:
489,143,5123,2,0,B|498:175|498:175|481:211,1,65,2|0,0:0|3:0,0:0:0:0:
413,247,5429,1,2,3:2:0:0:
413,247,5582,1,10,0:0:0:0:
249,288,5888,6,0,L|260:142,1,130,2|8,3:2|0:0,0:0:0:0:
318,97,6348,2,0,B|263:62|263:62|197:93,1,130,2|0,0:0|3:0,0:0:0:0:
167,165,6807,2,0,L|94:159,1,65,10|2,0:0|3:2,0:0:0:0:
18,145,7113,6,0,B|25:195|25:195|39:215|39:215|49:288,1,130,2|8,0:0|0:0,0:0:0:0:
15,350,7572,1,2,0:0:0:0:
15,350,7725,2,0,B|45:360|45:360|87:350,1,65,0|0,3:0|3:0,0:0:0:0:
133,288,8031,1,10,0:0:0:0:
290,348,8337,6,0,B|310:318|310:318|288:212,1,130,2|8,3:2|0:0,0:0:0:0:
320,146,8797,2,0,B|375:179|375:179|439:149,1,130,2|2,0:0|3:2,0:0:0:0:
505,104,9256,2,0,L|486:26,1,65,10|2,0:0|3:2,0:0:0:0:
413,4,9562,6,0,B|362:11|362:11|343:25|343:25|269:35,1,130,2|10,0:0|0:0,0:0:0:0:
243,104,10021,2,0,L|175:94,1,65,2|2,0:0|3:2,0:0:0:0:
94,83,10327,1,2,3:2:0:0:
94,83,10480,1,8,0:0:0:0:
197,216,10786,6,0,B|226:223|226:223|127:239,1,130,6|8,3:2|0:0,0:0:0:0:
72,303,11246,2,0,B|31:252|31:252|61:179,1,130,2|0,0:0|3:0,0:0:0:0:
127,148,11705,2,0,L|113:59,1,65,10|2,0:0|3:2,0:0:0:0:
175,23,12011,6,0,B|224:30|224:30|251:52|251:52|313:64,1,130,2|8,0:0|0:0,0:0:0:0:
381,37,12470,1,8,0:0:0:0:
381,37,12547,1,8,0:0:0:0:
381,37,12623,2,0,B|392:70|392:70|379:98,1,65,8|8,0:0|3:0,0:0:0:0:
306,140,12930,2,0,B|295:173|295:173|307:201,1,65,0|0,3:0|3:0,0:0:0:0:
360,254,13235,6,0,B|264:239|273:280|180:271,1,175.499994644165,6|0,3:2|3:0,0:0:0:0:
120,234,13848,1,8,0:0:0:0:
42,103,14154,2,0,P|36:73|37:9,1,87.7499973220826,2|0,0:0|0:0,0:0:0:0:
50,1,14460,5,0,0:0:0:0:
109,47,14613,2,0,P|161:47|216:4,1,116.999996429443,8|0,0:0|0:0,0:0:0:0:
281,40,15072,2,0,P|314:34|282:23,2,87.7499973220826,8|8|8,0:0|0:0|0:0,0:0:0:0:
229,96,15684,6,0,P|247:151|263:221,1,116.999996429443,6|10,3:2|0:0,0:0:0:0:
231,279,16144,2,0,P|224:310|220:352,1,58.4999982147217,2|0,0:0|3:0,0:0:0:0:
286,374,16450,1,2,3:2:0:0:
431,328,16756,5,10,0:0:0:0:
460,257,16909,2,0,B|467:193|447:208|454:126,1,116.999996429443,2|10,0:0|0:0,0:0:0:0:
476,68,17368,2,0,P|442:59|416:49,1,58.4999982147217,2|0,0:0|3:0,0:0:0:0:
352,17,17674,1,2,3:2:0:0:
352,17,17827,1,8,0:0:0:0:
224,99,18133,6,0,P|169:96|102:81,1,116.999996429443,2|10,3:2|0:0,0:0:0:0:
45,126,18593,2,0,P|62:153|63:190,1,58.4999982147217,2|0,0:0|3:0,0:0:0:0:
21,241,18899,1,2,3:2:0:0:
131,345,19205,6,0,P|182:314|246:329,1,116.999996429443,10|0,0:0|3:0,0:0:0:0:
301,361,19664,2,0,P|348:364|402:375,1,87.7499973220826,8|8,0:0|0:0,0:0:0:0:
406,362,19970,2,0,P|423:335|426:298,1,58.4999982147217,0|0,3:0|3:0,0:0:0:0:
387,244,20276,1,8,0:0:0:0:
246,185,20582,6,0,B|181:191|195:217|126:231,1,116.999996429443,2|10,3:2|0:0,0:0:0:0:
70,194,21042,2,0,P|65:161|65:122,1,58.4999982147217,2|0,0:0|3:0,0:0:0:0:
78,61,21348,1,2,3:2:0:0:
221,9,21654,5,8,0:0:0:0:
276,60,21807,2,0,P|336:52|403:32,1,116.999996429443,2|10,0:0|0:0,0:0:0:0:
455,74,22266,2,0,P|465:101|456:142,1,58.4999982147217,2|0,0:0|3:0,0:0:0:0:
414,189,22572,1,0,3:0:0:0:
414,189,22725,1,8,0:0:0:0:
481,325,23031,6,0,P|436:301|358:296,1,116.999996429443,2|10,3:2|0:0,0:0:0:0:
309,338,23491,2,0,P|286:350|247:352,1,58.4999982147217,2|0,0:0|3:0,0:0:0:0:
187,316,23797,1,2,3:2:0:0:
37,345,24103,6,0,P|47:236|44:213,1,116.999996429443,10|0,0:0|3:0,0:0:0:0:
4,165,24562,2,0,P|10:112|41:83,1,87.7499973220826,10|2,0:0|0:3,0:0:0:0:
50,78,24868,2,0,P|81:94|112:97,1,58.4999982147217,2|0,3:0|3:0,0:0:0:0:
171,61,25174,1,8,0:0:0:0:
268,177,25480,6,0,P|253:251|250:308,1,116.999996429443,6|10,3:2|0:0,0:0:0:0:
208,355,25939,2,0,P|237:369|274:369,1,58.4999982147217,2|0,0:0|3:0,0:0:0:0:
330,334,26246,1,2,3:2:0:0:
479,359,26552,5,8,0:0:0:0:
457,286,26705,2,0,P|462:244|481:160,1,116.999996429443,2|10,0:0|0:0,0:0:0:0:
499,98,27164,2,0,P|491:69|476:44,1,58.4999982147217,2|0,0:0|3:0,0:0:0:0:
401,56,27470,2,0,P|371:48|342:48,1,58.4999982147217,0|8,3:0|0:0,0:0:0:0:
271,72,27776,5,10,0:0:0:0:
229,8,27929,2,0,B|168:5|171:39|96:29,1,116.999996429443,2|10,3:2|0:0,0:0:0:0:
40,21,28388,2,0,P|41:57|31:103,1,58.4999982147217,2|0,0:0|3:0,0:0:0:0:
15,152,28695,1,2,3:2:0:0:
139,239,29001,6,0,P|175:278|181:347,1,116.999996429443,10|0,0:0|3:0,0:0:0:0:
252,370,29460,2,0,P|288:355|349:342,1,87.7499973220826,8|8,0:0|0:0,0:0:0:0:
352,331,29766,2,0,P|373:340|410:347,1,58.4999982147217,0|0,3:0|3:0,0:0:0:0:
453,286,30072,2,0,P|471:272|495:243,1,58.4999982147217,8|10,0:0|0:0,0:0:0:0:
461,177,30378,6,0,B|402:169|413:206|339:202,1,116.999996429443,2|10,3:2|0:0,0:0:0:0:
276,224,30837,2,0,P|271:186|258:155,1,58.4999982147217,2|0,0:0|3:0,0:0:0:0:
204,119,31144,1,2,3:2:0:0:
314,14,31450,5,10,0:0:0:0:
364,70,31603,2,0,P|411:75|484:42,1,116.999996429443,2|10,0:0|0:0,0:0:0:0:
504,119,32062,2,0,P|494:149|490:181,1,58.4999982147217,2|0,0:0|3:0,0:0:0:0:
508,254,32368,1,0,3:0:0:0:
508,254,32521,1,8,0:0:0:0:
369,317,32827,6,0,P|303:308|232:302,1,116.999996429443,2|10,3:2|0:0,0:0:0:0:
180,278,33286,2,0,P|146:291|121:307,1,58.4999982147217,2|0,0:0|3:0,0:0:0:0:
78,361,33593,1,2,3:2:0:0:
29,217,33899,2,0,B|24:150|41:158|36:77,1,116.999996429443,10|0,0:0|3:0,0:0:0:0:
102,62,34358,2,0,P|107:90|114:119,1,58.4999982147217,8|0,0:0|3:0,0:0:0:0:
177,160,34664,1,0,3:0:0:0:
248,133,34817,1,8,0:0:0:0:
411,352,36348,5,2,0:2:0:0:
482,307,36501,2,0,P|493:275|499:232,1,65,14|2,0:2|3:2,0:0:0:0:
428,206,36807,1,2,0:0:0:0:
428,206,36960,1,2,3:2:0:0:
443,122,37113,2,0,P|479:113|530:95,1,65,10|0,0:2|3:0,0:0:0:0:
456,35,37419,2,0,P|420:26|369:8,1,65,2|0,0:0|3:0,0:0:0:0:
318,56,37725,6,0,P|260:55|230:127,1,130,10|0,0:2|0:0,0:0:0:0:
94,215,38337,2,0,P|51:209|6:194,1,65,10|0,0:2|3:0,0:0:0:0:
42,287,38644,2,0,P|85:293|130:308,1,65,2|0,0:0|3:0,0:0:0:0:
171,352,38950,5,10,0:2:0:0:
171,352,39103,1,2,3:2:0:0:
248,318,39256,2,0,P|262:288|275:246,1,65,2|2,0:0|3:2,0:0:0:0:
352,284,39562,2,0,B|423:280|406:304|500:297,1,130,10|2,0:2|0:0,0:0:0:0:
509,218,40021,1,0,3:0:0:0:
457,151,40174,6,0,P|470:84|491:2,1,130,10|0,0:2|0:0,0:0:0:0:
320,64,40786,2,0,P|285:75|243:78,1,65,10|0,0:2|3:0,0:0:0:0:
219,154,41093,2,0,P|246:178|269:213,1,65,2|0,0:0|3:0,0:0:0:0:
321,261,41399,5,14,0:2:0:0:
321,261,41552,1,2,3:2:0:0:
285,337,41705,2,0,P|242:333|198:332,1,65,2|2,0:0|3:2,0:0:0:0:
142,365,42011,2,0,P|82:327|77:248,1,130,10|2,0:2|0:0,0:0:0:0:
119,204,42470,1,0,3:0:0:0:
50,154,42623,6,0,P|46:88|28:15,1,130,10|2,0:2|0:0,0:0:0:0:
114,40,43082,2,0,P|150:30|189:12,1,65,2|8,3:2|0:2,0:0:0:0:
307,125,43542,2,0,P|350:120|410:107,1,97.5,2|0,0:0|0:0,0:0:0:0:
420,94,43848,6,0,B|402:167|448:151|435:236,1,130,10|0,0:2|0:0,0:0:0:0:
511,260,44307,2,0,P|445:270|373:289,1,130,2|0,3:2|3:0,0:0:0:0:
320,230,44766,6,0,P|264:248|241:328,1,130,2|8,0:0|0:2,0:0:0:0:
171,362,45225,1,2,3:2:0:0:
96,321,45378,2,0,P|101:279|101:236,1,65,2|0,0:0|3:0,0:0:0:0:
162,198,45684,1,8,0:2:0:0:
80,175,45837,1,8,0:0:0:0:
142,116,45991,1,10,0:2:0:0:
9,11,46297,6,0,P|39:30|84:37,1,65,14|2,0:2|3:2,0:0:0:0:
129,101,46603,1,2,0:0:0:0:
129,101,46756,1,2,3:2:0:0:
199,55,46909,2,0,P|209:98|211:146,1,65,10|0,0:2|3:0,0:0:0:0:
272,176,47215,2,0,P|262:219|260:267,1,65,2|0,0:0|3:0,0:0:0:0:
217,312,47521,6,0,B|292:306|271:343|357:337,1,130,10|0,0:2|0:0,0:0:0:0:
487,250,48133,2,0,P|490:215|496:172,1,65,10|0,0:2|3:0,0:0:0:0:
414,156,48439,2,0,P|417:121|423:78,1,65,2|2,0:0|3:2,0:0:0:0:
357,43,48746,5,10,0:2:0:0:
357,43,48899,1,2,3:2:0:0:
281,80,49052,2,0,P|249:71|220:57,1,65,2|2,0:0|3:2,0:0:0:0:
145,19,49358,2,0,P|123:83|132:161,1,130,10|2,0:2|0:0,0:0:0:0:
160,221,49817,1,0,3:0:0:0:
76,232,49970,6,0,P|83:296|86:361,1,130,10|0,0:2|0:0,0:0:0:0:
232,275,50582,2,0,P|267:265|300:248,1,65,10|0,0:2|3:0,0:0:0:0:
272,170,50888,2,0,P|280:134|282:97,1,65,2|0,0:0|3:0,0:0:0:0:
219,49,51195,5,14,0:2:0:0:
219,49,51348,1,2,3:2:0:0:
291,5,51501,2,0,P|326:13|356:36,1,65,2|2,0:0|3:2,0:0:0:0:
433,41,51807,2,0,B|422:116|452:100|438:199,1,130,10|2,0:2|0:0,0:0:0:0:
405,246,52266,1,0,3:0:0:0:
482,279,52419,6,0,P|431:277|374:343,2,130,10|2|8,0:2|0:0|0:2,0:0:0:0:
313,262,53337,2,0,P|273:248|220:222,1,97.5,2|0,0:0|0:0,0:0:0:0:
209,207,53644,6,0,P|196:286|140:340,1,130,14|0,0:2|0:0,0:0:0:0:
46,349,54103,2,0,P|83:296|89:232,1,130,10|2,0:2|3:2,0:0:0:0:
141,137,54562,2,0,P|135:105|127:73,1,65,10|0,0:2|0:0,0:0:0:0:
200,14,54868,5,8,0:2:0:0:
264,102,55021,1,8,0:2:0:0:
264,102,55098,1,8,0:2:0:0:
264,102,55174,2,0,P|282:104|303:106,2,32.5,10|8|0,0:2|0:2|3:0,0:0:0:0:
51,158,55786,5,2,0:0:0:0:
58,175,56093,6,0,L|84:242,1,71.5000021820069,6|0,3:2|0:0,0:0:0:0:
148,308,56399,2,0,L|174:241,1,71.5000021820069,10|0,0:0|0:0,0:0:0:0:
43,189,56705,6,0,L|84:247,1,71.5000021820069,2|0,3:2|3:0,0:0:0:0:
164,294,57011,2,0,L|171:223,1,71.5000021820069,10|0,0:0|0:0,0:0:0:0:
32,207,57317,6,0,L|87:252,1,71.5000021820069,2|0,3:2|0:0,0:0:0:0:
175,276,57623,2,0,L|164:206,1,71.5000021820069,10|0,0:0|0:0,0:0:0:0:
25,227,57929,6,0,L|90:256,1,71.5000021820069,2|0,3:2|3:0,0:0:0:0:
182,256,58235,2,0,L|153:191,1,71.5000021820069,10|0,0:0|0:0,0:0:0:0:
246,194,58542,6,0,B|304:204|304:204|326:232|326:232|393:244,1,143.000004364014,2|8,3:2|0:0,0:0:0:0:
423,319,59001,2,0,B|446:349|446:349|472:238,1,143.000004364014,0|0,0:0|3:0,0:0:0:0:
426,164,59460,1,10,0:0:0:0:
511,128,59613,1,2,0:0:0:0:
438,69,59766,6,0,L|281:56,1,143.000004364014,0|8,3:0|0:0,0:0:0:0:
207,26,60225,2,0,B|154:78|154:78|68:42,1,143.000004364014,0|0,0:0|3:0,0:0:0:0:
7,9,60684,2,0,B|0:45|0:45|5:81|5:81|-3:134,1,107.25000327301,10|0,0:0|0:0,0:0:0:0:
14,136,60991,6,0,L|88:127,1,71.5000021820069,6|0,3:2|0:0,0:0:0:0:
61,217,61297,2,0,L|105:276,1,71.5000021820069,10|0,0:0|0:0,0:0:0:0:
25,131,61603,6,0,L|99:141,1,71.5000021820069,2|0,3:2|3:0,0:0:0:0:
49,221,61909,2,0,L|102:353,1,143.000004364014,10|4,0:0|3:2,0:0:0:0:
194,372,62368,5,0,0:0:0:0:
253,300,62521,2,0,B|259:266|259:266|247:231,1,71.5000021820069,10|0,0:0|0:0,0:0:0:0:
182,164,62827,2,0,B|175:130|175:130|187:95,1,71.5000021820069,2|0,3:2|3:0,0:0:0:0:
269,50,63133,2,0,B|325:59|325:59|344:77|344:77|410:86,1,143.000004364014,10|4,0:0|3:2,0:0:0:0:
491,53,63593,5,0,0:0:0:0:
475,144,63746,2,0,L|465:226,1,71.5000021820069,10|0,0:0|0:0,0:0:0:0:
400,280,64052,2,0,L|408:350,2,71.5000021820069,2|0|8,3:2|3:0|0:0,0:0:0:0:
275,141,64664,6,0,L|266:70,1,71.5000021820069,0|0,3:0|3:0,0:0:0:0:
356,90,64970,1,8,0:0:0:0:
199,190,65276,2,0,B|148:204|148:204|97:185,1,107.25000327301,12|0,0:0|3:0,0:0:0:0:
74,176,65582,2,0,L|78:140,3,35.7500010910034,10|8|8|8,3:2|0:0|0:0|0:0,0:0:0:0:
82,116,65888,6,0,B|115:106|115:106|149:119,1,71.5000021820069,6|0,3:2|0:0,0:0:0:0:
208,46,66195,2,0,B|233:69|233:69|238:105,1,71.5000021820069,10|0,0:0|0:0,0:0:0:0:
75,98,66501,6,0,B|109:97|109:97|139:118,1,71.5000021820069,2|0,3:2|3:0,0:0:0:0:
214,63,66808,2,0,B|233:92|233:92|229:128,1,71.5000021820069,10|0,0:0|0:0,0:0:0:0:
72,79,67113,6,0,B|106:87|106:87|129:115,1,71.5000021820069,2|0,3:2|0:0,0:0:0:0:
217,82,67420,2,0,B|227:115|227:115|214:149,1,71.5000021820069,10|0,0:0|0:0,0:0:0:0:
75,61,67725,6,0,B|106:77|106:77|120:110,1,71.5000021820069,2|0,3:2|3:0,0:0:0:0:
214,100,68032,2,0,B|215:135|215:135|194:164,1,71.5000021820069,10|0,0:0|0:0,0:0:0:0:
114,213,68337,6,0,L|271:231,1,143.000004364014,2|8,3:2|0:0,0:0:0:0:
342,265,68797,2,0,B|356:231|356:231|312:132,1,143.000004364014,0|0,0:0|3:0,0:0:0:0:
265,53,69256,1,10,0:0:0:0:
347,10,69409,1,2,0:0:0:0:
391,83,69562,6,0,L|538:54,1,143.000004364014,0|8,3:0|0:0,0:0:0:0:
491,139,70021,2,0,B|457:202|457:202|489:286,1,143.000004364014,0|0,0:0|3:0,0:0:0:0:
418,336,70480,2,0,B|439:355|439:355|362:340,1,107.25000327301,10|0,0:0|0:0,0:0:0:0:
338,334,70786,6,0,B|324:299|324:299|335:267,1,71.5000021820069,6|0,3:2|0:0,0:0:0:0:
261,210,71093,2,0,B|284:180|284:180|317:174,1,71.5000021820069,10|0,0:0|0:0,0:0:0:0:
352,321,71399,6,0,B|330:291|330:291|333:258,1,71.5000021820069,2|0,3:2|3:0,0:0:0:0:
246,222,71706,2,0,B|275:152|275:152|337:124,1,143.000004364014,10|4,0:0|3:2,0:0:0:0:
186,16,72317,6,0,L|113:31,1,71.5000021820069,10|0,0:0|0:0,0:0:0:0:
64,107,72623,2,0,L|137:122,1,71.5000021820069,2|0,3:2|3:0,0:0:0:0:
148,213,72929,2,0,B|101:228|101:228|73:259|73:259|9:282,1,143.000004364014,10|4,0:0|3:2,0:0:0:0:
76,353,73388,5,0,0:0:0:0:
155,304,73542,2,0,L|253:317,1,71.5000021820069,10|0,0:0|0:0,0:0:0:0:
296,253,73848,2,0,L|394:240,2,71.5000021820069,2|0|8,3:2|3:0|0:0,0:0:0:0:
205,90,74460,6,0,L|107:77,1,71.5000021820069,0|0,3:0|3:0,0:0:0:0:
186,3,74766,1,8,0:0:0:0:
245,178,75072,2,0,B|241:221|241:221|227:241|227:241|220:285,1,107.25000327301,8|8,0:0|0:0,0:0:0:0:
217,305,75378,2,0,L|168:311,3,35.7500010910034,10|8|0|0,0:0|3:0|3:0|3:0,0:0:0:0:
159,311,75684,6,0,B|132:335|132:335|139:237,1,130,6|0,3:2|0:0,0:0:0:0:
78,181,76144,2,0,B|84:87|84:87|57:111,1,130,8|0,0:0|3:0,0:0:0:0:
20,35,76603,1,14,0:0:0:0:
98,3,76756,6,0,B|162:7,1,65,2|0,3:2|0:0,0:0:0:0:
222,67,77062,2,0,B|270:63|270:63|297:44|297:44|349:41,1,130,8|0,0:0|3:0,0:0:0:0:
378,119,77521,2,0,B|329:121|329:121|302:140|302:140|254:144,1,130,12|2,0:0|0:0,0:0:0:0:
202,212,77980,1,8,0:0:0:0:
202,212,78057,1,8,0:0:0:0:
202,212,78133,6,0,B|183:274|183:274|228:341,1,130,6|0,3:2|0:0,0:0:0:0:
289,375,78593,2,0,B|308:313|308:313|271:258,1,130,8|0,0:0|3:0,0:0:0:0:
352,235,79052,1,14,0:0:0:0:
398,305,79205,6,0,B|467:294,1,65,2|0,3:2|0:0,0:0:0:0:
506,223,79511,2,0,B|477:209|477:209|495:101,1,130,10|0,0:0|3:0,0:0:0:0:
419,71,79970,6,0,B|410:17,2,43.3333333333333,8|8|0,0:0|3:0|3:0,0:0:0:0:
379,110,80276,6,0,B|370:164,2,43.3333333333333,10|8|0,0:0|3:0|3:0,0:0:0:0:
339,70,80582,6,0,B|176:97,1,130,6|0,3:2|0:0,0:0:0:0:
233,9,81042,2,0,B|104:30,1,130,8|0,0:0|3:0,0:0:0:0:
22,49,81501,1,14,0:0:0:0:
78,111,81654,6,0,B|91:141|91:141|80:189,1,65,2|0,3:2|0:0,0:0:0:0:
30,238,81960,2,0,B|3:253|3:253|102:261,1,130,8|0,0:0|3:0,0:0:0:0:
174,304,82419,2,0,B|154:259|154:259|165:211,1,97.5,12|8,0:0|0:0,0:0:0:0:
173,199,82725,2,0,P|208:214|239:216,1,65,2|10,3:2|0:0,0:0:0:0:
323,250,83031,6,0,B|307:90,1,130,6|0,3:2|3:2,0:0:0:0:
256,49,83491,2,0,B|299:32|299:32|402:51,1,130,8|0,3:2|3:2,0:0:0:0:
458,4,83950,2,0,B|483:67|483:67|455:138,1,130,12|0,0:0|3:0,0:0:0:0:
394,181,84409,5,8,3:0:0:0:
474,220,84562,2,0,L|491:316,1,97.5,0|8,3:0|0:0,0:0:0:0:
484,327,84868,1,10,0:0:0:0:
404,288,85021,1,8,3:0:0:0:
321,308,85174,2,0,B|307:277|307:277|320:236,1,65,0|4,3:0|3:0,0:0:0:0:
382,194,85480,5,6,3:2:0:0:
256,192,85557,12,0,93439,0:0:0:0:
