osu file format v14

[General]
AudioFilename: audio.mp3
AudioLeadIn: 0
PreviewTime: 55710
Countdown: 0
SampleSet: Soft
StackLeniency: 0.7
Mode: 0
LetterboxInBreaks: 0
WidescreenStoryboard: 0

[Editor]
DistanceSpacing: 1.4
BeatDivisor: 4
GridSize: 8
TimelineZoom: 1

[Metadata]
Title:Sayonara Moon Town (TV Size)
TitleUnicode:サヨナラムーンタウン (TV Size)
Artist:Scenarioart
ArtistUnicode:シナリオアート
Creator:Nevo
Version:Jougan
Source:BORUTO-ボルト- NARUTO NEXT GENERATIONS
Tags:ending jougan anime japanese rock pop killian wanpachi cycopton defy jrock jpop
BeatmapID:3695350
BeatmapSetID:1802118

[Difficulty]
HPDrainRate:6
CircleSize:3.8
OverallDifficulty:8.8
ApproachRate:9.3
SliderMultiplier:1.7
SliderTickRate:1

[Events]
//Background and Video events
0,0,"thumb-1920-833664.jpg",0,0
Video,1540,"Video(1).mp4"
//Break Periods
//Storyboard Layer 0 (Background)
//Storyboard Layer 1 (Fail)
//Storyboard Layer 2 (Pass)
//Storyboard Layer 3 (Foreground)
//Storyboard Layer 4 (Overlay)
//Storyboard Sound Samples

[TimingPoints]
991,306.122448979592,4,2,1,75,1,0
13235,-200,4,2,1,60,0,0
15684,-125,4,2,1,55,0,0
25480,-117.647058823529,4,2,1,55,0,0
36501,-117.647058823529,4,2,1,65,0,0
56093,-83.3333333333333,4,2,1,75,0,1
75684,-100,4,2,1,75,0,0
76756,-111.111111111111,4,2,1,75,0,0
78133,-125,4,2,1,75,0,0

[Colours]
Combo1 : 254,231,148
Combo2 : 0,217,217
Combo3 : 192,192,192

[HitObjects]
474,270,991,6,0,P|421:288|324:231,1,170,6|8,3:2|0:0,0:0:0:0:
204,340,1450,2,0,P|270:290|351:306,1,170,2|0,0:0|3:0,0:0:0:0:
411,201,1909,1,10,0:0:0:0:
277,149,2062,1,2,3:2:0:0:
375,3,2215,6,0,L|362:109,1,85,2|0,0:0|3:0,0:0:0:0:
326,236,2521,1,8,0:0:0:0:
194,198,2674,2,0,L|183:113,1,85,2|0,0:0|3:0,0:0:0:0:
115,252,2980,1,0,3:0:0:0:
277,149,3133,1,10,0:0:0:0:
96,118,3286,1,2,0:0:0:0:
269,320,3439,6,0,B|314:344|314:344|449:317,1,170,2|8,3:2|0:0,0:0:0:0:
505,121,3899,2,0,P|441:143|432:252,1,170,2|0,0:0|3:0,0:0:0:0:
368,70,4358,1,10,0:0:0:0:
296,174,4511,1,2,3:2:0:0:
240,13,4664,6,0,L|138:0,1,85,2|0,0:0|3:0,0:0:0:0:
46,83,4970,1,8,0:0:0:0:
206,199,5123,2,0,L|308:186,1,85,2|0,0:0|3:0,0:0:0:0:
147,112,5429,1,2,3:2:0:0:
121,278,5582,1,10,0:0:0:0:
363,128,5735,1,8,0:0:0:0:
363,128,5812,1,8,0:0:0:0:
363,128,5888,6,0,P|388:178|324:275,1,170,2|8,3:2|0:0,0:0:0:0:
129,370,6348,2,0,P|146:316|260:293,1,170,2|0,0:0|3:0,0:0:0:0:
403,335,6807,1,10,0:0:0:0:
289,188,6960,1,2,3:2:0:0:
474,270,7113,6,0,P|504:202|508:164,1,85,2|0,0:0|3:0,0:0:0:0:
405,12,7419,1,8,0:0:0:0:
401,120,7572,2,0,P|470:93|499:69,1,85,2|0,0:0|3:0,0:0:0:0:
276,13,7878,1,0,3:0:0:0:
218,130,8031,2,0,L|122:109,1,85,10|2,0:0|0:0,0:0:0:0:
0,277,8337,6,0,B|37:238|37:238|173:216,1,170,2|8,3:2|0:0,0:0:0:0:
141,11,8797,2,0,P|54:53|40:134,1,170,2|2,0:0|3:2,0:0:0:0:
245,227,9256,1,10,0:0:0:0:
134,111,9409,1,2,3:2:0:0:
93,325,9562,6,0,L|176:310,1,85,2|2,0:0|3:2,0:0:0:0:
338,228,9868,1,10,0:0:0:0:
410,369,10021,2,0,L|326:354,1,85,2|2,0:0|3:2,0:0:0:0:
241,207,10327,1,2,3:2:0:0:
424,168,10480,1,8,0:0:0:0:
308,33,10633,1,8,0:0:0:0:
308,33,10710,1,8,0:0:0:0:
308,33,10786,6,0,P|304:83|320:127,1,85,6|0,3:2|0:0,0:0:0:0:
431,65,11093,1,8,0:0:0:0:
203,114,11246,2,0,P|164:146|145:188,1,85,2|0,0:0|3:0,0:0:0:0:
153,366,11552,1,0,3:0:0:0:
246,202,11705,1,10,0:0:0:0:
371,358,11858,1,2,3:2:0:0:
218,289,12011,6,0,B|161:272|161:272|111:275|111:275|48:258,1,170,2|8,0:0|0:0,0:0:0:0:
43,119,12470,1,8,0:0:0:0:
43,119,12547,1,8,0:0:0:0:
43,119,12623,1,8,0:0:0:0:
130,170,12776,1,8,3:0:0:0:
43,265,12929,1,0,3:0:0:0:
224,185,13082,1,0,3:0:0:0:
320,240,13235,5,6,3:2:0:0:
456,150,13695,2,0,L|463:103,1,42.5,0|8,3:0|0:0,0:0:0:0:
413,9,14154,5,2,0:0:0:0:
248,149,14613,1,8,0:0:0:0:
115,88,14919,1,0,0:0:0:0:
33,129,15072,5,8,0:0:0:0:
118,222,15302,1,8,0:0:0:0:
52,336,15531,1,8,0:0:0:0:
198,296,15684,6,0,P|256:277|283:275,1,68,6|0,3:2|0:0,0:0:0:0:
342,319,15991,1,10,0:0:0:0:
454,226,16144,2,0,L|439:293,1,68,2|0,0:0|3:0,0:0:0:0:
362,202,16450,2,0,L|329:69,1,136,2|10,3:2|0:0,0:0:0:0:
249,161,16909,6,0,P|200:163|146:93,1,136,2|10,0:0|0:0,0:0:0:0:
0,158,17368,2,0,P|52:141|86:138,1,68,2|0,0:0|3:0,0:0:0:0:
164,253,17674,2,0,P|135:234|104:220,1,68,2|8,3:2|0:0,0:0:0:0:
227,81,17980,1,8,0:0:0:0:
227,81,18057,1,8,0:0:0:0:
227,81,18133,6,0,L|245:-2,1,68,2|0,3:2|0:0,0:0:0:0:
147,13,18439,1,10,0:0:0:0:
323,71,18593,2,0,L|337:137,1,68,2|0,0:0|3:0,0:0:0:0:
428,184,18899,2,0,L|442:118,1,68,2|0,3:2|0:0,0:0:0:0:
310,244,19205,6,0,P|256:208|171:241,1,136,10|0,0:0|3:0,0:0:0:0:
122,284,19664,1,8,0:0:0:0:
231,365,19817,1,0,0:0:0:0:
231,365,19894,1,8,0:0:0:0:
231,365,19970,2,0,L|244:280,1,68,0|0,3:0|3:0,0:0:0:0:
158,125,20276,1,8,0:0:0:0:
158,125,20582,6,0,P|116:135|37:72,1,136,2|10,3:2|0:0,0:0:0:0:
211,15,21042,2,0,P|251:2|285:3,1,68,2|0,0:0|3:0,0:0:0:0:
375,72,21348,2,0,L|353:214,1,136,2|8,3:2|0:0,0:0:0:0:
288,329,21807,6,0,P|279:291|292:250,1,68,2|0,0:0|3:0,0:0:0:0:
497,283,22113,1,10,0:0:0:0:
497,283,22266,2,0,B|461:305|461:305|339:293,1,136,2|0,0:0|3:0,0:0:0:0:
272,175,22725,2,0,L|193:185,1,68,8|8,0:0|0:0,0:0:0:0:
68,342,23031,6,0,P|122:327|143:240,1,136,2|10,3:2|0:0,0:0:0:0:
40,191,23491,2,0,P|53:247|64:261,1,68,2|0,0:0|3:0,0:0:0:0:
151,113,23797,2,0,P|158:85|155:41,1,68,2|0,3:2|0:0,0:0:0:0:
0,90,24103,6,0,L|94:77,1,68,10|0,0:0|0:0,0:0:0:0:
229,0,24409,1,0,3:0:0:0:
283,120,24562,2,0,B|230:111|230:111|200:121|200:121|122:108,1,136,10|2,0:0|3:0,0:0:0:0:
95,185,25021,1,0,3:0:0:0:
244,277,25174,1,8,0:0:0:0:
244,277,25480,6,0,P|290:236|368:247,1,144.500002756119,6|10,3:2|0:0,0:0:0:0:
461,339,25939,2,0,L|485:264,1,72.2500013780594,2|0,0:0|3:0,0:0:0:0:
437,182,26246,2,0,L|461:257,1,72.2500013780594,2|0,3:2|0:0,0:0:0:0:
494,95,26552,1,8,0:0:0:0:
340,140,26705,6,0,P|276:135|245:110,1,72.2500013780594,2|0,0:0|3:0,0:0:0:0:
320,59,27011,1,10,0:0:0:0:
222,203,27164,2,0,P|277:226|362:225,1,144.500002756119,2|0,0:0|3:0,0:0:0:0:
181,115,27623,2,0,P|136:154|128:183,1,72.2500013780594,8|10,0:0|0:0,0:0:0:0:
52,234,27929,6,0,L|37:146,1,72.2500013780594,2|0,3:2|0:0,0:0:0:0:
145,261,28235,1,10,0:0:0:0:
75,326,28388,2,0,P|32:326|-13:311,1,72.2500013780594,2|0,0:0|3:0,0:0:0:0:
158,252,28695,2,0,P|201:252|246:267,1,72.2500013780594,2|0,3:2|0:0,0:0:0:0:
333,367,29001,6,0,L|361:221,1,144.500002756119,10|0,0:0|3:0,0:0:0:0:
506,168,29460,1,8,0:0:0:0:
407,98,29613,1,0,0:0:0:0:
407,98,29689,1,8,0:0:0:0:
407,98,29766,2,0,L|423:171,1,72.2500013780594,0|0,3:0|3:0,0:0:0:0:
447,18,30072,1,8,0:0:0:0:
447,18,30378,6,0,P|397:54|302:60,1,144.500002756119,2|10,3:2|0:0,0:0:0:0:
196,6,30837,2,0,L|109:1,1,72.2500013780594,2|0,0:0|3:0,0:0:0:0:
68,102,31144,2,0,L|174:88,1,72.2500013780594,2|0,3:2|0:0,0:0:0:0:
211,139,31450,1,10,0:0:0:0:
159,273,31603,6,0,P|137:238|129:189,1,72.2500013780594,2|0,0:0|3:0,0:0:0:0:
257,307,31909,1,10,0:0:0:0:
353,273,32062,2,0,P|375:238|383:189,1,72.2500013780594,2|0,0:0|3:0,0:0:0:0:
301,139,32368,1,0,3:0:0:0:
470,62,32521,2,0,L|449:151,1,72.2500013780594,8|8,0:0|0:0,0:0:0:0:
377,79,32751,5,8,0:0:0:0:
377,79,32827,2,0,P|362:36|366:2,1,72.2500013780594,2|0,3:2|0:0,0:0:0:0:
448,145,33133,1,10,0:0:0:0:
290,147,33286,2,0,P|248:127|227:100,1,72.2500013780594,2|0,0:0|3:0,0:0:0:0:
120,32,33593,2,0,P|135:75|131:109,1,72.2500013780594,2|2,3:2|0:3,0:0:0:0:
35,217,33899,6,0,L|50:124,1,72.2500013780594,10|2,0:0|0:3,0:0:0:0:
118,268,34205,1,0,3:0:0:0:
19,309,34358,1,8,0:0:0:0:
213,289,34511,1,0,3:0:0:0:
133,101,34664,5,0,3:0:0:0:
99,363,34817,1,8,0:0:0:0:
306,280,35276,1,2,0:0:0:0:
495,333,35888,1,2,0:0:0:0:
438,180,36348,5,2,0:2:0:0:
399,334,36501,1,14,0:2:0:0:
332,205,36654,1,2,3:2:0:0:
403,350,36807,1,2,0:0:0:0:
497,248,36960,1,2,3:2:0:0:
297,302,37113,2,0,P|247:295|209:279,1,72.2500013780594,10|0,0:2|3:0,0:0:0:0:
285,92,37419,2,0,P|335:99|373:115,1,72.2500013780594,2|0,0:0|3:0,0:0:0:0:
196,177,37725,6,0,L|181:15,1,144.500002756119,10|0,0:2|0:0,0:0:0:0:
186,188,38337,2,0,L|170:273,1,72.2500013780594,10|0,0:2|3:0,0:0:0:0:
32,132,38644,2,0,L|45:221,1,72.2500013780594,2|0,0:0|3:0,0:0:0:0:
75,358,38950,5,10,0:2:0:0:
234,322,39103,1,2,3:2:0:0:
146,286,39256,1,2,0:0:0:0:
328,336,39409,1,2,3:2:0:0:
278,167,39562,2,0,P|280:202|292:236,1,72.2500013780594,10|0,0:2|3:0,0:0:0:0:
437,286,39868,2,0,P|448:251|451:216,1,72.2500013780594,2|0,0:0|3:0,0:0:0:0:
356,11,40174,6,0,L|380:167,1,144.500002756119,10|0,0:2|0:0,0:0:0:0:
264,86,40633,1,0,3:0:0:0:
264,86,40786,2,0,L|182:75,1,72.2500013780594,10|0,0:2|3:0,0:0:0:0:
60,25,41093,2,0,L|142:14,1,72.2500013780594,2|0,0:0|3:0,0:0:0:0:
75,196,41399,5,14,0:2:0:0:
21,104,41552,1,2,3:2:0:0:
174,228,41705,1,2,0:0:0:0:
94,326,41858,1,2,3:2:0:0:
277,201,42011,2,0,P|328:182|367:181,1,72.2500013780594,10|0,0:2|3:0,0:0:0:0:
273,357,42317,2,0,P|237:350|204:336,1,72.2500013780594,2|0,0:0|3:0,0:0:0:0:
426,276,42623,6,0,L|402:374,1,72.2500013780594,10|0,0:2|3:0,0:0:0:0:
326,283,42929,1,2,0:0:0:0:
423,125,43082,2,0,L|445:288,1,144.500002756119,2|0,3:2|3:0,0:0:0:0:
330,82,43542,2,0,P|352:52|395:29,1,72.2500013780594,2|0,0:0|3:0,0:0:0:0:
169,6,43848,6,0,P|215:40|213:132,1,144.500002756119,10|0,0:2|0:0,0:0:0:0:
9,136,44307,2,0,B|39:103|39:103|159:87,1,144.500002756119,2|0,3:2|3:0,0:0:0:0:
218,208,44766,2,0,B|158:201|158:201|128:206|128:206|61:196,1,144.500002756119,2|8,0:0|0:2,0:0:0:0:
166,288,45225,1,2,3:2:0:0:
297,161,45378,2,0,L|397:155,1,72.2500013780594,2|0,0:0|3:0,0:0:0:0:
498,216,45684,1,8,0:2:0:0:
498,216,45837,1,8,0:0:0:0:
426,101,45991,6,0,P|406:158|398:217,1,108.375002067089,10|0,0:2|0:0,0:0:0:0:
427,291,46297,1,14,0:2:0:0:
275,245,46450,1,2,3:2:0:0:
184,289,46603,1,2,0:0:0:0:
297,161,46756,1,2,3:2:0:0:
341,305,46909,2,0,L|352:384,1,72.2500013780594,10|0,0:2|3:0,0:0:0:0:
184,207,47215,2,0,L|173:286,1,72.2500013780594,2|0,0:0|3:0,0:0:0:0:
378,109,47521,6,0,P|307:118|255:65,1,144.500002756119,10|0,0:2|0:0,0:0:0:0:
143,11,47980,1,0,3:0:0:0:
143,11,48133,2,0,L|154:96,1,72.2500013780594,10|0,0:2|3:0,0:0:0:0:
35,123,48439,2,0,L|44:51,1,72.2500013780594,2|2,0:0|3:2,0:0:0:0:
28,290,48746,5,10,0:2:0:0:
216,239,48899,1,2,3:2:0:0:
74,198,49052,1,2,0:0:0:0:
229,250,49205,1,2,3:2:0:0:
126,370,49358,2,0,L|113:281,1,72.2500013780594,10|0,0:2|3:0,0:0:0:0:
322,226,49664,2,0,L|309:315,1,72.2500013780594,2|0,0:0|3:0,0:0:0:0:
263,130,49970,6,0,B|322:120|322:120|349:123|349:123|409:113,1,144.500002756119,10|0,0:2|0:0,0:0:0:0:
482,222,50429,1,0,3:0:0:0:
482,222,50582,2,0,P|437:216|409:199,1,72.2500013780594,10|0,0:2|3:0,0:0:0:0:
353,34,50888,2,0,P|385:18|420:15,1,72.2500013780594,2|0,0:0|3:0,0:0:0:0:
263,130,51195,5,14,0:2:0:0:
164,40,51348,1,2,3:2:0:0:
108,226,51501,1,2,0:0:0:0:
68,100,51654,1,2,3:2:0:0:
213,230,51807,2,0,L|197:309,1,72.2500013780594,10|0,0:2|3:0,0:0:0:0:
0,205,52113,2,0,L|16:284,1,72.2500013780594,2|0,0:0|3:0,0:0:0:0:
283,151,52419,6,0,P|238:126|192:124,1,72.2500013780594,10|0,0:2|3:0,0:0:0:0:
301,277,52725,2,0,P|335:268|365:248,1,72.2500013780594,2|0,0:0|3:0,0:0:0:0:
452,92,53031,2,0,L|462:20,1,72.2500013780594,8|0,0:2|3:0,0:0:0:0:
380,155,53337,2,0,P|423:184|505:176,1,108.375002067089,2|0,0:0|0:0,0:0:0:0:
478,186,53644,6,0,L|497:279,1,72.2500013780594,14|0,0:2|0:0,0:0:0:0:
481,349,53950,1,0,0:0:0:0:
301,277,54103,2,0,L|281:370,1,72.2500013780594,10|0,0:2|0:0,0:0:0:0:
79,259,54409,1,2,3:2:0:0:
79,259,54562,2,0,P|56:219|55:184,1,72.2500013780594,10|0,0:2|0:0,0:0:0:0:
77,84,54868,5,8,0:2:0:0:
156,200,55021,1,8,0:2:0:0:
191,196,55097,1,8,0:2:0:0:
227,192,55174,1,10,0:2:0:0:
263,188,55250,1,8,0:2:0:0:
299,185,55327,1,0,3:0:0:0:
477,37,55786,6,0,B|458:16|458:16|411:6|364:42,1,108.375002067089,2|0,0:0|0:0,0:0:0:0:
309,83,56093,6,0,P|300:130|298:188,1,101.999996887207,6|0,3:2|0:0,0:0:0:0:
431,186,56399,2,0,P|391:212|348:252,1,101.999996887207,10|0,0:0|0:0,0:0:0:0:
155,75,56705,2,0,P|181:114|221:157,1,101.999996887207,2|0,3:2|3:0,0:0:0:0:
408,89,57011,1,10,0:0:0:0:
242,18,57164,1,0,0:0:0:0:
247,247,57317,6,0,P|173:238|115:285,1,152.999995330811,2|0,3:2|0:0,0:0:0:0:
50,351,57623,2,0,P|98:337|132:281,1,101.999996887207,10|0,0:0|0:0,0:0:0:0:
130,77,57929,2,0,P|93:42|28:40,1,101.999996887207,2|0,3:2|3:0,0:0:0:0:
0,185,58235,2,0,L|119:172,1,101.999996887207,10|0,0:0|0:0,0:0:0:0:
405,135,58542,6,0,B|321:121|321:121|281:135|281:135|190:121,1,203.999993774414,2|8,3:2|0:0,0:0:0:0:
332,222,59001,1,0,0:0:0:0:
386,32,59154,1,0,3:0:0:0:
386,32,59307,1,0,3:0:0:0:
205,123,59460,1,10,0:0:0:0:
277,302,59613,6,0,P|403:297|423:199,1,203.999993774414,2|0,0:0|0:0,0:0:0:0:
189,254,60072,1,8,0:0:0:0:
189,254,60225,2,0,P|174:289|179:367,1,101.999996887207,0|0,0:0|3:0,0:0:0:0:
332,222,60531,1,0,3:0:0:0:
106,163,60684,2,0,B|61:151|61:151|43:153|43:153|-6:137,1,101.999996887207,10|0,0:0|0:0,0:0:0:0:
174,13,60991,6,0,P|185:68|194:133,1,101.999996887207,6|0,3:2|0:0,0:0:0:0:
277,302,61297,2,0,P|301:257|339:211,1,101.999996887207,10|0,0:0|0:0,0:0:0:0:
281,44,61603,2,0,P|329:30|388:24,1,101.999996887207,2|0,3:2|3:0,0:0:0:0:
493,150,61909,2,0,L|296:129,1,152.999995330811,10|0,0:0|0:0,0:0:0:0:
256,165,62215,6,0,L|125:183,1,101.999996887207,4|0,3:2|0:0,0:0:0:0:
9,51,62521,2,0,P|69:83|94:120,1,101.999996887207,10|0,0:0|0:0,0:0:0:0:
64,347,62827,2,0,P|61:279|81:238,1,101.999996887207,2|0,3:2|3:0,0:0:0:0:
256,165,63133,1,10,0:0:0:0:
213,317,63286,1,0,0:0:0:0:
171,103,63439,5,4,3:2:0:0:
395,62,63593,1,0,0:0:0:0:
298,270,63746,2,0,L|258:155,1,101.999996887207,10|0,0:0|0:0,0:0:0:0:
466,267,64052,2,0,L|432:363,1,101.999996887207,2|0,3:2|3:0,0:0:0:0:
378,183,64358,1,8,0:0:0:0:
512,138,64511,1,0,0:0:0:0:
278,66,64664,5,0,3:0:0:0:
278,66,64817,1,0,3:0:0:0:
228,304,64970,1,8,0:0:0:0:
228,304,65123,1,0,0:0:0:0:
46,177,65276,5,12,0:0:0:0:
104,292,65429,2,0,L|121:233,1,50.9999984436036,0|0,3:0|3:0,0:0:0:0:
175,168,65582,1,10,3:2:0:0:
170,132,65658,1,8,0:0:0:0:
165,97,65735,1,8,0:0:0:0:
161,61,65811,1,8,0:0:0:0:
156,26,65888,6,0,P|90:15|30:76,1,152.999995330811,6|0,3:2|0:0,0:0:0:0:
46,177,66195,2,0,L|72:289,1,101.999996887207,10|0,0:0|0:0,0:0:0:0:
291,128,66501,2,0,L|265:240,1,101.999996887207,2|0,3:2|3:0,0:0:0:0:
249,31,66807,1,10,0:0:0:0:
249,31,66960,1,0,0:0:0:0:
352,268,67113,6,0,P|407:261|451:228,1,101.999996887207,2|0,3:2|0:0,0:0:0:0:
166,357,67419,2,0,P|111:350|67:317,1,101.999996887207,10|0,0:0|0:0,0:0:0:0:
250,204,67725,1,2,3:2:0:0:
287,365,67878,1,0,3:0:0:0:
153,163,68031,2,0,P|217:109|317:119,1,152.999995330811,10|0,0:0|0:0,0:0:0:0:
385,67,68337,6,0,L|360:179,1,101.999996887207,2|0,3:2|0:0,0:0:0:0:
414,365,68644,1,8,0:0:0:0:
493,302,68797,2,0,P|435:266|368:272,1,101.999996887207,0|0,0:0|3:0,0:0:0:0:
187,314,69103,1,0,3:0:0:0:
287,365,69256,1,10,0:0:0:0:
79,285,69409,6,0,P|31:199|76:111,1,203.999993774414,2|0,0:0|0:0,0:0:0:0:
193,72,69868,1,8,0:0:0:0:
247,212,70021,2,0,L|132:198,1,101.999996887207,0|0,0:0|3:0,0:0:0:0:
278,0,70327,1,0,3:0:0:0:
278,0,70480,2,0,P|300:48|297:114,1,101.999996887207,10|0,0:0|0:0,0:0:0:0:
341,212,70786,6,0,P|386:155|494:171,1,152.999995330811,6|0,3:2|0:0,0:0:0:0:
348,225,71093,2,0,L|238:210,1,101.999996887207,10|0,0:0|0:0,0:0:0:0:
112,236,71399,1,2,3:2:0:0:
201,383,71552,1,0,3:0:0:0:
3,351,71705,2,0,L|104:337,1,101.999996887207,10|0,0:0|0:0,0:0:0:0:
363,366,72011,6,0,P|417:355|408:252,1,152.999995330811,4|0,3:2|0:0,0:0:0:0:
296,314,72317,2,0,P|321:365|366:381,1,101.999996887207,10|0,0:0|0:0,0:0:0:0:
236,156,72623,2,0,L|213:270,1,101.999996887207,2|0,3:2|3:0,0:0:0:0:
389,81,72929,2,0,L|412:195,1,101.999996887207,10|0,0:0|0:0,0:0:0:0:
161,109,73235,6,0,P|218:66|306:100,1,152.999995330811,4|0,3:2|0:0,0:0:0:0:
150,120,73542,2,0,L|32:95,1,101.999996887207,10|0,0:0|0:0,0:0:0:0:
116,277,73848,2,0,L|234:252,1,101.999996887207,2|0,3:2|3:0,0:0:0:0:
411,218,74154,1,8,0:0:0:0:
411,218,74307,1,0,0:0:0:0:
266,363,74460,5,0,3:0:0:0:
224,143,74613,1,0,3:0:0:0:
382,301,74766,1,8,0:0:0:0:
389,77,74919,1,0,0:0:0:0:
151,209,75072,1,8,0:0:0:0:
317,232,75225,1,8,0:0:0:0:
317,232,75302,1,8,0:0:0:0:
317,232,75378,1,10,0:0:0:0:
259,26,75531,1,0,3:0:0:0:
183,305,75684,6,0,P|125:309|47:215,1,170,6|0,3:2|0:0,0:0:0:0:
165,49,76144,2,0,B|189:96|189:96|146:222,1,170,8|0,0:0|3:0,0:0:0:0:
71,141,76603,1,14,0:0:0:0:
232,102,76756,2,0,P|303:89|385:125,2,152.999995330811,2|8|0,3:2|0:0|3:0,0:0:0:0:
270,261,77521,2,0,L|298:171,1,76.4999976654053,12|0,0:0|3:0,0:0:0:0:
341,58,77827,1,2,0:0:0:0:
451,173,77980,1,8,0:0:0:0:
451,173,78057,1,8,0:0:0:0:
451,173,78133,6,0,L|468:327,1,136,6|0,3:2|0:0,0:0:0:0:
403,383,78593,2,0,P|353:346|264:357,1,136,8|0,0:0|3:0,0:0:0:0:
190,384,79052,1,14,0:0:0:0:
70,260,79205,6,0,B|48:171|48:171|65:114,2,136,2|10|0,3:2|0:0|3:0,0:0:0:0:
154,299,79970,2,0,L|167:242,2,45.3333333333333,8|8|0,0:0|3:0|3:0,0:0:0:0:
251,283,80276,2,0,L|260:226,2,45.3333333333333,10|8|0,0:0|3:0|3:0,0:0:0:0:
355,193,80582,6,0,P|304:199|233:139,1,136,6|0,3:2|0:0,0:0:0:0:
138,109,81042,2,0,P|168:56|252:40,1,136,8|0,0:0|3:0,0:0:0:0:
325,91,81501,1,14,0:0:0:0:
453,0,81654,6,0,L|481:141,2,136,2|8|0,3:2|0:0|3:0,0:0:0:0:
395,153,82419,2,0,L|413:234,1,68,12|0,0:0|0:0,0:0:0:0:
483,257,82649,1,8,0:0:0:0:
483,257,82725,2,0,L|468:323,1,68,2|10,3:2|0:0,0:0:0:0:
375,364,83031,6,0,B|331:346|298:362|298:362|266:376|217:361,1,136,6|0,3:2|3:2,0:0:0:0:
72,311,83491,2,0,P|129:327|134:264,1,136,8|0,3:2|3:2,0:0:0:0:
47,170,83950,2,0,P|23:122|53:31,1,136,12|0,0:0|3:0,0:0:0:0:
142,35,84409,2,0,L|125:130,1,68,8|0,3:0|3:0,0:0:0:0:
229,224,84715,5,8,0:0:0:0:
229,224,84792,1,8,0:0:0:0:
229,224,84868,2,0,P|263:230|309:210,1,68,10|8,0:0|3:0,0:0:0:0:
403,87,85174,1,0,3:0:0:0:
249,133,85327,1,4,3:0:0:0:
460,263,85480,5,6,3:2:0:0:
256,192,85557,12,0,93439,0:0:0:0:
