osu file format v14

[General]
AudioFilename: audio.mp3
AudioLeadIn: 0
PreviewTime: 167567
Countdown: 1
SampleSet: Soft
StackLeniency: 0.5
Mode: 0
LetterboxInBreaks: 0
WidescreenStoryboard: 0

[Editor]
DistanceSpacing: 1
BeatDivisor: 4
GridSize: 32
TimelineZoom: 1

[Metadata]
Title:Sayonara Moon Town
TitleUnicode:Sayonara Moon Town
Artist:Scenarioart
ArtistUnicode:Scenarioart
Creator:P A N
Version:Truth
Source:BORUTO-ボルト- NARUTO NEXT GENERATIONS
Tags:
BeatmapID:1645416
BeatmapSetID:783596

[Difficulty]
HPDrainRate:7
CircleSize:4.3
OverallDifficulty:9
ApproachRate:9.3
SliderMultiplier:1.9
SliderTickRate:1

[Events]
//Background and Video events
0,0,"fs.jpg",0,0
//Break Periods
//Storyboard Layer 0 (Background)
//Storyboard Layer 1 (Fail)
//Storyboard Layer 2 (Pass)
//Storyboard Layer 3 (Foreground)
//Storyboard Sound Samples

[TimingPoints]
654,306.122448979592,4,2,1,70,1,0
17796,-200,4,2,1,70,0,0
19633,-100,4,2,1,70,0,0
19786,-100,4,2,1,5,0,0
19863,-100,4,2,1,70,0,0
20016,-100,4,2,1,5,0,0
20092,-100,4,2,1,70,0,0
20169,-100,4,2,1,5,0,0
20245,-133.333333333333,4,2,1,60,0,0
39837,-200,4,2,1,60,0,0
41062,-200,4,2,1,60,0,0
41674,-133.333333333333,4,2,1,60,0,0
60347,-200,4,2,1,60,0,0
60654,-100,4,2,1,60,0,0

[Colours]
Combo1 : 255,153,204
Combo2 : 81,199,255
Combo3 : 0,52,104
Combo4 : 255,87,91

[HitObjects]
256,192,654,12,0,5245,0:0:0:0:
317,135,5551,6,0,B|360:119|374:74|374:74|433:55|481:104,1,190
333,219,6011,2,0,P|281:212|247:182,1,95
286,54,6317,1,0,0:0:0:0:
414,173,6470,2,0,B|424:221|424:221|416:276,1,95
101,351,6776,22,0,B|141:362|141:362|203:358,1,95
192,219,7082,1,0,0:0:0:0:
69,269,7235,2,0,P|24:248|-2:206,1,95
58,60,7541,1,0,0:0:0:0:
200,124,7694,2,0,L|191:227,1,95
495,350,8000,38,0,L|476:153,1,190
351,42,8460,2,0,P|334:88|343:142,1,95
394,243,8766,1,0,0:0:0:0:
508,85,8919,2,0,P|461:78|418:95,1,95
111,294,9225,22,0,L|93:192,1,95
190,128,9531,1,0,0:0:0:0:
241,326,9684,2,0,L|256:225,1,95
277,89,9990,1,0,0:0:0:0:
179,212,10143,1,0,0:0:0:0:
423,160,10296,1,0,0:0:0:0:
423,160,10373,1,0,0:0:0:0:
423,160,10449,6,0,B|453:146|486:156|486:156|519:214|482:299,1,190
345,361,10909,2,0,P|331:324|334:266,1,95
423,160,11215,1,0,0:0:0:0:
329,61,11368,2,0,B|283:51|283:51|226:66,1,95
221,368,11674,22,0,P|241:325|237:272,1,95
185,135,11980,1,0,0:0:0:0:
71,236,12133,2,0,P|68:289|88:335,1,95
238,278,12439,1,0,0:0:0:0:
185,135,12592,2,0,B|148:120|148:120|79:125,1,95
433,307,12898,38,0,P|415:212|464:119,1,190
298,225,13358,2,0,P|258:199|203:201,1,95
368,339,13664,1,0,0:0:0:0:
415,215,13817,2,0,P|453:186|508:180,1,95
238,35,14123,22,0,L|144:38,1,95
21,139,14429,2,0,P|18:188|39:232,1,95
57,260,14659,1,0,0:0:0:0:
90,276,14735,1,0,0:0:0:0:
243,200,14888,1,0,0:0:0:0:
226,364,15041,1,0,0:0:0:0:
121,157,15194,1,0,0:0:0:0:
121,157,15271,1,0,0:0:0:0:
121,157,15347,6,0,P|178:81|276:77,1,190
406,203,15807,2,0,L|416:104,1,95
512,215,16113,1,0,0:0:0:0:
377,299,16266,2,0,P|328:299|282:268,1,95
495,22,16572,22,0,L|502:120,1,95
512,286,16878,1,0,0:0:0:0:
382,160,17031,1,0,0:0:0:0:
382,160,17108,1,0,0:0:0:0:
382,160,17184,1,0,0:0:0:0:
506,189,17337,1,0,0:0:0:0:
307,105,17490,1,0,0:0:0:0:
385,285,17643,1,0,0:0:0:0:
379,42,17796,38,0,P|314:15|229:49,1,166.25
166,112,18409,1,0,0:0:0:0:
24,312,18715,2,0,L|29:362,2,47.5
117,177,19174,1,0,0:0:0:0:
36,216,19327,1,0,0:0:0:0:
111,271,19480,1,0,0:0:0:0:
39,129,19633,22,0,P|74:94|124:85,1,95
113,57,19863,2,0,P|164:47|219:70,1,95
235,44,20092,2,0,P|261:57|280:74,1,47.5
308,138,20245,6,0,L|303:274,1,106.875004076958
299,321,20551,1,0,0:0:0:0:
393,370,20705,2,0,L|432:367,2,35.625001358986
501,283,21011,2,0,L|427:275,1,71.2500027179719
304,178,21317,1,0,0:0:0:0:
304,178,21470,6,0,P|351:179|386:164,1,71.2500027179719
481,110,21776,1,0,0:0:0:0:
481,110,21929,2,0,L|476:34,1,71.2500027179719
376,94,22235,1,0,0:0:0:0:
288,37,22388,1,0,0:0:0:0:
304,178,22541,1,0,0:0:0:0:
304,178,22618,1,0,0:0:0:0:
304,178,22694,38,0,L|311:258,1,71.2500027179719
394,317,23000,1,0,0:0:0:0:
394,317,23154,2,0,P|370:345|321:359,1,71.2500027179719
437,183,23460,2,0,P|471:203|493:233,1,71.2500027179719
484,370,23766,6,0,L|490:212,1,142.500005435944
492,79,24225,2,0,P|447:109|382:108,1,106.875004076958
318,94,24531,1,0,0:0:0:0:
394,1,24684,1,0,0:0:0:0:
492,79,24837,1,0,0:0:0:0:
330,365,25143,38,0,B|311:324|311:324|316:209,1,142.500005435944
400,159,25602,2,0,L|445:162,2,35.625001358986
318,94,25909,2,0,B|323:21|323:21|400:34,1,142.500005435944
469,148,26368,6,0,P|426:160|388:156,1,71.2500027179719
306,208,26674,1,0,0:0:0:0:
408,288,26827,1,0,0:0:0:0:
408,288,26904,1,0,0:0:0:0:
408,288,26980,1,0,0:0:0:0:
306,208,27133,1,0,0:0:0:0:
312,356,27286,2,0,L|309:284,1,71.2500027179719
308,248,27516,1,0,0:0:0:0:
306,208,27592,38,0,B|303:146|303:146|314:128|314:128|309:62,1,142.500005435944
442,25,28051,2,0,P|476:35|505:60,1,71.2500027179719
448,140,28358,2,0,P|409:151|382:171,1,71.2500027179719
439,364,28664,6,0,L|450:213,1,142.500005435944
313,329,29123,2,0,L|307:239,1,71.2500027179719
306,222,29352,1,0,0:0:0:0:
302,186,29429,1,0,0:0:0:0:
310,64,29582,1,0,0:0:0:0:
419,141,29735,1,0,0:0:0:0:
203,121,29888,1,0,0:0:0:0:
203,121,29965,1,0,0:0:0:0:
203,121,30041,6,0,P|152:100|51:129,1,142.500005435944
10,221,30500,2,0,L|12:268,2,35.625001358986
124,357,30807,2,0,L|134:201,1,142.500005435944
1,101,31266,6,0,P|39:115|81:115,1,71.2500027179719
220,132,31572,1,0,0:0:0:0:
111,29,31725,1,0,0:0:0:0:
111,29,31801,1,0,0:0:0:0:
111,29,31878,1,0,0:0:0:0:
141,181,32031,1,0,0:0:0:0:
203,42,32184,1,0,0:0:0:0:
69,116,32337,1,0,0:0:0:0:
214,210,32490,38,0,P|218:279|184:353,1,142.500005435944
51,262,32949,2,0,P|39:224|43:183,1,71.2500027179719
214,138,33256,2,0,L|214:219,1,71.2500027179719
39,154,33562,6,0,B|24:106|24:106|33:5,1,142.500005435944
214,138,34021,2,0,P|167:165|108:162,1,106.875004076958
39,154,34327,1,0,0:0:0:0:
116,52,34480,1,0,0:0:0:0:
214,138,34633,1,0,0:0:0:0:
181,310,34786,1,0,0:0:0:0:
181,310,34863,1,0,0:0:0:0:
181,310,34939,38,0,P|106:323|46:289,1,142.500005435944
18,163,35398,2,0,L|13:122,2,35.625001358986
127,228,35705,2,0,P|191:203|212:126,1,142.500005435944
184,23,36164,6,0,L|105:27,1,71.2500027179719
18,163,36470,1,0,0:0:0:0:
8,55,36623,2,0,L|11:96,2,35.625001358986
129,106,36929,1,0,0:0:0:0:
23,234,37082,2,0,L|16:150,1,71.2500027179719
13,127,37312,1,0,0:0:0:0:
11,91,37388,38,0,P|23:157|71:223,1,142.500005435944
178,251,37847,2,0,P|206:225|223:191,1,71.2500027179719
189,84,38154,2,0,P|151:77|117:84,1,71.2500027179719
75,288,38460,6,0,L|63:208,1,71.2500027179719
36,80,38766,1,0,0:0:0:0:
152,161,38919,1,0,0:0:0:0:
15,164,39072,1,0,0:0:0:0:
148,29,39225,1,0,0:0:0:0:
178,251,39378,1,0,0:0:0:0:
408,192,39837,6,0,P|331:163|249:197,1,166.25
103,189,40449,38,0,P|180:218|262:184,1,166.25
291,104,41062,5,0,0:0:0:0:
311,264,41215,1,0,0:0:0:0:
320,89,41368,1,0,0:0:0:0:
349,264,41521,1,0,0:0:0:0:
408,88,41674,2,0,P|396:47|373:19,1,71.2500027179719
432,244,41980,2,0,P|434:287|413:325,1,71.2500027179719
333,177,42286,21,0,0:0:0:0:
333,177,42439,2,0,L|188:186,1,142.500005435944
15,78,42898,2,0,L|23:149,1,71.2500027179719
99,64,43205,2,0,L|107:135,1,71.2500027179719
136,360,43511,37,0,0:0:0:0:
39,231,43664,1,0,0:0:0:0:
194,277,43817,1,0,0:0:0:0:
41,329,43970,1,0,0:0:0:0:
134,196,44123,2,0,P|160:165|171:132,1,71.2500027179719
212,355,44429,2,0,P|250:351|289:357,1,71.2500027179719
441,280,44735,5,0,0:0:0:0:
441,280,44888,2,0,P|384:258|343:173,1,142.500005435944
379,31,45347,2,0,L|449:24,1,71.2500027179719
293,96,45654,2,0,L|222:90,1,71.2500027179719
113,206,45960,21,0,0:0:0:0:
88,41,46113,1,0,0:0:0:0:
77,220,46266,1,0,0:0:0:0:
49,39,46419,1,0,0:0:0:0:
184,164,46572,2,0,P|193:205|185:245,1,71.2500027179719
4,242,46878,2,0,P|-5:201|3:161,1,71.2500027179719
132,84,47184,38,0,L|209:88,1,71.2500027179719
257,243,47490,1,0,0:0:0:0:
257,243,47643,1,0,0:0:0:0:
94,287,47796,2,0,P|78:252|78:213,1,71.2500027179719
286,124,48102,2,0,B|305:163|305:163|301:239,1,106.875004076958
250,294,48409,22,0,P|312:272|397:298,1,142.500005435944
481,359,48868,1,0,0:0:0:0:
487,179,49021,2,0,L|485:258,1,71.2500027179719
359,185,49327,2,0,P|349:144|354:105,1,71.2500027179719
487,38,49633,5,0,0:0:0:0:
487,179,49786,1,0,0:0:0:0:
351,115,49939,2,0,L|273:117,1,71.2500027179719
61,173,50245,1,0,0:0:0:0:
172,13,50398,1,0,0:0:0:0:
236,208,50551,2,0,P|186:222|125:204,1,106.875004076958
61,173,50858,21,0,0:0:0:0:
219,120,51011,1,0,0:0:0:0:
43,147,51164,1,0,0:0:0:0:
214,86,51317,1,0,0:0:0:0:
23,118,51470,2,0,L|30:204,1,71.2500027179719
124,355,51776,2,0,P|145:323|148:278,1,71.2500027179719
214,86,52082,5,0,0:0:0:0:
214,86,52235,2,0,P|248:152|242:238,1,142.500005435944
325,354,52694,2,0,P|292:329|276:296,1,71.2500027179719
135,319,53000,2,0,P|176:307|203:279,1,71.2500027179719
353,163,53307,5,0,0:0:0:0:
437,296,53460,1,0,0:0:0:0:
424,122,53613,1,0,0:0:0:0:
289,210,53766,1,0,0:0:0:0:
455,205,53919,2,0,P|490:188|509:161,1,71.2500027179719
417,21,54225,2,0,L|422:94,1,71.2500027179719
289,210,54531,5,0,0:0:0:0:
289,210,54684,2,0,B|311:158|289:107|289:107|271:94|249:103,1,142.500005435944
111,30,55143,2,0,B|143:56|143:56|176:62,1,71.2500027179719
142,203,55449,2,0,B|155:164|155:164|183:140,1,71.2500027179719
204,309,55756,5,0,0:0:0:0:
43,274,55909,1,0,0:0:0:0:
206,341,56062,1,0,0:0:0:0:
27,300,56215,1,0,0:0:0:0:
196,233,56368,2,0,L|273:226,1,71.2500027179719
93,212,56674,2,0,L|32:167,1,71.2500027179719
245,87,56980,6,0,L|206:147,1,71.2500027179719
117,56,57286,2,0,L|124:126,1,71.2500027179719
69,294,57592,2,0,P|37:280|11:247,1,71.2500027179719
195,184,57898,2,0,B|210:226|210:226|204:296,1,106.875004076958
154,359,58205,6,0,P|218:329|299:347,1,142.500005435944
80,260,58664,2,0,P|133:205|199:183,1,142.500005435944
0,164,59123,1,0,0:0:0:0:
0,164,59276,1,0,0:0:0:0:
97,52,59429,5,0,0:0:0:0:
131,43,59506,1,0,0:0:0:0:
166,43,59582,1,0,0:0:0:0:
200,51,59659,1,0,0:0:0:0:
234,59,59735,1,0,0:0:0:0:
269,59,59812,1,0,0:0:0:0:
302,48,59888,1,0,0:0:0:0:
459,356,60347,6,0,P|465:316|465:270,1,71.25
