osu file format v14

[General]
AudioFilename: audio.mp3
AudioLeadIn: 0
PreviewTime: -1
Countdown: 0
SampleSet: None
StackLeniency: 0.2
Mode: 0
LetterboxInBreaks: 0
WidescreenStoryboard: 1

[Editor]
Bookmarks: 55130
DistanceSpacing: 2
BeatDivisor: 4
GridSize: 4
TimelineZoom: 1.6

[Metadata]
Title:Nana hitsuji
TitleUnicode:Nana hitsuji
Artist:Scenarioart
ArtistUnicode:Scenarioart
Creator:tukamoto7km
Version:a
Source:
Tags:
BeatmapID:1521487
BeatmapSetID:720630

[Difficulty]
HPDrainRate:2
CircleSize:4
OverallDifficulty:7
ApproachRate:9
SliderMultiplier:2
SliderTickRate:1

[Events]
//Background and Video events
0,0,"mer1.png",0,0
//Break Periods
2,11592,14109
2,51856,54530
2,70723,75687
2,80670,85792
//Storyboard Layer 0 (Background)
//Storyboard Layer 1 (Fail)
//Storyboard Layer 2 (Pass)
//Storyboard Layer 3 (Foreground)
//Storyboard Sound Samples

[TimingPoints]
499,315.789473684211,4,3,1,60,1,0
1446,-66.6666666666667,4,3,1,60,0,0
1604,-54.054054054054,4,3,1,60,0,0
1841,-55.5555555555556,4,3,1,5,0,0
1920,-66.6666666666667,4,3,1,60,0,0
2393,-100,4,3,1,60,0,0
2709,-100,4,3,1,60,0,0
2946,-133.333333333333,4,3,1,60,0,0
3183,-100,4,3,1,60,0,0
3420,-133.333333333333,4,3,1,60,0,0
3656,-66.6666666666667,4,3,1,60,0,0
3972,-55.5555555555556,4,3,1,60,0,0
4446,-66.6666666666667,4,3,1,60,0,0
4920,-200,4,3,1,60,0,1
5235,-200,4,3,1,60,0,0
6814,-50,4,3,1,60,0,0
7288,-66.6666666666667,4,3,1,60,0,0
7604,-200,4,3,1,60,0,0
7920,-133.333333333333,4,3,1,60,0,0
8235,-66.6666666666667,4,3,1,60,0,0
9025,-133.333333333333,4,3,1,60,0,0
9499,-100,4,3,1,60,0,0
10288,-76.9230769230769,4,3,1,60,0,0
10604,-71.4285714285714,4,3,1,60,0,0
10920,-66.6666666666667,4,3,1,60,0,0
11235,-62.5,4,3,1,60,0,0
14709,-200,4,3,1,40,0,0
15183,-200,4,3,1,60,0,0
15341,-50,4,3,1,60,0,0
15656,-100,4,3,1,60,0,0
15972,-100,4,3,1,60,0,0
16446,-76.9230769230769,4,3,1,60,0,0
16920,-66.6666666666667,4,3,1,60,0,0
17393,-200,4,3,1,60,0,0
17867,-66.6666666666667,4,3,1,60,0,0
19604,-66.6666666666667,4,3,1,60,0,0
19920,-100,4,3,1,60,0,0
20077,-133.333333333333,4,3,1,60,0,0
21341,-83.3333333333333,4,3,1,60,0,0
21499,-66.6666666666667,4,3,1,60,0,0
23393,-58.8235294117647,4,3,1,60,0,0
23551,-50,4,3,1,60,0,0
24341,-133.333333333333,4,3,1,60,0,0
24499,-55.5555555555556,4,3,1,60,0,0
25130,-100,4,3,1,60,0,0
25762,-66.6666666666667,4,3,1,60,0,0
27972,-76.9230769230769,4,3,1,60,0,0
28288,-55.5555555555556,4,3,1,60,0,0
28604,-50,4,3,1,60,0,0
28920,-200,4,3,1,60,0,0
29235,-50,4,3,1,60,0,1
31130,-50,4,3,1,60,0,0
31446,-200,4,3,1,60,0,0
31920,-100,4,3,1,60,0,0
32393,-55.5555555555556,4,3,1,60,0,0
32867,-50,4,3,1,60,0,0
33341,-133.333333333333,4,3,1,60,0,0
33656,315.789473684211,4,1,0,100,1,0
33656,-133.333333333333,4,3,1,100,0,0
35550,-200,4,3,1,40,0,1
36182,-200,4,3,1,80,0,0
37603,-66.6666666666667,4,3,1,80,0,0
37919,-58.8235294117647,4,3,1,80,0,0
38234,-66.6666666666667,4,3,1,80,0,0
38550,-83.3333333333333,4,3,1,100,0,1
38708,-66.6666666666667,4,3,1,100,0,0
39182,-100,4,3,1,100,0,0
39340,-55.5555555555556,4,3,1,100,0,0
39656,-66.6666666666667,4,3,1,100,0,0
39813,-58.8235294117647,4,3,1,100,0,0
40287,-50,4,3,1,100,0,0
40603,-100,4,3,1,100,0,0
41234,-66.6666666666667,4,3,1,100,0,0
42182,-50,4,3,1,100,0,0
42656,-133.333333333333,4,3,1,100,0,0
43129,-55.5555555555556,4,3,1,100,0,0
43761,-52.6315789473684,4,3,1,100,0,0
44234,-100,4,3,1,100,0,0
44392,-50,4,3,1,100,0,0
44708,-55.5555555555556,4,3,1,100,0,0
45182,-100,4,3,1,100,0,0
45340,-50,4,3,1,100,0,0
45656,-200,4,3,1,100,0,0
45892,-50,4,3,1,100,0,0
46129,-200,4,3,1,100,0,0
46288,315.789473684211,4,1,0,100,1,0
46288,-50,4,1,0,100,0,0
46919,-100,4,1,0,100,0,0
47235,-50,4,1,0,100,0,0
47866,-100,4,1,0,100,0,0
48182,-100,4,1,0,100,0,1
48340,-100,4,1,0,100,0,0
50709,-100,4,3,1,80,0,1
50788,-100,4,3,1,80,0,0
51340,-50,4,3,1,80,0,0
55130,-100,4,3,1,60,0,1
55919,-125,4,3,1,60,0,1
56393,-200,4,3,1,60,0,1
57340,-58.8235294117647,4,3,1,60,0,1
57972,-100,4,3,1,60,0,1
58603,-83.3333333333333,4,3,1,60,0,1
59393,-133.333333333333,4,3,1,60,0,1
59866,-200,4,3,1,60,0,1
60498,-58.8235294117647,4,3,1,60,0,1
61130,-66.6666666666667,4,3,1,60,0,1
62393,-100,4,3,1,60,0,1
63182,-66.6666666666667,4,3,1,60,0,1
63656,315.789473684211,4,3,1,100,1,0
63971,-50,4,3,1,100,0,0
64761,-100,4,3,1,100,0,0
64919,-50,4,3,1,100,0,0
66182,-50,4,3,1,80,0,0
68708,-133.333333333333,4,3,1,80,0,0
69024,-66.6666666666667,4,3,1,80,0,0
69340,-58.8235294117647,4,3,1,80,0,0
69656,-100,4,3,1,80,0,0
69892,-50,4,3,1,80,0,0
70129,-55.5555555555556,4,3,1,80,0,0
70287,-62.5,4,3,1,80,0,0
70445,-71.4285714285714,4,3,1,80,0,0
78656,-66.6666666666667,4,3,1,80,0,0
78813,-50,4,3,1,80,0,1
79445,-66.6666666666667,4,3,1,80,0,1
79603,-50,4,3,1,80,0,1
79919,-50,4,3,1,80,0,0
80234,-133.333333333333,4,3,1,80,0,0
86392,-100,4,3,1,80,0,0
86550,-50,4,3,1,80,0,0
87498,-100,4,3,1,80,0,0
88287,-100,4,3,1,5,0,0

[Colours]
Combo1 : 108,87,225
Combo2 : 48,167,158
Combo3 : 0,145,215
Combo4 : 213,43,102
Combo5 : 255,198,23

[HitObjects]
72,196,341,5,0,0:0:0:0:
65,205,420,1,0,0:0:0:0:
54,211,499,5,0,1:0:0:0:
77,110,656,2,0,B|110:162|85:206|85:206|59:252|89:305,1,200,0|8,0:0|0:0,0:0:0:0:
460,200,1288,5,0,0:0:0:0:
468,122,1446,2,0,P|427:121|405:147,1,75.0000028610231,8|0,0:0|0:0,0:0:0:0:
249,226,1604,6,2,B|327:254|309:334|309:334|331:255|415:265,1,277.499998941422,0|0,0:0|0:0,0:0:0:0:
86,299,1920,6,0,B|59:219|149:180|216:242|215:342|120:381|81:295,1,299.999990844727,8|8,0:0|0:0,0:0:0:0:
0,112,2393,6,0,B|-1:80|22:71|22:71|43:86|32:118,1,100,12|8,0:0|0:0,0:0:0:0:
4,184,2709,6,0,P|51:185|98:148,1,100
116,76,2946,2,0,B|140:117|156:80|175:124,1,75.0000028610231
249,226,3183,6,0,P|218:263|220:322,1,100
152,340,3420,2,0,B|176:381|192:344|211:388,1,75.0000028610231
448,308,3656,6,0,B|440:227|487:245|479:161,1,150.000005722046
396,92,3893,5,0,0:0:0:0:
456,52,3972,2,0,B|408:144|464:132|416:232,1,179.999994506836
384,352,4288,1,0,0:0:0:0:
80,352,4446,2,0,P|112:332|152:329,1,75.0000028610231
388,360,4604,5,4,1:2:0:0:
73,345,4920,6,0,P|50:316|48:280,1,75,0|0,1:0|0:0,0:0:0:0:
56,252,5235,5,0,0:0:0:0:
72,244,5314,1,0,0:0:0:0:
88,240,5393,1,0,0:0:0:0:
152,252,5472,1,0,0:0:0:0:
168,260,5551,1,0,0:0:0:0:
184,260,5630,1,0,0:0:0:0:
248,244,5709,1,0,0:0:0:0:
264,236,5788,1,0,0:0:0:0:
280,236,5867,1,0,0:0:0:0:
64,24,6025,6,0,P|99:41|143:34,1,75,2|0,1:2|2:0,0:0:0:0:
140,36,6341,1,4,1:3:0:0:
448,292,6656,5,0,0:0:0:0:
428,44,6814,2,0,B|436:120|332:132|328:208|328:208|344:168|384:156|420:188,1,300,2|0,1:2|0:0,0:0:0:0:
388,248,7130,5,2,0:2:0:0:
128,316,7288,2,0,B|153:377|207:346|207:346|159:341|143:294,1,150.000005722046,2|0,2:0|1:0,2:0:0:0:
240,72,7604,6,0,P|221:107|221:143,1,75,2|0,2:0|2:0,2:0:0:0:
192,212,7920,2,0,P|151:155|149:110,1,112.500004291535,2|0,2:0|2:0,2:0:0:0:
32,240,8235,6,0,B|104:148|28:88|-28:156|-52:232|44:316,1,300.000011444092,2|0,2:0|1:0,2:0:0:0:
464,308,8867,5,2,2:0:0:0:
392,320,9025,2,0,L|380:245,1,75.0000028610231,0|4,1:0|3:0,0:0:0:0:
304,40,9341,5,0,1:0:0:0:
300,36,9420,1,2,2:0:0:0:
294,32,9499,2,0,P|266:49|274:103,1,50,2|0,2:0|2:0,0:0:0:0:
192,96,9656,5,0,1:0:0:0:
186,94,9735,1,2,2:0:0:0:
179,94,9814,2,0,P|165:123|202:164,1,50,2|0,2:0|2:0,0:0:0:0:
100,176,9972,5,0,1:0:0:0:
93,177,10051,1,2,2:0:0:0:
88,181,10130,2,0,P|93:213|146:226,1,50,2|0,2:0|2:0,0:0:0:0:
36,276,10288,6,0,B|64:320|104:312|104:312|64:324|56:352,1,129.999994049073,2|4,1:2|3:0,0:0:0:0:
36,276,10604,6,0,B|64:320|104:312|104:312|64:324|48:364,1,139.999995727539,2|0,2:0|1:0,0:0:0:0:
36,276,10920,6,0,B|64:320|104:312|104:312|64:324|56:360,1,150.000005722046,2|0,2:0|1:0,0:0:0:0:
36,276,11235,6,0,B|64:320|104:312|104:312|60:324|52:372,1,160,2|4,2:0|1:3,0:0:0:0:
185,352,14709,6,2,L|200:228,1,125,2|0,1:0|2:0,1:0:0:0:
208,152,15183,1,4,1:3:0:0:
0,184,15341,6,0,B|63:235|124:193|200:243,1,200,8|2,3:0|3:3,0:0:0:0:
492,52,15656,6,0,B|485:27|485:27|486:67,1,50,2|0,2:0|2:0,0:0:0:0:
328,328,15972,6,0,B|297:374|266:346|266:346|269:302|324:320,1,150,0|0,1:0|2:0,1:0:0:0:
404,296,16288,1,0,1:0:0:0:
48,120,16446,6,0,B|9:63|56:26|56:26|44:92|68:112,1,194.999991073609,0|0,1:0|2:0,0:0:0:0:
92,184,16762,1,0,1:0:0:0:
432,188,16920,6,0,B|376:173|328:217|328:217|373:175|446:180,1,225.000008583069,0|0,1:0|2:0,0:0:0:0:
512,192,17235,1,0,1:0:0:0:
448,360,17393,6,0,P|416:376|376:376,1,75,0|0,0:0|2:0,0:0:0:0:
304,356,17709,1,2,2:0:0:0:
0,236,17867,2,0,B|41:297|53:301|126:276,1,150.000005722046,0|4,0:0|0:0,0:0:0:0:
368,288,19604,6,0,B|264:252|252:328|144:284,1,225.000008583069,2|0,2:0|2:0,0:0:0:0:
100,200,19920,2,0,P|102:232|130:287,1,50,2|0,2:0|2:0,2:0:0:0:
8,200,20077,2,0,P|18:267|39:298,1,75.0000028610231,2|0,2:0|2:0,2:0:0:0:
364,244,21183,5,2,2:0:0:0:
475,230,21341,2,0,P|455:251|426:257,1,59.9999981689454,2|0,2:0|2:0,0:0:0:0:
180,96,21499,6,0,B|104:140|44:48|44:48|100:76|144:12,1,225.000008583069,4|0,1:3|2:0,0:0:0:0:
176,16,21814,1,0,1:0:0:0:
300,328,23235,5,0,2:0:0:0:
468,332,23393,2,0,L|380:352,1,85.0000016212464,4|0,3:0|2:0,2:0:0:0:
20,244,23551,6,0,B|57:201|57:201|109:215|109:215|111:259|111:259|131:267|131:267|114:299,1,200,0|4,1:0|1:3,0:0:0:0:
104,368,24183,5,4,0:2:0:0:
313,119,24341,6,0,L|311:151,1,31.8750012159348,2|0,3:0|2:0,0:0:0:0:
238,125,24499,6,0,B|215:68|317:39|317:39|419:83|385:138,1,269.999991760254,2|0,2:0|2:0,0:0:0:0:
252,200,24814,5,4,1:3:0:0:
168,184,24972,5,4,0:0:0:0:
36,228,25130,6,0,P|63:230|90:241,1,50,4|0,0:0|2:0,0:0:0:0:
156,272,25288,1,2,2:0:0:0:
440,184,25446,5,2,2:0:0:0:
372,208,25604,1,4,0:3:0:0:
458,108,25762,2,0,B|490:74|408:31|392:94|386:133,1,150.000005722046,0|4,1:0|0:0,0:0:0:0:
132,88,27972,6,0,P|188:56|252:59,1,129.999994049073,2|4,1:2|3:0,0:0:0:0:
52,87,28288,6,0,B|56:51|56:51|72:39|72:39|56:63|52:99|60:139|92:155,1,179.999994506836,2|0,2:0|1:0,0:0:0:0:
340,28,28604,6,0,B|372:52|388:8|332:-36|264:20|340:44|356:88|316:136,1,200,2|0,2:0|1:0,0:0:0:0:
496,372,28920,6,0,B|517:362|517:362|466:350,1,75,2|0,1:2|2:0,0:0:0:0:
392,328,29235,6,0,B|392:288|364:264|364:264|396:284|468:292|496:272|520:180|496:88|388:76|308:124|307:207|307:207|290:235|250:226,1,500,4|0,1:2|2:0,0:0:0:0:
308,320,29709,1,0,1:0:0:0:
0,220,29867,6,0,B|84:204|112:120|120:72|84:20|84:20|128:52|120:136|92:176|64:204|148:336,1,500,4|0,1:2|2:0,0:0:0:0:
465,298,30341,6,0,B|480:280|508:286|508:286|480:232|412:233|414:317|335:282|335:282|330:285|330:285|332:291|332:291|304:292|307:319,1,300,4|0,1:2|2:0,0:0:0:0:
106,254,30656,6,0,B|172:160|32:116|32:40|156:0|204:28|216:140|124:120|132:192,1,400,4|4,1:2|0:0,0:0:0:0:
188,356,31130,1,0,1:2:0:0:
31,265,31446,6,0,L|111:253,1,75,2|0,1:2|2:0,0:0:0:0:
44,336,31762,1,4,1:3:0:0:
252,272,31920,6,0,L|392:256,1,100,2|4,2:0|0:0,0:0:0:0:
312,368,32235,1,2,0:0:0:0:
224,28,32393,6,0,B|184:124|244:100|196:204,1,179.999994506836,0|4,0:0|1:3,0:0:0:0:
380,128,32867,6,0,B|327:67|395:-5|459:-2|511:50|509:138|408:156,1,300,0|0,1:0|2:0,0:0:0:0:
392,200,33183,1,4,1:3:0:0:
400,96,33341,6,0,P|424:77|426:117,1,75.0000028610231,2|2,2:0|3:0,0:0:0:0:
312,344,33656,6,0,L|348:333,1,37.5000014305115,2|0,2:0|2:0,0:0:0:0:
312,352,34287,6,0,L|347:340,1,37.5000014305115,2|0,2:0|2:0,0:0:0:0:
312,360,34761,6,0,L|348:349,1,37.5000014305115,2|0,2:0|2:0,0:0:0:0:
312,368,35234,6,0,L|347:356,1,37.5000014305115,2|0,2:0|2:0,0:0:0:0:
192,300,35392,5,0,0:0:0:0:
188,291,35471,1,0,0:0:0:0:
117,309,35550,6,2,B|35:321|41:338|41:338|46:355|124:322,1,175,2|0,1:0|2:0,0:0:0:0:
260,276,36182,5,4,1:2:0:0:
292,228,36340,1,0,0:0:0:0:
316,164,36498,1,0,0:0:0:0:
312,88,36656,1,0,0:0:0:0:
272,20,36813,1,0,0:0:0:0:
276,104,36971,1,0,0:0:0:0:
332,176,37129,1,0,0:0:0:0:
424,192,37287,1,0,0:0:0:0:
508,136,37445,5,0,1:0:0:0:
200,60,37603,2,0,B|335:70|274:115|409:130,1,225.000008583069,4|0,0:0|2:0,0:0:0:0:
232,244,37919,6,0,P|163:149|69:202,1,170.000003242493,2|0,2:0|1:0,0:0:0:0:
300,340,38234,2,0,P|341:270|425:275,1,150.000005722046,4|4,0:0|1:3,0:0:0:0:
91,252,38550,6,0,P|121:249|148:236,1,59.9999981689454,2|0,2:0|2:0,0:0:0:0:
376,52,38708,2,0,B|403:23|364:-35|285:2|351:79|312:137|312:137|354:83|319:131|319:131|328:174,1,300.000011444092,0|0,1:0|1:0,0:0:0:0:
300,340,39182,6,0,P|287:316|286:284,1,50,2|0,2:0|2:0,0:0:0:0:
504,282,39340,2,0,B|481:210|418:228|431:268|431:268|436:292|427:256|427:256|399:265,1,179.999994506836,4|0,1:3|1:0,0:0:0:0:
200,60,39656,6,0,P|212:92|244:79,1,75.0000028610231,2|0,2:0|2:0,0:0:0:0:
110,205,39813,2,0,B|167:205|181:138|144:137|144:137|141:115|141:115|82:120|66:87|66:87|123:106|139:48|110:16|92:36,1,340.000006484985,0|0,1:0|1:0,0:0:0:0:
32,260,40287,6,0,B|32:284|58:295|64:351|64:351|58:295|70:269|42:250,1,200,2|2,3:0|2:0,0:0:0:0:
229,9,40603,2,0,P|205:15|184:28,2,50,0|0|4,1:0|2:0|0:0,0:0:0:0:
348,72,40919,5,2,1:2:0:0:
336,80,40998,1,2,2:0:0:0:
328,92,41077,1,2,2:0:0:0:
468,72,41234,6,0,B|396:84|396:84|328:68|328:68|244:80,1,225.000008583069,4|0,1:2|2:0,0:0:0:0:
88,96,41550,2,0,B|75:30|5:54|5:54|44:65|65:108,1,150.000005722046,0|2,1:0|2:0,0:0:0:0:
352,352,41866,5,2,1:2:0:0:
336,344,41945,1,2,2:0:0:0:
328,328,42024,1,2,2:0:0:0:
118,296,42182,2,0,B|141:342|177:266|145:334|177:362|217:318|221:370|221:370|241:398|265:358|217:338|217:254|281:202|329:226|361:250|369:306|360:260,1,400,4|2,1:3|2:0,0:0:0:0:
192,139,42656,6,0,P|183:186|144:160,1,112.500004291535,0|0,1:0|2:0,0:0:0:0:
288,0,42971,2,0,P|306:1|323:8,1,37.5000014305115,2|0,2:0|2:0,0:0:0:0:
285,68,43129,6,0,B|183:28|195:100|87:36|87:36|103:148|39:104|15:176|31:212|31:212|36:188|60:176,1,449.99998626709,2|0,2:0|2:0,0:0:0:0:
104,236,43603,1,2,3:0:0:0:
460,372,43761,6,0,B|465:347|494:349|494:349|550:353|550:293|550:293|547:201|478:190|426:242|453:284|453:284|451:308|423:303,1,379.999989852906,0|2,1:0|2:0,0:0:0:0:
59,176,44234,6,0,P|73:156|93:140,1,50,2|0,2:0|2:0,0:0:0:0:
67,43,44392,2,0,B|59:171|111:111|103:247,1,200,0|4,1:0|0:0,0:0:0:0:
428,100,44708,6,0,B|425:86|459:58|509:87|509:87|492:37|430:66|400:27|400:27|423:53|400:76,1,269.999991760254,0|0,1:0|2:0,0:0:0:0:
360,120,45024,1,0,1:0:0:0:
195,378,45182,6,0,P|190:354|172:337,1,50,2|0,2:0|2:0,0:0:0:0:
220,284,45340,2,0,B|256:344|348:316|332:276|332:276|316:232|404:208|440:276,1,300,4|0,1:3|2:0,0:0:0:0:
476,344,45656,6,0,L|444:352,1,25,0|0,1:0|2:0,0:0:0:0:
24,280,45892,6,0,P|70:260|122:249,1,100,8|0,0:0|2:0,0:0:0:0:
372,124,46129,6,0,L|364:164,1,25,2|0,2:1|2:0,0:0:0:0:
488,200,46288,6,0,B|356:224|356:224|332:216|332:216|268:232,1,200,4|0,0:3|2:0,0:0:0:0:
220,284,46603,1,2,2:0:0:0:
279,42,46919,2,0,P|210:24|156:72,1,150,2|0,1:0|2:0,0:0:0:0:
40,316,47235,6,0,B|172:340|172:340|196:332|196:332|260:344,1,200,2|0,1:0|2:0,0:0:0:0:
312,340,47550,1,2,2:0:0:0:
467,85,47866,2,0,P|413:37|344:56,1,150,2|0,2:0|2:0,0:0:0:0:
272,224,48182,2,0,P|280:172|304:124,1,100,2|2,2:1|2:0,0:0:0:0:
84,276,50709,5,0,1:0:0:0:
424,267,50866,5,0,1:3:0:0:
97,340,51024,1,4,1:3:0:0:
389,80,51340,2,0,B|392:48|400:8|458:-8|506:28|484:156|432:196|370:159|380:116|388:88,1,300,4|0,1:3|2:0,0:0:0:0:
320,72,51656,5,0,1:0:0:0:
48,192,55130,6,0,L|54:244,1,50,4|0,1:2|2:0,0:0:0:0:
67,332,55288,1,2,2:0:0:0:
224,240,55445,1,2,0:0:0:0:
218,262,55524,1,0,2:0:0:0:
213,286,55603,1,2,2:0:0:0:
132,244,55761,1,4,0:0:0:0:
256,364,55919,2,0,P|295:362|335:341,1,80,4|0,2:0|2:0,0:0:0:0:
512,316,56235,1,2,2:0:0:0:
500,311,56314,1,0,2:0:0:0:
488,307,56393,2,0,P|444:293|391:307,1,100,2|4,0:0|0:0,0:0:0:0:
331,344,57024,1,2,0:0:0:0:
40,156,57340,6,0,L|125:131,1,85.0000016212464,2|0,2:0|2:0,0:0:0:0:
206,108,57656,1,0,1:0:0:0:
180,344,57972,6,0,P|145:314|212:283,1,150,4|0,3:0|2:0,0:0:0:0:
268,348,58288,1,2,2:0:0:0:
320,72,58603,6,0,P|293:53|261:57,1,59.9999981689454,4|0,1:2|2:0,0:0:0:0:
206,108,58761,1,2,2:0:0:0:
88,124,58918,1,2,0:0:0:0:
72,84,58997,1,0,2:0:0:0:
104,60,59076,1,2,2:0:0:0:
164,200,59234,1,4,0:0:0:0:
238,202,59393,2,0,P|266:178|280:144,1,75.0000028610231,4|0,2:0|2:0,0:0:0:0:
116,260,59708,1,2,2:0:0:0:
100,264,59787,1,0,2:0:0:0:
84,268,59866,2,0,P|60:308|104:320,1,100,2|4,0:0|0:0,0:0:0:0:
448,32,60498,6,0,P|468:68|460:120,1,85.0000016212464,2|0,3:0|2:0,0:0:0:0:
428,184,60814,1,2,2:0:0:0:
16,319,61130,6,0,B|118:332|118:332|100:319|100:319|199:333,1,225.000008583069,4|0,3:0|2:0,0:0:0:0:
284,344,61445,1,4,1:2:0:0:
284,40,61761,5,4,1:3:0:0:
288,36,62077,5,4,3:0:0:0:
288,36,62393,5,4,1:2:0:0:
468,52,62551,1,2,2:0:0:0:
320,136,62708,1,2,0:0:0:0:
360,116,62787,1,0,2:0:0:0:
408,116,62866,1,2,2:0:0:0:
392,340,63024,1,4,0:0:0:0:
420,256,63182,2,0,P|341:235|309:352,1,225.000008583069,4|0,2:0|2:0,0:0:0:0:
85,323,63498,1,2,2:0:0:0:
139,282,63577,1,0,2:0:0:0:
208,280,63656,6,0,P|201:310|184:334,3,50
60,240,63971,6,0,B|52:202|73:128|105:100|115:117|115:117|70:151|48:199|94:219|69:256,1,300
148,188,64287,5,0,0:0:0:0:
151,195,64366,1,0,0:0:0:0:
153,203,64445,1,0,0:0:0:0:
472,36,64603,5,0,0:0:0:0:
465,81,64682,1,0,0:0:0:0:
456,124,64761,6,0,P|432:116|396:120,1,50
328,36,64919,6,0,B|288:116|320:176|352:216|388:220|424:216|424:216|392:224|368:232|320:320|376:388|428:352|428:352|476:312|448:200|372:232|360:236|344:288,1,700
296,356,65550,5,0,0:0:0:0:
288,376,65629,1,0,0:0:0:0:
280,380,65708,1,0,0:0:0:0:
272,384,65787,1,0,0:0:0:0:
252,376,65866,1,0,0:0:0:0:
472,36,66182,6,0,B|510:65|480:155|381:160|351:49|351:49|375:125|322:132|312:208|353:302|424:287|424:287|409:248|380:251,1,600,4|0,1:2|1:0,0:0:0:0:
32,48,66813,6,0,B|85:110|74:223|74:223|58:316|84:363|135:388|179:357|142:281|142:281|193:378|262:352,1,600,4|0,1:2|1:0,0:0:0:0:
424,128,67445,6,0,B|442:82|494:85|494:85|463:28|379:53|331:111|379:165|379:165|368:163|368:163|310:214|352:301|454:259|425:211|425:211|449:175|489:211,1,600,4|0,1:2|1:0,0:0:0:0:
16,280,68077,6,0,B|-13:266|-18:227|14:212|14:212|48:199|89:249|85:303|73:353|73:353|95:311|128:342|128:342|163:278|99:205|96:164|96:164|104:206|144:224,1,600,4|0,1:2|1:0,0:0:0:0:
288,244,68629,5,0,0:0:0:0:
294,251,68708,2,0,B|312:283|312:283|275:293,1,75.0000028610231
432,152,68945,5,0,0:0:0:0:
423,155,69024,2,0,B|383:241|437:211|397:306,1,150.000005722046
236,44,69261,5,0,0:0:0:0:
244,41,69340,2,0,P|251:112|298:67,1,170.000003242493
110,134,69577,5,0,0:0:0:0:
117,127,69656,2,0,B|130:168|130:168|127:184|127:184|144:232,1,100
80,320,69892,6,0,B|64:292|64:292|84:324|128:320,1,100
400,300,70129,6,0,B|420:275|420:275|400:300|364:300,1,89.9999972534181
156,336,70287,6,0,B|124:319|124:319|148:330|170:320,1,80
344,320,70445,6,0,B|367:299|367:299|348:316|328:312,1,69.9999978637696
400,312,76287,5,0,0:0:0:0:
400,312,76445,1,0,0:0:0:0:
400,312,76603,1,0,0:0:0:0:
404,312,76761,1,0,0:0:0:0:
408,312,76919,1,0,0:0:0:0:
400,320,77077,1,0,0:0:0:0:
412,324,77234,1,0,0:0:0:0:
412,324,77392,1,0,0:0:0:0:
72,332,77550,5,0,0:0:0:0:
512,72,78656,6,0,L|432:88,1,75.0000028610231,4|0,1:3|2:0,0:0:0:0:
220,200,78813,6,0,B|176:196|148:128|192:60|268:52|332:124|292:244|184:292,1,400,4|2,1:3|3:0,0:0:0:0:
396,240,79287,5,2,2:0:0:0:
74,149,79445,6,0,P|102:173|116:207,1,75.0000028610231,0|0,1:0|2:0,0:0:0:0:
428,172,79603,6,0,B|447:176|468:161|468:161|435:172|388:158|369:133|369:133|384:158|412:167,1,200,4|2,1:3|1:3,0:0:0:0:
212,364,79919,6,0,P|248:334|303:349,1,100,0|0,1:0|2:0,0:0:0:0:
308,360,80234,6,0,P|253:379|195:363,1,112.500004291535,2|0,2:0|2:0,0:0:0:0:
160,312,86392,6,0,P|147:291|143:267,1,50,0|0,1:0|2:0,0:0:0:0:
216,264,86550,2,0,B|180:256|152:324|188:380|256:392|292:356|280:320|280:320|344:324|328:280|276:268,1,300,4|0,1:3|2:0,0:0:0:0:
396,128,86866,6,0,P|417:140|432:160,1,50,0|0,1:0|2:0,0:0:0:0:
361,198,87024,2,0,B|309:158|344:75|375:104|401:37|401:37|440:74|439:106|409:131,1,300,4|0,1:3|2:0,0:0:0:0:
224,192,87340,6,0,P|238:172|246:148,1,50,0|0,1:0|2:0,0:0:0:0:
168,140,87498,2,0,B|124:140|96:164|72:208|72:208|112:124|64:88|136:32|136:32|188:-4|268:16|252:148|160:120|164:212,1,600,4|0,1:3|2:0,0:0:0:0:
