osu file format v14

[General]
AudioFilename: audio.mp3
AudioLeadIn: 0
PreviewTime: 35531
Countdown: 0
SampleSet: Soft
StackLeniency: 0.6
Mode: 0
LetterboxInBreaks: 0
WidescreenStoryboard: 1

[Editor]
Bookmarks: 4920,15972,33656,36183,46288,55130,66182,71234,86392
DistanceSpacing: 0.6
BeatDivisor: 4
GridSize: 8
TimelineZoom: 2.2

[Metadata]
Title:Nana Hitsuji (TV Size)
TitleUnicode:ナナヒツジ (TV Size)
Artist:Scenarioart
ArtistUnicode:シナリオアート
Creator:FackeL
Version:Insane
Source:すべてがFになる THE PERFECT INSIDER
Tags:ending ed Subete ga F ni Naru anime japanese pop jpop j-pop rock jrock j-rock talking Faction World kxlman Ryxliee Tachibana_ StripedGoose
BeatmapID:3654756
BeatmapSetID:1783693

[Difficulty]
HPDrainRate:5.6
CircleSize:4.1
OverallDifficulty:8
ApproachRate:9
SliderMultiplier:1.7
SliderTickRate:1

[Events]
//Background and Video events
0,0,"eb7f336ea5e7c76b.jpg",0,0
//Break Periods
//Storyboard Layer 0 (Background)
//Storyboard Layer 1 (Fail)
//Storyboard Layer 2 (Pass)
//Storyboard Layer 3 (Foreground)
//Storyboard Layer 4 (Overlay)
//Storyboard Sound Samples

[TimingPoints]
499,315.789473684211,7,2,1,65,1,0
499,-90.9090909090909,7,2,1,65,0,0
4920,-100,7,2,1,60,0,0
13762,-117.647058823529,7,2,1,50,0,0
15972,-153.846153846154,7,2,1,50,0,0
24814,-133.333333333334,7,2,1,50,0,0
29235,-153.846153846155,7,2,1,50,0,0
31446,-117.64705882353,7,2,1,50,0,0
33656,-1000,7,2,1,35,0,0
35314,-1000,7,2,1,5,0,0
35393,-1000,7,2,1,40,0,0
35551,-181.818181818182,7,2,1,65,0,0
36104,-153.846153846154,7,2,1,5,0,0
36183,315.789473684211,4,2,1,75,1,0
36183,-68.9655172413793,4,2,1,75,0,0
45656,-111.111111111111,4,2,1,70,0,0
46288,315.789473684211,7,2,1,50,1,0
46288,-181.818181818181,7,2,1,50,0,0
50709,-153.846153846153,7,2,1,55,0,0
55130,-500,7,2,1,55,0,0
59551,-250,7,2,1,55,0,0
61761,-166.666666666667,7,2,1,55,0,0
63656,315.789473684211,4,2,1,65,1,0
63656,-100,4,2,1,65,0,0
66182,-153.846153846154,4,2,1,60,0,0
67445,-133.333333333333,4,2,1,62,0,0
68708,-117.647058823529,4,2,1,64,0,0
69340,-105.263157894737,4,2,1,66,0,0
69971,-90.9090909090909,4,2,1,68,0,0
70603,-250,4,2,1,45,0,0
70919,-250,4,2,1,55,0,0
71234,-66.6666666666667,4,2,1,75,0,0
76287,-68.9655172413793,4,2,1,75,0,0
87498,-200,4,2,1,70,0,0
88445,-1000,4,2,1,25,0,0

[Colours]
Combo1 : 159,219,100
Combo2 : 255,119,119
Combo3 : 171,156,146
Combo4 : 242,24,57
Combo5 : 221,160,34
Combo6 : 234,217,64

[HitObjects]
43,295,341,5,8,0:3:0:0:
43,295,420,1,8,0:3:0:0:
43,295,499,1,12,0:2:0:0:
102,219,656,2,0,B|60:249|83:305|83:305|84:308|84:308|138:321|147:382,1,187.000005706787,2|0,1:2|1:0,0:0:0:0:
207,269,1288,21,0,1:0:0:0:
207,269,1446,2,0,B|261:282|252:293|299:309,1,93.5000028533936,8|4,0:0|1:2,0:0:0:0:
372,231,1762,2,0,B|362:290|312:287|264:388,1,187.000005706787,2|2,0:0|0:0,0:0:0:0:
256,384,2235,1,0,1:0:0:0:
389,357,2393,1,12,0:0:0:0:
292,223,2551,1,2,1:2:0:0:
183,152,2709,86,0,P|209:111|251:97,1,93.5000028533936,12|0,0:0|1:0,0:0:0:0:
276,63,2946,2,0,P|327:73|366:109,1,93.5000028533936,2|0,0:0|0:0,0:0:0:0:
366,117,3183,2,0,P|414:123|446:87,2,93.5000028533936,0|2|2,1:0|0:0|1:2,0:0:0:0:
209,28,3656,54,0,P|163:24|102:16,1,93.5000028533936,12|2,0:0|1:2,0:0:0:0:
108,25,3972,1,2,0:0:0:0:
0,120,4130,86,0,P|48:111|97:107,1,93.5000028533936,0|2,1:0|0:0,0:0:0:0:
56,193,4446,2,0,P|81:206|104:222,2,46.7500014266968,8|8|12,0:3|0:3|0:0,0:0:0:0:
231,294,4920,54,0,B|188:303|192:314|148:334,2,85,6|0|8,1:2|1:0|0:0,0:0:0:0:
291,220,5393,2,0,B|367:233|361:279|448:315,1,170,2|2,0:0|1:2,0:0:0:0:
439,318,5867,1,8,0:0:0:0:
370,217,6025,6,0,L|425:205,1,42.5,2|0,1:2|0:0,0:0:0:0:
512,129,6341,2,0,L|457:117,1,42.5,2|0,1:2|0:0,0:0:0:0:
317,88,6656,2,0,L|224:70,2,85,2|2|8,1:2|0:0|0:0,0:0:0:0:
411,41,7130,70,0,B|450:37|455:28|512:14,2,85,2|0|8,1:2|1:0|0:0,0:0:0:0:
321,97,7604,2,0,P|244:133|154:119,1,170,2|2,0:0|1:2,0:0:0:0:
154,126,8077,1,8,0:0:0:0:
72,38,8235,6,0,L|80:92,1,42.5,2|0,1:2|0:0,0:0:0:0:
152,254,8551,2,0,L|160:200,1,42.5,2|0,1:2|0:0,0:0:0:0:
38,272,8867,2,0,L|65:357,2,85,2|2|8,1:2|0:0|0:0,0:0:0:0:
75,188,9341,70,0,B|37:182|32:151|-9:140,2,85,2|0|8,1:2|1:0|0:0,0:0:0:0:
152,254,9814,2,0,P|234:268|245:355,1,170,2|2,0:0|1:2,0:0:0:0:
235,353,10288,1,8,0:0:0:0:
338,329,10446,6,0,L|395:341,1,42.5,2|0,1:2|0:0,0:0:0:0:
512,259,10762,2,0,L|455:271,1,42.5,2|0,1:2|0:0,0:0:0:0:
309,166,11077,2,0,L|325:253,2,85,2|2|8,1:2|0:0|0:0,0:0:0:0:
246,89,11551,70,0,B|231:62|195:57|199:8,2,85,2|0|8,1:2|1:0|0:0,0:0:0:0:
377,34,12025,2,0,P|463:62|493:131,1,170,2|2,0:0|1:2,0:0:0:0:
485,146,12499,1,8,0:0:0:0:
478,234,12656,6,0,L|428:220,1,42.5,2|0,1:2|0:0,0:0:0:0:
297,340,12972,2,0,L|347:326,1,42.5,2|0,1:2|0:0,0:0:0:0:
179,266,13288,2,0,L|157:167,2,85,2|2|8,1:2|0:0|0:0,0:0:0:0:
87,358,13762,6,0,P|43:337|9:282,1,108.375002067089,4|0,1:2|0:0,0:0:0:0:
15,280,14077,2,0,P|19:240|46:200,1,72.2500013780594,2|0,0:0|1:0,0:0:0:0:
85,133,14393,1,8,1:2:0:0:
165,347,14630,5,8,0:0:0:0:
167,359,14709,1,2,0:0:0:0:
179,266,14867,2,0,P|152:205|90:153,1,144.500002756119,2|8,1:3|1:2,0:0:0:0:
93,266,15341,69,2,1:2:0:0:
168,176,15499,1,2,0:3:0:0:
170,165,15577,1,2,0:3:0:0:
173,154,15656,21,2,0:1:0:0:
301,62,15972,6,0,P|349:89|406:111,1,110.499994941712,6|8,1:2|0:0,0:0:0:0:
471,10,16446,2,0,P|440:57|412:116,1,110.499994941712,2|2,0:0|1:2,0:0:0:0:
320,162,16920,5,8,0:0:0:0:
401,297,17077,1,2,1:2:0:0:
500,281,17393,1,2,1:2:0:0:
323,246,17709,1,0,1:0:0:0:
323,246,17867,2,0,P|296:240|261:235,1,55.2499974708558,2|8,0:0|0:0,0:0:0:0:
156,156,18183,70,0,P|102:169|39:195,1,110.499994941712,2|8,1:2|0:0,0:0:0:0:
87,316,18656,2,0,P|141:303|204:277,1,110.499994941712,2|2,0:0|1:2,0:0:0:0:
199,286,19130,5,8,0:0:0:0:
227,207,19288,1,2,1:2:0:0:
77,155,19604,1,2,1:2:0:0:
132,9,19920,1,0,1:0:0:0:
139,19,20077,2,0,P|169:28|194:40,1,55.2499974708558,2|8,0:0|0:0,0:0:0:0:
349,177,20393,70,0,P|329:128|309:57,1,110.499994941712,2|8,1:2|0:0,0:0:0:0:
457,0,20867,2,0,P|448:54|429:117,1,110.499994941712,2|2,0:0|1:2,0:0:0:0:
452,207,21341,5,8,0:0:0:0:
385,353,21499,1,2,1:2:0:0:
385,353,21814,1,2,1:2:0:0:
502,331,22130,1,0,1:0:0:0:
496,318,22288,2,0,P|466:309|428:295,1,55.2499974708558,2|8,0:0|0:0,0:0:0:0:
254,348,22604,70,0,P|197:342|125:327,1,110.499994941712,2|8,1:2|0:0,0:0:0:0:
0,269,23077,2,0,P|56:260|130:255,1,110.499994941712,2|2,0:0|1:2,0:0:0:0:
167,193,23551,5,8,0:0:0:0:
81,384,23709,1,2,1:2:0:0:
25,198,24025,53,2,0:0:0:0:
25,198,24183,2,0,P|20:226|17:259,2,55.2499974708558,2|2|2,0:1|1:2|1:2,0:0:0:0:
212,62,24814,6,0,L|194:-7,2,63.7500024318696,6|0|8,1:2|1:0|0:0,0:0:0:0:
116,93,25288,2,0,L|54:56,2,63.7500024318696,2|2|0,0:0|1:2|1:0,0:0:0:0:
306,115,25762,5,8,0:0:0:0:
306,115,25920,2,0,B|363:97|367:70|416:45,2,127.500004863739,2|2|0,1:2|1:2|1:0,0:0:0:0:
229,140,26709,2,0,P|198:148|165:165,1,63.7500024318696,2|0,0:0|1:0,0:0:0:0:
109,255,27025,70,0,L|30:239,2,63.7500024318696,2|0|8,1:2|1:0|0:0,0:0:0:0:
249,267,27499,2,0,L|176:231,2,63.7500024318696,2|2|0,0:0|1:2|1:0,0:0:0:0:
392,253,27972,5,8,0:0:0:0:
392,253,28130,2,0,B|383:302|349:292|331:376,2,127.500004863739,2|2|0,1:2|1:2|1:0,0:0:0:0:
497,293,28920,2,0,P|485:262|468:234,1,63.7500024318696,2|0,0:0|1:0,0:0:0:0:
512,72,29235,70,0,P|402:91|334:108,1,165.749992412568,4|2,1:2|1:2,0:0:0:0:
508,78,29867,2,0,P|462:49|399:30,1,110.499994941712,12|2,0:0|0:3,0:0:0:0:
331,116,30341,37,4,1:2:0:0:
0,30,30656,2,0,B|45:45|46:69|102:93,1,110.499994941712,4|2,1:2|1:2,0:0:0:0:
219,57,31130,1,12,0:0:0:0:
139,215,31446,38,0,P|185:270|206:352,1,144.500002756119,2|8,1:1|0:0,0:0:0:0:
16,265,31920,1,2,0:0:0:0:
16,265,32077,2,0,P|55:274|83:298,1,72.2500013780594,0|2,1:0|1:2,0:0:0:0:
298,315,32393,6,0,P|332:288|380:278,1,72.2500013780594,8|2,0:0|1:2,0:0:0:0:
503,229,32867,2,0,B|446:235|425:265|365:282,1,144.500002756119,2|0,1:2|1:0,0:0:0:0:
222,299,33341,2,0,P|260:314|311:325,1,72.2500013780594,6|2,0:0|1:2,0:0:0:0:
255,191,33656,37,12,0:0:0:0:
256,192,33735,12,0,35314,0:0:0:0:
348,115,35393,5,8,0:3:0:0:
348,115,35472,1,8,1:3:0:0:
348,115,35551,2,0,B|336:119|336:119|325:111|325:111|312:115|312:115|302:107|302:107|292:109|292:109|279:102|279:102|266:106|266:106|253:95|253:95|236:101|236:101|225:89|225:89|212:94|212:94|200:86,1,163.625004993439,10|0,0:0|0:0,0:0:0:0:
130,61,36183,6,0,B|144:104|167:119|186:171,1,123.250003761292,6|2,1:2|0:0,0:0:0:0:
297,233,36498,1,8,0:0:0:0:
101,179,36656,6,0,P|50:218|58:276,1,123.250003761292,2|0,0:0|1:0,0:0:0:0:
135,343,36972,1,2,1:2:0:0:
135,343,37130,2,0,B|127:354|127:354|69:363|12:377,1,123.250003761292,8|0,1:2|1:0,0:0:0:0:
232,313,37446,6,0,B|294:337|275:346|339:378,1,123.250003761292,4|2,0:0|1:2,0:0:0:0:
345,375,37761,1,8,0:0:0:0:
406,216,37919,6,0,P|416:277|432:347,1,123.250003761292,2|0,0:0|1:0,0:0:0:0:
305,238,38235,2,0,P|295:177|279:107,1,123.250003761292,2|8,1:2|1:2,0:0:0:0:
419,38,38551,38,0,B|423:53|423:53|414:66|408:85|408:85|392:91,1,61.6250018806458,2|0,1:2|1:0,0:0:0:0:
501,158,38709,2,0,B|474:124|424:108|424:108|374:101,1,123.250003761292,6|2,1:2|0:0,0:0:0:0:
294,33,39025,1,8,0:0:0:0:
79,188,39183,6,0,B|150:171|125:156|209:137,1,123.250003761292,2|0,0:0|1:0,0:0:0:0:
132,69,39498,2,0,B|61:52|86:37|2:18,1,123.250003761292,2|8,1:2|1:2,0:0:0:0:
240,225,39814,6,0,B|244:240|261:248|261:248|255:351|163:338,1,184.875005641937,2|0,1:2|0:0,0:0:0:0:
96,359,40130,2,0,P|94:289|168:279,1,123.250003761292,2|8,1:2|0:0,0:0:0:0:
367,326,40446,1,8,0:3:0:0:
267,357,40604,21,2,1:3:0:0:
424,264,40761,1,0,1:0:0:0:
326,143,40919,6,0,P|296:137|277:114,1,61.6250018806458,8|2,1:2|0:0,0:0:0:0:
262,109,41077,2,0,P|252:81|262:53,1,61.6250018806458,2|2,0:0|0:0,0:0:0:0:
326,10,41235,6,0,B|415:-7|350:84|475:125,1,184.875005641937,6|0,1:2|0:0,0:0:0:0:
512,68,41551,1,8,0:0:0:0:
375,247,41709,5,2,0:0:0:0:
375,247,41867,2,0,B|432:221|433:210|497:183,1,123.250003761292,0|2,1:0|1:2,0:0:0:0:
283,97,42183,6,0,B|275:104|275:104|246:112|216:126,1,61.6250018806458,8|0,1:2|0:0,0:0:0:0:
94,89,42340,2,0,P|176:114|205:210,1,184.875005641937,0|0,1:0|0:0,0:0:0:0:
166,288,42656,2,0,P|107:268|42:238,1,123.250003761292,2|8,1:2|0:0,0:0:0:0:
282,266,42972,5,2,0:0:0:0:
282,266,43130,2,0,B|287:315|316:312|334:377,1,123.250003761292,2|0,1:2|1:0,0:0:0:0:
209,214,43446,1,8,1:2:0:0:
297,81,43604,38,0,B|297:59|291:37|291:37|278:23,1,61.6250018806458,2|0,0:3|0:0,0:0:0:0:
164,89,43761,2,0,P|245:121|356:146,1,184.875005641937,6|0,1:2|0:0,0:0:0:0:
367,166,44077,1,8,0:0:0:0:
495,39,44235,6,0,P|461:84|446:158,1,123.250003761292,2|2,0:0|1:2,0:0:0:0:
453,155,44551,1,0,1:0:0:0:
477,341,44709,5,8,1:2:0:0:
240,252,44867,1,2,0:0:0:0:
240,242,44946,1,8,1:3:0:0:
245,236,45025,6,0,B|290:239|300:270|347:307,1,123.250003761292,6|0,1:2|1:0,0:0:0:0:
155,308,45340,2,0,B|90:316|93:329|19:351,1,123.250003761292,8|2,0:0|1:2,0:0:0:0:
225,163,45656,37,8,1:2:0:0:
235,149,45893,5,8,1:3:0:0:
240,161,46130,69,0,1:0:0:0:
87,137,46288,22,0,L|78:81,1,46.7500014266968,6|0,1:2|1:0,0:0:0:0:
78,83,46524,1,8,1:2:0:0:
76,76,46603,21,2,1:2:0:0:
20,22,46761,1,8,1:2:0:0:
3,95,46919,1,2,1:2:0:0:
160,118,47235,54,0,L|151:62,1,46.7500014266968,2|0,1:2|1:0,0:0:0:0:
151,64,47471,1,8,1:2:0:0:
149,57,47550,21,2,1:2:0:0:
20,22,47708,1,8,1:2:0:0:
76,76,47866,1,2,1:2:0:0:
425,140,48182,37,10,0:0:0:0:
425,140,48498,6,0,L|434:84,1,46.7500014266968,4|0,1:2|1:0,0:0:0:0:
434,86,48734,1,8,1:2:0:0:
436,79,48813,21,2,1:2:0:0:
492,25,48971,1,8,1:2:0:0:
509,98,49129,1,2,1:2:0:0:
352,121,49445,54,0,L|361:65,1,46.7500014266968,2|0,1:2|1:0,0:0:0:0:
361,67,49681,1,8,1:2:0:0:
363,60,49760,21,2,1:2:0:0:
492,25,49918,1,8,1:2:0:0:
436,79,50076,1,2,1:2:0:0:
157,286,50393,5,2,1:0:0:0:
157,286,50709,54,0,L|44:313,2,110.499994941712,4|2|8,1:2|1:2|1:2,0:0:0:0:
355,286,51656,5,2,1:2:0:0:
355,286,51814,1,8,1:2:0:0:
355,286,51972,2,0,L|468:313,2,110.499994941712,2|8|2,1:2|1:2|1:2,0:0:0:0:
213,357,52761,1,8,0:3:0:0:
213,357,52840,1,8,1:3:0:0:
213,357,52919,70,0,L|100:384,2,110.499994941712,4|2|8,1:2|1:2|1:2,0:0:0:0:
307,355,53866,5,2,1:2:0:0:
307,355,54024,1,8,1:2:0:0:
307,355,54182,2,0,L|420:382,2,110.499994941712,2|8|2,1:2|1:2|1:2,0:0:0:0:
255,193,54972,1,8,0:3:0:0:
255,184,55051,1,8,1:3:0:0:
255,176,55130,22,0,L|255:138,6,34,6|2|2|2|2|10|2,1:2|1:2|1:2|1:3|3:2|3:2|1:2,0:0:0:0:
170,141,57182,1,8,0:3:0:0:
170,141,57261,1,8,1:3:0:0:
170,141,57340,6,0,L|160:104,6,34,6|2|2|2|10|2|2,1:2|1:2|1:2|1:3|1:3|1:3|1:2,0:0:0:0:
365,125,59551,70,0,L|399:63,2,68,6|2|2,1:2|1:2|1:2,0:0:0:0:
311,64,60498,2,0,L|345:2,2,68,2|2|10,1:3|3:2|3:2,0:0:0:0:
150,26,61445,1,10,3:0:0:0:
72,72,61603,1,8,0:3:0:0:
72,72,61682,1,8,1:3:0:0:
72,72,61761,6,0,L|-6:-8,1,101.999996887207,6|2,1:2|1:2,0:0:0:0:
211,100,62393,2,0,L|307:42,1,101.999996887207,2|2,1:2|1:2,0:0:0:0:
103,142,63024,2,0,L|-4:111,1,101.999996887207,12|14,1:3|1:3,0:0:0:0:
103,142,63656,53,4,1:2:0:0:
103,142,63734,2,0,L|99:208,1,42.5,8|8,1:3|0:3,0:0:0:0:
98,260,63892,1,8,1:2:0:0:
98,260,63971,2,0,L|94:324,3,42.5,2|8|8|2,1:2|0:3|1:2|0:3,0:0:0:0:
176,322,64287,53,2,1:2:0:0:
176,322,64366,2,0,L|179:253,1,42.5,8|8,1:3|1:2,0:0:0:0:
179,177,64523,1,0,1:0:0:0:
179,177,64602,2,0,L|183:113,3,42.5,8|8|8|2,1:2|1:3|1:2|0:3,0:0:0:0:
262,133,64919,21,2,1:2:0:0:
262,133,64998,2,0,L|259:198,1,42.5,8|8,1:3|0:3,0:0:0:0:
258,302,65155,1,8,1:2:0:0:
258,302,65234,2,0,L|253:349,3,42.5,2|8|8|2,1:2|0:3|1:2|0:3,0:0:0:0:
333,372,65550,53,10,1:2:0:0:
335,355,65628,1,8,0:0:0:0:
338,338,65708,2,0,L|344:268,1,42.5,8|8,1:2|0:0,0:0:0:0:
340,121,65866,1,6,1:0:0:0:
510,4,66182,38,0,L|467:-3,7,27.6249987354279,6|0|0|0|0|0|0|0,1:2|0:3|0:3|0:3|0:3|0:3|0:3|0:3,0:0:0:0:
415,34,66813,2,0,L|372:27,7,27.6249987354279,6|0|0|0|0|0|0|0,1:2|0:3|0:3|0:3|0:3|0:3|0:3|0:3,0:0:0:0:
303,68,67445,54,0,L|272:74,7,31.8750012159348,6|0|0|0|0|0|0|0,1:2|0:3|0:3|0:3|0:3|0:3|0:3|0:3,0:0:0:0:
198,25,68076,2,0,L|167:31,7,31.8750012159348,6|0|0|0|0|0|8|8,1:2|0:3|0:3|0:3|0:3|0:3|0:0|1:2,0:0:0:0:
81,86,68708,22,0,L|44:78,4,36.1250006890297,12|8|8|8|8,1:2|1:3|0:3|0:0|1:2,0:0:0:0:
177,154,69182,5,10,1:2:0:0:
177,154,69261,1,8,1:3:0:0:
177,154,69340,2,0,L|226:163,3,40.3749989218712,4|8|2|8,1:2|1:3|3:0|0:0,0:0:0:0:
226,172,69656,1,12,1:2:0:0:
79,199,69813,69,8,0:0:0:0:
79,199,69892,1,8,1:2:0:0:
79,199,69971,1,4,1:2:0:0:
158,274,70129,70,0,L|214:286,1,46.7500014266968,10|8,1:2|0:0,0:0:0:0:
52,302,70287,2,0,L|-4:314,1,46.7500014266968,4|8,1:2|1:3,0:0:0:0:
122,348,70445,1,12,1:2:0:0:
118,355,70761,70,0,L|115:368,10,8.5,0|0|0|0|2|2|2|2|2|2|2,0:0|0:0|0:0|0:0|0:0|0:0|0:0|0:0|0:3|0:3|0:3,0:0:0:0:
122,348,71234,22,0,B|140:282|182:241|182:241|154:211|150:167,1,191.250007295609,6|0,1:2|0:0,0:0:0:0:
139,169,71550,1,8,0:0:0:0:
275,49,71708,5,2,0:0:0:0:
275,49,71866,2,0,B|264:101|249:114|236:189,1,127.500004863739,0|2,1:0|1:2,0:0:0:0:
175,78,72182,6,0,P|150:71|114:58,1,63.7500024318696,8|0,1:2|0:0,0:0:0:0:
300,127,72340,2,0,B|375:184|446:100|446:100|398:82|388:32,1,255.000009727478,2|2,1:2|1:2,0:0:0:0:
471,24,72813,1,8,0:0:0:0:
368,172,72971,5,2,0:0:0:0:
368,172,73129,2,0,B|377:236|395:223|415:295,1,127.500004863739,2|0,1:2|1:0,0:0:0:0:
429,306,73445,1,8,1:2:0:0:
251,286,73603,38,0,P|287:279|316:269,1,63.7500024318696,8|8,0:3|1:3,0:0:0:0:
304,358,73761,2,0,B|191:323|224:256|96:178,1,255.000009727478,4|8,1:2|0:0,0:0:0:0:
69,4,74234,5,8,0:3:0:0:
69,4,74392,2,0,P|55:70|29:139,1,127.500004863739,2|0,1:2|1:0,0:0:0:0:
75,318,74708,2,0,P|89:252|115:183,1,127.500004863739,8|2,1:2|1:2,0:0:0:0:
258,96,75024,5,2,0:3:0:0:
228,206,75182,2,0,B|245:215|245:215|288:192|335:187|335:187|342:156,1,127.500004863739,0|8,1:0|0:0,0:0:0:0:
257,104,75498,1,2,1:2:0:0:
314,275,75656,38,0,P|322:309|331:354,3,63.7500024318696,10|8|8|8,0:0|0:0|0:0|0:0,0:0:0:0:
233,384,75971,2,0,P|241:349|250:305,3,63.7500024318696,10|8|8|8,1:2|1:2|1:2|1:2,0:0:0:0:
396,295,76287,6,0,B|406:301|406:301|430:304|450:311|450:311|462:302,1,61.6250018806458,6|0,1:2|0:0,0:0:0:0:
512,380,76445,2,0,B|501:338|445:327|445:327|398:318,1,123.250003761292,2|8,0:0|0:0,0:0:0:0:
337,173,76761,6,0,P|373:121|438:97,1,123.250003761292,2|0,0:0|1:0,0:0:0:0:
512,197,77077,2,0,P|481:206|442:213,1,61.6250018806458,2|0,1:2|0:0,0:0:0:0:
396,295,77234,1,8,1:2:0:0:
396,295,77392,1,0,1:0:0:0:
228,206,77550,5,6,0:0:0:0:
228,206,77708,2,0,B|159:196|180:178|103:168,1,123.250003761292,2|8,1:2|0:0,0:0:0:0:
35,262,78024,6,0,P|96:245|173:232,1,123.250003761292,2|0,0:0|1:0,0:0:0:0:
122,89,78340,2,0,P|92:97|56:105,1,61.6250018806458,2|0,1:2|0:0,0:0:0:0:
0,148,78498,1,8,1:2:0:0:
190,41,78656,37,2,1:2:0:0:
190,41,78734,1,0,1:0:0:0:
190,41,78813,2,0,P|250:58|319:69,1,123.250003761292,6|2,1:2|0:0,0:0:0:0:
320,77,79129,1,8,0:0:0:0:
333,224,79287,5,2,0:0:0:0:
333,224,79445,2,0,B|348:175|387:164|420:109,1,123.250003761292,0|2,1:0|1:2,0:0:0:0:
512,50,79761,1,8,1:2:0:0:
413,134,79919,6,0,B|483:159|484:238|484:238|455:255|450:289,1,184.875005641937,2|0,1:2|0:0,0:0:0:0:
463,357,80234,2,0,P|404:364|386:293,1,123.250003761292,2|8,1:2|0:0,0:0:0:0:
448,284,80550,1,8,0:3:0:0:
255,342,80708,21,2,1:3:0:0:
104,210,80866,1,0,1:2:0:0:
201,229,81024,5,8,1:2:0:0:
174,255,81103,1,2,0:0:0:0:
155,287,81182,1,2,0:0:0:0:
145,322,81261,1,2,0:0:0:0:
140,360,81340,6,0,B|157:330|157:330|117:302|91:264|91:264|89:262|89:262|101:233|106:199,1,184.875005641937,6|0,1:2|0:0,0:0:0:0:
63,149,81656,1,8,0:0:0:0:
270,67,81813,6,0,P|214:86|179:158,1,123.250003761292,2|0,0:0|1:0,0:0:0:0:
185,148,82129,1,2,1:2:0:0:
333,239,82287,6,0,P|308:221|305:186,1,61.6250018806458,8|0,1:2|0:0,0:0:0:0:
405,211,82445,2,0,B|424:174|462:170|462:170|411:201|403:293,1,184.875005641937,0|0,1:0|0:0,0:0:0:0:
469,303,82761,2,0,B|412:314|413:334|352:348,1,123.250003761292,2|8,1:2|0:0,0:0:0:0:
370,134,83077,5,2,0:0:0:0:
370,134,83234,2,0,B|386:72|399:85|428:22,1,123.250003761292,2|0,1:2|1:0,0:0:0:0:
490,78,83550,1,8,1:2:0:0:
348,12,83708,38,0,P|315:9|279:1,1,61.6250018806458,2|0,0:3|0:0,0:0:0:0:
209,58,83866,2,0,B|127:49|121:79|14:97,1,184.875005641937,6|0,1:2|0:0,0:0:0:0:
0,162,84182,1,8,0:0:0:0:
134,284,84340,5,2,0:0:0:0:
134,284,84498,2,0,B|134:299|134:299|191:316|243:355,1,123.250003761292,2|0,1:2|1:0,0:0:0:0:
293,266,84813,6,0,B|278:257|275:237|275:237|283:253|297:259,1,61.6250018806458,8|0,1:2|0:0,0:0:0:0:
371,234,84971,2,0,B|368:211|385:197|385:197|376:212|376:228,1,61.6250018806458,8|8,3:0|1:3,0:0:0:0:
438,282,85129,6,0,P|474:294|448:364,1,123.250003761292,6|0,1:2|1:0,0:0:0:0:
210,184,85445,2,0,P|194:153|263:132,1,123.250003761292,8|2,0:0|1:2,0:0:0:0:
355,125,85761,21,10,0:0:0:0:
342,172,85840,69,8,0:0:0:0:
322,216,85919,5,8,0:0:0:0:
298,259,85998,69,8,0:0:0:0:
270,299,86077,6,0,P|248:327|219:354,3,61.6250018806458,10|8|8|8,1:2|1:2|1:2|1:2,0:0:0:0:
153,335,86392,53,4,1:2:0:0:
134,262,86550,1,8,1:2:0:0:
420,170,86866,21,2,1:2:0:0:
440,89,87024,1,12,1:2:0:0:
64,133,87340,53,2,1:2:0:0:
42,43,87498,2,0,P|171:29|298:13,1,255,12|2,1:2|0:0,0:0:0:0:
