osu file format v14

[General]
AudioFilename: audio.mp3
AudioLeadIn: 0
PreviewTime: 35531
Countdown: 0
SampleSet: Soft
StackLeniency: 0.5
Mode: 0
LetterboxInBreaks: 0
WidescreenStoryboard: 0

[Editor]
Bookmarks: 4920,15972,33656,36183,46288,55130,66182,71234,86392
DistanceSpacing: 1.3
BeatDivisor: 4
GridSize: 8
TimelineZoom: 2

[Metadata]
Title:Nana Hitsuji (TV Size)
TitleUnicode:ナナヒツジ (TV Size)
Artist:Scenarioart
ArtistUnicode:シナリオアート
Creator:FackeL
Version:Extra
Source:すべてがFになる THE PERFECT INSIDER
Tags:ending ed Subete ga F ni Naru anime japanese pop jpop j-pop rock jrock j-rock talking Faction World kxlman Ryxliee Tachibana_ StripedGoose
BeatmapID:3652916
BeatmapSetID:1783693

[Difficulty]
HPDrainRate:6.2
CircleSize:4.3
OverallDifficulty:9
ApproachRate:9.3
SliderMultiplier:1.81
SliderTickRate:1

[Events]
//Background and Video events
0,0,"eb7f336ea5e7c76b.jpg",0,0
//Break Periods
//Storyboard Layer 0 (Background)
//Storyboard Layer 1 (Fail)
//Storyboard Layer 2 (Pass)
//Storyboard Layer 3 (Foreground)
//Storyboard Layer 4 (Overlay)
//Storyboard Sound Samples

[TimingPoints]
499,315.789473684211,7,2,1,65,1,0
499,-83.3333333333333,7,2,1,65,0,0
4920,-100,7,2,1,60,0,0
13762,-117.647058823529,7,2,1,50,0,0
15972,-153.846153846154,7,2,1,50,0,0
24814,-133.333333333334,7,2,1,50,0,0
29235,-153.846153846155,7,2,1,50,0,0
31446,-117.64705882353,7,2,1,50,0,0
33656,-1000,7,2,1,35,0,0
35314,-1000,7,2,1,5,0,0
35393,-1000,7,2,1,40,0,0
35551,-153.846153846154,7,2,1,65,0,0
36104,-153.846153846154,7,2,1,5,0,0
36183,315.789473684211,4,2,1,75,1,0
36183,-57.1428571428571,4,2,1,75,0,1
36656,-74.0740740740741,4,2,1,75,0,0
41235,-57.1428571428571,4,2,1,75,0,1
41709,-74.0740740740741,4,2,1,75,0,0
45656,-83.3333333333333,4,2,1,70,0,0
46288,315.789473684211,7,2,1,50,1,0
46288,-133.333333333333,7,2,1,50,0,0
50709,-117.647058823529,7,2,1,55,0,0
55130,-500,7,2,1,55,0,0
59551,-250,7,2,1,55,0,0
61761,-166.666666666667,7,2,1,55,0,0
63656,315.789473684211,4,2,1,65,1,0
63656,-100,4,2,1,65,0,0
66182,-153.846153846154,4,2,1,60,0,0
67445,-133.333333333333,4,2,1,62,0,0
68708,-117.647058823529,4,2,1,64,0,0
69340,-105.263157894737,4,2,1,66,0,0
69971,-90.9090909090909,4,2,1,68,0,0
70603,-250,4,2,1,45,0,0
70919,-250,4,2,1,55,0,0
71234,-50,4,2,1,75,0,1
71708,-66.6666666666667,4,2,1,75,0,1
75971,-66.6666666666667,4,2,1,75,0,0
76287,-57.1428571428571,4,2,1,75,0,1
76761,-74.0740740740741,4,2,1,75,0,0
81340,-57.1428571428571,4,2,1,75,0,1
81813,-74.0740740740741,4,2,1,75,0,0
86392,-83.3333333333333,4,2,1,70,0,0
87498,-200,4,2,1,70,0,0
88445,-1000,4,2,1,25,0,0

[Colours]
Combo1 : 159,219,100
Combo2 : 255,119,119
Combo3 : 171,156,146
Combo4 : 242,24,57
Combo5 : 221,160,34
Combo6 : 234,217,64

[HitObjects]
458,51,341,5,8,0:3:0:0:
458,51,420,1,8,0:3:0:0:
458,51,499,2,0,L|401:71,1,54.2999983428956,12|0,0:2|0:0,0:0:0:0:
255,46,656,2,0,B|296:55|328:25|328:25|291:111|384:160,1,217.199993371582,2|0,1:2|1:0,0:0:0:0:
208,280,1288,21,0,1:0:0:0:
280,251,1446,1,8,0:0:0:0:
213,286,1604,2,0,P|254:325|269:378,1,108.599996685791,4|2,1:2|0:0,0:0:0:0:
276,384,1920,2,0,P|313:338|364:315,1,108.599996685791,0|2,1:0|0:0,0:0:0:0:
427,232,2235,85,0,1:0:0:0:
466,329,2393,1,12,0:0:0:0:
406,374,2551,1,2,1:2:0:0:
435,242,2709,54,0,P|382:233|313:217,1,108.599996685791,12|0,0:0|1:0,0:0:0:0:
272,143,2946,2,0,P|219:152|150:168,1,108.599996685791,2|0,0:0|0:0,0:0:0:0:
120,223,3183,2,0,P|67:214|-2:198,2,108.599996685791,0|2|2,1:0|0:0|1:2,0:0:0:0:
126,231,3656,85,12,0:0:0:0:
93,142,3814,2,0,P|58:103|85:54,2,108.599996685791,2|2|0,1:2|0:0|1:0,0:0:0:0:
148,89,4288,21,2,0:0:0:0:
0,276,4446,1,8,0:3:0:0:
3,291,4525,1,8,0:3:0:0:
6,306,4604,1,12,0:0:0:0:
251,384,4920,22,0,L|260:294,1,90.5,6|0,1:2|1:0,0:0:0:0:
214,235,5235,2,0,B|266:251|279:280|341:302,1,135.75,8|8,0:0|0:3,0:0:0:0:
431,354,5551,2,0,P|468:329|490:284,1,90.5,0|2,1:0|1:2,0:0:0:0:
499,282,5867,1,8,0:0:0:0:
333,299,6025,6,0,L|322:234,1,45.25,2|0,1:2|0:0,0:0:0:0:
301,19,6341,2,0,L|312:84,1,45.25,2|0,1:2|0:0,0:0:0:0:
504,117,6656,2,0,P|463:124|398:138,1,90.5,2|2,1:2|0:0,0:0:0:0:
343,211,6972,1,8,0:0:0:0:
236,66,7130,70,0,L|120:41,1,90.5,2|0,1:2|1:0,0:0:0:0:
53,80,7446,1,8,0:0:0:0:
264,225,7604,2,0,P|201:178|115:140,1,135.75,2|0,0:0|0:0,0:0:0:0:
70,165,7920,2,0,P|24:178|1:215,1,90.5,2|8,1:2|0:0,0:0:0:0:
192,312,8235,6,0,L|136:325,1,45.25,2|0,1:2|0:0,0:0:0:0:
421,208,8551,2,0,L|477:221,1,45.25,2|0,1:2|0:0,0:0:0:0:
356,378,8867,2,0,P|337:335|322:276,1,90.5,2|2,1:2|0:0,0:0:0:0:
357,169,9183,1,8,0:0:0:0:
320,286,9341,70,0,L|293:379,2,90.5,2|0|8,1:2|1:0|0:0,0:0:0:0:
200,113,9814,2,0,B|208:187|230:171|243:253,1,135.75,2|0,0:0|0:0,0:0:0:0:
249,235,10130,2,0,P|259:188|274:140,1,90.5,2|8,1:2|0:0,0:0:0:0:
118,328,10446,6,0,L|75:311,1,45.25,2|0,1:2|0:0,0:0:0:0:
270,73,10762,2,0,L|312:56,1,45.25,2|0,1:2|0:0,0:0:0:0:
512,194,11077,2,0,P|471:188|415:182,1,90.5,2|2,1:2|0:0,0:0:0:0:
344,241,11393,1,8,0:0:0:0:
186,78,11551,70,0,L|211:177,2,90.5,2|0|8,1:2|1:0|0:0,0:0:0:0:
81,0,12025,2,0,P|33:74|51:166,1,181,2|2,0:0|1:2,0:0:0:0:
54,164,12499,1,8,0:0:0:0:
132,223,12656,6,0,L|115:274,1,45.25,2|0,1:2|0:0,0:0:0:0:
14,77,12972,2,0,L|-3:26,1,45.25,2|0,1:2|0:0,0:0:0:0:
212,242,13288,2,0,P|202:279|190:335,1,90.5,2|2,1:2|0:0,0:0:0:0:
0,337,13604,2,0,P|23:323|54:321,1,45.25,8|0,0:0|0:0,0:0:0:0:
197,336,13762,6,0,P|232:357|272:362,2,76.925001467228,4|2|2,1:2|0:3|0:0,0:0:0:0:
132,223,14235,1,0,1:0:0:0:
114,344,14393,1,8,1:2:0:0:
404,30,14630,5,8,0:0:0:0:
400,41,14709,1,2,0:0:0:0:
490,141,14867,2,0,P|479:105|472:38,1,76.925001467228,2|0,1:3|0:0,0:0:0:0:
311,75,15183,70,0,P|305:112|293:149,1,76.925001467228,8|2,1:2|1:2,0:0:0:0:
112,280,15499,1,2,0:3:0:0:
102,271,15577,1,2,0:3:0:0:
93,262,15656,21,2,0:1:0:0:
168,135,15972,6,0,P|105:120|72:77,1,117.649994614411,6|8,1:2|0:0,0:0:0:0:
211,74,16446,1,2,0:0:0:0:
211,74,16604,2,0,P|192:46|181:16,1,58.8249973072053,0|2,1:0|1:2,0:0:0:0:
213,203,16920,5,8,0:0:0:0:
213,203,17077,2,0,P|184:214|158:237,1,58.8249973072053,2|0,1:2|0:0,0:0:0:0:
0,251,17393,2,0,P|48:263|119:291,1,117.649994614411,2|0,1:2|1:0,0:0:0:0:
208,289,17867,2,0,P|193:318|188:345,1,58.8249973072053,2|8,0:0|0:0,0:0:0:0:
408,384,18183,86,0,P|357:364|283:346,1,117.649994614411,2|8,1:2|0:0,0:0:0:0:
473,348,18656,1,2,0:0:0:0:
473,348,18814,2,0,P|497:323|488:290,1,58.8249973072053,0|2,1:0|1:2,0:0:0:0:
430,98,19130,69,8,0:0:0:0:
410,174,19288,1,2,1:2:0:0:
476,217,19604,1,2,1:2:0:0:
327,16,19920,1,0,1:0:0:0:
345,39,20077,2,0,P|334:74|304:105,1,58.8249973072053,2|8,0:0|0:0,0:0:0:0:
132,88,20393,86,0,P|189:98|211:157,1,117.649994614411,2|8,1:2|0:0,0:0:0:0:
80,133,20867,1,2,0:0:0:0:
80,133,21025,2,0,P|94:103|128:88,1,58.8249973072053,0|2,1:0|1:2,0:0:0:0:
32,342,21341,5,8,0:0:0:0:
84,284,21499,1,2,1:2:0:0:
49,216,21814,1,2,1:2:0:0:
96,376,22130,1,0,1:0:0:0:
171,369,22288,2,0,P|208:359|223:342,1,58.8249973072053,2|8,0:0|0:0,0:0:0:0:
419,349,22604,86,0,P|379:310|314:322,1,117.649994614411,2|8,1:2|0:0,0:0:0:0:
497,319,23077,1,2,0:0:0:0:
497,319,23235,2,0,P|484:290|460:259,1,58.8249973072053,0|2,1:0|1:2,0:0:0:0:
433,179,23551,69,8,0:0:0:0:
356,378,23709,1,2,1:2:0:0:
356,378,24025,69,2,0:0:0:0:
419,349,24183,1,2,0:1:0:0:
348,375,24341,1,2,1:2:0:0:
426,354,24499,1,2,1:2:0:0:
398,91,24814,6,0,P|393:58|381:13,1,67.8750025892259,6|0,1:2|1:0,0:0:0:0:
473,108,25130,2,0,B|399:118|420:136|325:152,1,135.750005178452,8|2,0:0|1:2,0:0:0:0:
332,143,25604,1,0,1:0:0:0:
132,55,25762,5,8,0:0:0:0:
132,55,25920,2,0,P|204:61|267:70,1,135.750005178452,2|2,1:2|1:2,0:0:0:0:
131,158,26551,1,0,1:0:0:0:
68,109,26709,2,0,P|33:107|-4:101,1,67.8750025892259,2|0,0:0|1:0,0:0:0:0:
85,310,27025,70,0,P|94:276|109:238,1,67.8750025892259,2|0,1:2|1:0,0:0:0:0:
29,359,27341,1,8,0:0:0:0:
29,359,27499,2,0,P|91:353|170:319,1,135.750005178452,2|0,0:0|1:0,0:0:0:0:
376,297,27972,5,8,0:0:0:0:
376,297,28130,2,0,P|305:281|217:257,1,135.750005178452,2|2,1:2|1:2,0:0:0:0:
364,384,28762,1,0,1:0:0:0:
438,359,28920,2,0,P|452:323|470:291,1,67.8750025892259,2|0,0:0|1:0,0:0:0:0:
323,148,29235,70,0,B|412:132|392:97|486:80,1,176.474991921616,4|2,1:2|1:2,0:0:0:0:
512,172,29867,2,0,B|456:162|461:144|401:132,1,117.649994614411,12|2,0:0|0:3,0:0:0:0:
246,150,30341,38,0,P|258:90|267:22,2,117.649994614411,4|4|2,1:2|1:2|1:2,0:0:0:0:
179,82,31130,1,12,0:0:0:0:
9,233,31446,38,0,P|86:261|148:309,1,153.850002934456,2|8,1:1|0:0,0:0:0:0:
269,234,31920,1,2,0:0:0:0:
269,234,32077,2,0,P|240:251|219:294,1,76.925001467228,0|2,1:0|1:2,0:0:0:0:
440,356,32393,5,8,0:0:0:0:
380,257,32551,1,2,1:2:0:0:
440,356,32867,70,0,P|400:345|351:338,1,76.925001467228,2|0,1:2|0:0,0:0:0:0:
254,219,33183,1,0,1:0:0:0:
71,332,33341,2,0,P|110:318|147:301,1,76.925001467228,6|2,0:0|1:2,0:0:0:0:
256,194,33656,53,12,0:0:0:0:
256,192,33735,12,0,35314,0:0:0:0:
256,194,35393,5,8,0:3:0:0:
256,194,35472,1,8,1:3:0:0:
256,194,35551,2,0,B|281:150|281:150|235:105|235:105|268:62|268:62|257:21,1,205.887490575219,10|0,0:0|0:0,0:0:0:0:
258,26,36183,6,0,P|301:40|347:48,1,79.1875007551909,6|0,1:2|0:0,0:0:0:0:
512,83,36340,2,0,B|505:108|505:108|453:112|412:139|412:139|377:110,1,158.375001510382,2|8,0:0|0:0,0:0:0:0:
188,44,36656,6,0,P|154:32|114:27,1,61.0875002330303,2|0,0:0|0:0,0:0:0:0:
20,152,36814,2,0,B|79:144|72:123|134:108,1,122.175000466061,0|2,1:0|1:2,0:0:0:0:
213,237,37130,1,8,1:2:0:0:
137,384,37288,1,0,1:0:0:0:
405,246,37446,5,4,0:0:0:0:
425,326,37604,2,0,P|385:281|327:269,1,122.175000466061,2|8,1:2|0:0,0:0:0:0:
503,182,37919,5,2,0:0:0:0:
452,108,38077,2,0,P|392:118|345:163,1,122.175000466061,0|2,1:0|1:2,0:0:0:0:
240,342,38393,1,8,1:2:0:0:
63,231,38551,38,0,P|98:215|139:204,1,61.0875002330303,2|0,1:2|1:0,0:0:0:0:
55,122,38709,2,0,B|86:112|114:131|114:131|138:206|211:215,1,183.262500699091,6|0,1:2|0:0,0:0:0:0:
205,208,39025,1,8,0:0:0:0:
385,0,39183,5,2,0:0:0:0:
439,46,39340,2,0,P|379:39|298:21,1,122.175000466061,0|2,1:0|1:2,0:0:0:0:
244,40,39656,1,8,1:2:0:0:
347,158,39814,6,0,B|444:175|416:196|518:238,1,183.262500699091,2|0,1:2|0:0,0:0:0:0:
462,315,40130,2,0,P|411:354|352:344,1,122.175000466061,2|8,1:2|0:0,0:0:0:0:
395,281,40446,1,8,0:3:0:0:
201,318,40604,22,0,P|201:264|142:234,1,122.175000466061,2|0,1:3|1:2,0:0:0:0:
219,69,40920,1,8,1:2:0:0:
212,55,40999,1,2,0:0:0:0:
199,46,41077,2,0,P|160:65|153:88,1,61.0875002330303,2|2,0:0|0:0,0:0:0:0:
52,172,41235,22,0,B|128:158|123:91|123:91|120:87|120:87|89:77|56:58|56:58|75:83|74:109,1,237.562502265573,6|0,1:2|0:0,0:0:0:0:
72,104,41551,2,0,P|120:93|163:88,1,79.1875007551909,8|0,0:0|0:0,0:0:0:0:
406,0,41709,5,2,0:0:0:0:
349,54,41867,2,0,B|334:112|317:100|300:165,1,122.175000466061,0|2,1:0|1:2,0:0:0:0:
211,347,42183,6,0,P|246:353|281:362,1,61.0875002330303,8|0,1:2|0:0,0:0:0:0:
359,342,42340,2,0,B|329:348|304:368|304:368|320:295|385:263,1,183.262500699091,0|0,1:0|0:0,0:0:0:0:
414,185,42656,6,0,P|464:200|452:272,1,122.175000466061,2|8,1:2|0:0,0:0:0:0:
470,34,42972,1,2,0:0:0:0:
481,26,43051,1,8,0:3:0:0:
486,5,43130,37,2,1:2:0:0:
291,182,43288,1,0,1:0:0:0:
448,349,43446,1,8,1:2:0:0:
285,189,43604,6,0,P|248:186|206:177,1,61.0875002330303,2|0,0:3|0:0,0:0:0:0:
0,66,43761,2,0,B|106:38|150:138,1,183.262500699091,6|0,1:2|0:0,0:0:0:0:
207,92,44077,1,8,0:0:0:0:
49,337,44235,5,2,0:0:0:0:
15,267,44393,2,0,P|64:301|123:320,1,122.175000466061,2|0,1:2|1:0,0:0:0:0:
216,292,44709,6,0,P|251:297|290:310,1,61.0875002330303,8|0,1:2|0:0,0:0:0:0:
379,384,44867,37,2,0:0:0:0:
387,365,44946,1,8,1:3:0:0:
375,327,45025,6,0,P|310:334|276:384,1,122.175000466061,6|0,1:2|1:0,0:0:0:0:
468,205,45340,2,0,P|432:156|377:127,1,122.175000466061,8|2,0:0|1:2,0:0:0:0:
28,190,45656,69,8,1:2:0:0:
23,203,45893,5,8,1:3:0:0:
35,200,46130,69,0,1:0:0:0:
184,153,46288,22,0,P|148:145|94:140,1,67.8750025892259,6|0,1:2|1:0,0:0:0:0:
107,143,46524,1,8,1:2:0:0:
97,147,46603,21,2,1:2:0:0:
39,89,46761,1,8,1:2:0:0:
44,80,46919,1,2,1:2:0:0:
324,152,47235,54,0,P|360:144|414:139,1,67.8750025892259,2|0,1:2|1:0,0:0:0:0:
401,142,47471,1,8,1:2:0:0:
411,146,47550,21,2,1:2:0:0:
360,61,47708,1,8,1:2:0:0:
444,6,47866,1,2,1:2:0:0:
184,231,48182,37,10,0:0:0:0:
184,231,48498,6,0,P|148:239|94:244,1,67.8750025892259,4|0,1:2|1:0,0:0:0:0:
107,241,48734,1,8,1:2:0:0:
97,237,48813,21,2,1:2:0:0:
40,287,48971,1,8,1:2:0:0:
44,296,49129,1,2,1:2:0:0:
326,231,49445,54,0,P|362:239|416:244,1,67.8750025892259,2|0,1:2|1:0,0:0:0:0:
403,241,49681,1,8,1:2:0:0:
413,237,49760,21,2,1:2:0:0:
367,326,49918,1,8,1:2:0:0:
452,371,50076,1,2,1:2:0:0:
468,96,50393,5,2,1:0:0:0:
468,96,50709,54,0,P|395:72|335:20,2,153.850002934456,4|2|8,1:2|1:2|1:2,0:0:0:0:
259,144,51656,101,2,1:2:0:0:
104,82,51814,1,8,1:2:0:0:
249,145,51972,2,0,P|190:106|100:91,1,153.850002934456,2|8,1:2|1:2,0:0:0:0:
41,274,52603,1,2,1:2:0:0:
41,274,52761,1,8,0:3:0:0:
37,297,52840,1,8,1:3:0:0:
46,310,52919,70,0,P|119:286|179:234,2,153.850002934456,4|2|8,1:2|1:2|1:2,0:0:0:0:
255,336,53866,101,2,1:2:0:0:
408,279,54024,1,8,1:2:0:0:
264,343,54182,2,0,P|323:304|413:289,1,153.850002934456,2|8,1:2|1:2,0:0:0:0:
471,110,54814,1,2,1:2:0:0:
471,110,54972,1,8,0:3:0:0:
479,95,55051,1,8,1:3:0:0:
479,66,55130,22,0,L|489:24,6,36.2,6|2|2|2|2|10|2,1:2|1:2|1:2|1:3|3:2|3:2|1:2,0:0:0:0:
392,141,57182,1,8,0:3:0:0:
392,141,57261,1,8,1:3:0:0:
392,141,57340,6,0,L|382:99,6,36.2,6|2|2|2|10|2|2,1:2|1:2|1:2|1:3|1:3|1:3|1:2,0:0:0:0:
254,97,59551,70,0,L|272:17,2,72.4,6|2|2,1:2|1:2|1:2,0:0:0:0:
386,150,60498,2,0,L|368:70,2,72.4,2|2|10,1:3|3:2|3:2,0:0:0:0:
15,87,61445,1,10,3:0:0:0:
84,158,61603,1,8,0:3:0:0:
84,158,61682,1,8,1:3:0:0:
84,158,61761,6,0,L|110:52,1,108.599996685791,6|2,1:2|1:2,0:0:0:0:
433,154,62393,2,0,L|407:48,1,108.599996685791,2|2,1:2|1:2,0:0:0:0:
253,126,63024,2,0,L|260:17,1,108.599996685791,12|14,1:3|1:3,0:0:0:0:
13,197,63656,53,4,1:2:0:0:
56,235,63734,1,8,1:3:0:0:
114,233,63813,1,8,0:3:0:0:
156,192,63892,2,0,P|185:180|211:180,2,45.25,8|2|8,1:2|1:2|0:3,0:0:0:0:
246,248,64129,2,0,P|273:264|286:288,1,45.25,8|2,1:2|0:3,0:0:0:0:
307,382,64287,53,2,1:2:0:0:
341,352,64366,1,8,1:3:0:0:
385,344,64445,1,8,1:2:0:0:
425,363,64524,1,0,1:0:0:0:
430,374,64603,2,0,L|439:322,1,45.25,8|8,1:2|1:3,0:0:0:0:
512,336,64761,2,0,L|503:284,1,45.25,8|2,1:2|0:3,0:0:0:0:
381,244,64919,21,2,1:2:0:0:
416,202,64998,1,8,1:3:0:0:
425,148,65077,1,8,0:3:0:0:
406,97,65156,2,0,P|381:90|348:78,2,45.25,8|2|8,1:2|1:2|0:3,0:0:0:0:
512,13,65392,2,0,P|487:20|454:32,1,45.25,8|2,1:2|0:3,0:0:0:0:
316,160,65550,53,10,1:2:0:0:
261,182,65629,1,8,0:0:0:0:
202,186,65708,1,8,1:2:0:0:
147,164,65787,1,8,0:0:0:0:
109,118,65866,1,6,1:0:0:0:
175,0,66182,38,0,L|168:44,7,29.4124986536027,6|0|0|0|0|0|0|0,1:2|0:3|0:3|0:3|0:3|0:3|0:3|0:3,0:0:0:0:
98,7,66813,2,0,L|91:51,7,29.4124986536027,6|0|0|0|0|0|0|0,1:2|0:3|0:3|0:3|0:3|0:3|0:3|0:3,0:0:0:0:
350,105,67445,54,0,L|357:149,7,33.9375012946129,6|0|0|0|0|0|0|0,1:2|0:3|0:3|0:3|0:3|0:3|0:3|0:3,0:0:0:0:
427,112,68077,2,0,L|434:156,5,33.9375012946129,6|0|0|0|0|0,1:2|0:3|0:3|0:3|0:3|0:3,0:0:0:0:
169,229,68550,21,8,0:0:0:0:
161,246,68629,1,8,1:2:0:0:
171,255,68708,2,0,L|164:299,4,38.462500733614,12|8|8|8|8,1:2|1:3|0:3|0:0|1:2,0:0:0:0:
346,263,69182,5,10,1:2:0:0:
352,286,69261,1,8,1:3:0:0:
340,292,69340,2,0,L|347:336,3,42.9874988521099,4|8|2|8,1:2|1:3|3:0|0:0,0:0:0:0:
345,342,69656,1,12,1:2:0:0:
255,200,69813,69,8,0:0:0:0:
247,189,69892,1,8,1:2:0:0:
261,187,69971,1,4,1:2:0:0:
414,249,70129,70,0,L|477:258,1,49.7750015190125,10|8,1:2|0:0,0:0:0:0:
109,138,70287,2,0,L|46:129,1,49.7750015190125,4|8,1:2|1:3,0:0:0:0:
254,192,70445,1,12,1:2:0:0:
483,38,70761,70,0,L|485:23,8,9.05,0|0|0|0|2|2|2|2|2,0:0|0:0|0:0|0:0|0:0|0:0|0:0|0:0|0:3,0:0:0:0:
477,48,71156,1,2,0:3:0:0:
457,121,71234,22,0,B|487:101|527:112|527:112|496:101|479:76|479:76|477:79|477:79|410:101|395:178,1,271.5,6|0,1:2|0:0,0:0:0:0:
319,190,71550,2,0,P|332:232|386:252,1,90.5,8|0,0:0|0:0,0:0:0:0:
348,53,71708,85,2,0:0:0:0:
266,109,71866,2,0,P|205:121|121:144,1,135.750005178452,0|2,1:0|1:2,0:0:0:0:
0,97,72182,6,0,P|28:106|80:115,1,67.8750025892259,8|0,1:2|0:0,0:0:0:0:
224,198,72340,2,0,B|128:218|135:267|41:299,1,203.625007767678,2|0,1:2|0:0,0:0:0:0:
0,350,72656,6,0,P|32:367|67:391,1,67.8750025892259,2|0,1:2|0:0,0:0:0:0:
78,186,72813,2,0,B|85:252|119:255|135:329,1,135.750005178452,8|2,0:0|0:0,0:0:0:0:
217,353,73129,5,2,1:2:0:0:
451,237,73287,1,0,1:0:0:0:
334,297,73445,1,8,1:2:0:0:
451,246,73603,38,0,P|413:230|367:218,1,67.8750025892259,8|8,0:3|1:3,0:0:0:0:
295,99,73761,2,0,B|329:60|336:6|336:6|358:54|415:74,1,203.625007767678,4|0,1:2|0:0,0:0:0:0:
366,138,74077,1,8,0:0:0:0:
174,338,74234,5,8,0:3:0:0:
251,350,74392,2,0,P|192:318|174:248,1,135.750005178452,2|0,1:2|1:0,0:0:0:0:
112,60,74708,6,0,P|146:117|179:184,1,135.750005178452,8|2,1:2|1:2,0:0:0:0:
82,290,75024,1,2,0:3:0:0:
218,78,75182,5,0,1:0:0:0:
2,0,75340,1,8,0:0:0:0:
222,86,75498,1,2,1:2:0:0:
451,118,75656,21,10,0:0:0:0:
414,146,75734,1,8,0:0:0:0:
395,190,75813,1,8,0:0:0:0:
405,236,75892,1,8,0:0:0:0:
442,297,75971,69,10,1:2:0:0:
439,317,76050,1,8,1:2:0:0:
442,337,76129,1,8,1:2:0:0:
454,353,76208,1,8,1:2:0:0:
464,355,76287,22,0,P|427:340|377:315,1,79.1875007551909,6|0,1:2|0:0,0:0:0:0:
204,259,76445,2,0,B|186:274|186:274|115:282|54:324,1,158.375001510382,2|8,0:0|0:0,0:0:0:0:
58,170,76761,6,0,P|84:191|105:225,1,61.0875002330303,2|0,0:0|0:0,0:0:0:0:
139,329,76919,2,0,P|150:269|218:267,1,122.175000466061,0|2,1:0|1:2,0:0:0:0:
291,314,77234,1,8,1:2:0:0:
29,249,77392,1,0,1:0:0:0:
169,61,77550,5,6,0:0:0:0:
202,128,77708,2,0,P|153:91|93:73,1,122.175000466061,2|8,1:2|0:0,0:0:0:0:
400,88,78024,5,2,0:0:0:0:
363,1,78182,2,0,P|307:12|261:65,1,122.175000466061,0|2,1:0|1:2,0:0:0:0:
416,296,78498,1,8,1:2:0:0:
235,210,78656,38,0,P|258:235|270:268,1,61.0875002330303,2|0,1:2|1:0,0:0:0:0:
358,232,78813,2,0,B|286:262|274:339|274:339|294:357|306:380,1,183.262500699091,6|0,1:2|0:0,0:0:0:0:
281,369,79129,1,8,0:0:0:0:
92,233,79287,5,2,0:0:0:0:
58,170,79445,2,0,B|126:156|106:145|184:130,1,122.175000466061,0|2,1:0|1:2,0:0:0:0:
249,150,79761,1,8,1:2:0:0:
476,299,79919,6,0,P|397:313|359:225,1,183.262500699091,2|0,1:2|0:0,0:0:0:0:
437,178,80234,2,0,P|485:147|478:82,1,122.175000466061,2|8,1:2|0:0,0:0:0:0:
404,106,80550,1,8,0:3:0:0:
212,362,80708,6,0,P|183:354|137:344,1,61.0875002330303,2|0,1:3|0:0,0:0:0:0:
279,242,80866,2,0,P|250:250|204:260,1,61.0875002330303,0|0,1:0|0:0,0:0:0:0:
109,71,81024,5,8,1:2:0:0:
117,50,81103,1,2,0:0:0:0:
163,33,81182,1,2,0:0:0:0:
215,47,81261,1,2,0:0:0:0:
256,115,81340,22,0,B|287:55|227:24|227:24|256:96|163:161,1,237.562502265573,6|0,1:2|0:0,0:0:0:0:
60,234,81656,2,0,P|89:202|139:191,1,79.1875007551909,8|0,0:0|0:0,0:0:0:0:
282,364,81813,5,2,0:0:0:0:
312,297,81971,2,0,P|266:335|201:301,1,122.175000466061,0|2,1:0|1:2,0:0:0:0:
435,336,82287,6,0,P|413:308|381:285,1,61.0875002330303,8|0,1:2|0:0,0:0:0:0:
462,144,82445,2,0,B|499:196|450:244|450:244|400:249|388:291,1,183.262500699091,0|0,1:0|0:0,0:0:0:0:
263,244,82761,6,0,B|245:193|227:190|203:115,1,122.175000466061,2|8,1:2|0:0,0:0:0:0:
282,38,83077,1,2,0:0:0:0:
283,20,83156,1,8,0:3:0:0:
270,8,83234,37,2,1:2:0:0:
127,195,83392,1,0,1:0:0:0:
308,336,83550,1,8,1:2:0:0:
209,134,83708,6,0,P|197:102|189:60,1,61.0875002330303,2|0,0:3|0:0,0:0:0:0:
381,27,83866,2,0,P|317:89|272:176,1,183.262500699091,6|0,1:2|0:0,0:0:0:0:
122,109,84182,1,8,0:0:0:0:
509,306,84340,5,2,0:0:0:0:
468,361,84498,2,0,P|442:302|389:279,1,122.175000466061,2|0,1:2|1:0,0:0:0:0:
131,289,84813,6,0,L|147:230,1,61.0875002330303,8|0,1:2|0:0,0:0:0:0:
209,134,84971,2,0,L|225:75,1,61.0875002330303,8|8,3:0|1:3,0:0:0:0:
104,24,85129,37,6,1:2:0:0:
230,223,85287,1,0,1:0:0:0:
480,129,85445,2,0,P|419:141|354:173,1,122.175000466061,8|2,0:0|1:2,0:0:0:0:
128,298,85761,69,10,0:0:0:0:
90,249,85840,69,8,0:0:0:0:
121,196,85919,5,8,0:0:0:0:
67,167,85998,69,8,0:0:0:0:
89,110,86077,5,10,1:2:0:0:
66,89,86156,69,8,1:2:0:0:
75,66,86234,5,8,1:2:0:0:
61,54,86313,69,8,1:2:0:0:
66,38,86392,6,0,L|134:51,1,54.2999983428956,4|0,1:2|0:0,0:0:0:0:
293,156,86550,1,8,1:2:0:0:
420,133,86866,54,0,L|352:146,1,54.2999983428956,2|0,1:2|1:0,0:0:0:0:
193,251,87024,1,12,1:2:0:0:
60,222,87340,22,0,L|128:235,1,54.2999983428956,2|0,1:2|0:0,0:0:0:0:
287,340,87498,2,0,P|270:208|259:60,1,271.5,12|2,1:2|0:0,0:0:0:0:
