osu file format v14

[General]
AudioFilename: audio.mp3
AudioLeadIn: 0
PreviewTime: 215897
Countdown: 1
SampleSet: Soft
StackLeniency: 0.7
Mode: 0
LetterboxInBreaks: 0
WidescreenStoryboard: 0

[Editor]
Bookmarks: 209775
DistanceSpacing: 1.2
BeatDivisor: 16
GridSize: 4
TimelineZoom: 2.4

[Metadata]
Title:Scatmans World
TitleUnicode:Scatmans World
Artist:Scatman John
ArtistUnicode:Scatman John
Creator:Doomsday is Bad
Version:9 Plus 10
Source:
Tags:
BeatmapID:2146462
BeatmapSetID:1026370

[Difficulty]
HPDrainRate:2
CircleSize:4
OverallDifficulty:8
ApproachRate:9.6
SliderMultiplier:2.5
SliderTickRate:1

[Events]
//Background and Video events
0,0,"maxresdefault-865x487.jpg",0,0
//Break Periods
//Storyboard Layer 0 (Background)
//Storyboard Layer 1 (Fail)
//Storyboard Layer 2 (Pass)
//Storyboard Layer 3 (Foreground)
//Storyboard Layer 4 (Overlay)
//Storyboard Sound Samples

[TimingPoints]
51000,408.163265306122,4,2,0,70,1,0
54265,-200,4,2,0,70,0,0
54278,-200,4,2,0,5,0,0
54571,-200,4,2,0,70,0,0
54592,-200,4,2,0,5,0,0
54979,-200,4,2,0,70,0,0
55081,-200,4,2,0,5,0,0
55897,-100,4,2,0,70,0,1
86510,-80,4,2,0,70,0,1
86918,-200,4,2,0,70,0,1
87326,-100,4,2,0,70,0,1
94418,-100,4,2,0,5,0,1
95081,-100,4,2,0,70,0,0
122836,-100,4,2,0,70,0,1
148959,-100,4,2,0,70,0,0
175081,-200,4,2,0,70,0,0
175693,-400,4,2,0,70,0,0
176714,-66.6666666666667,4,2,0,70,0,1
194673,-133.333333333333,4,2,0,70,0,1
195081,-66.6666666666667,4,2,0,70,0,1
201816,-142.857142857143,4,2,0,70,0,1
202428,-66.6666666666667,4,2,0,70,0,1
202836,-133.333333333333,4,2,0,70,0,0
209367,-100,4,2,0,70,0,0
212632,-66.6666666666667,4,2,0,70,0,0
214469,-50,4,2,0,70,0,0
215897,-50,4,2,0,70,0,1
233857,-100,4,2,0,70,0,1
234265,-50,4,2,0,70,0,1
243448,-200,4,2,0,70,0,1
245285,-33.3333333333333,4,2,0,70,0,1
258346,-50,4,2,0,70,0,1
261612,-50,4,2,0,60,0,1
263244,-50,4,2,0,55,0,1
264877,-50,4,2,0,50,0,1
265693,-50,4,2,0,40,0,1
266510,-50,4,2,0,30,0,1
268142,-50,4,2,0,20,0,1
269367,-50,4,2,0,10,0,1
269775,-100,4,2,0,10,0,0

[Colours]
Combo1 : 255,255,0
Combo2 : 192,192,192
Combo3 : 128,128,128
Combo4 : 0,128,0

[HitObjects]
86,78,50999,6,0,L|76:208,1,125,2|0,0:0|0:0,0:0:0:0:
85,284,51306,1,0,0:0:0:0:
145,338,51408,2,0,L|284:353,1,125,2|0,0:0|0:0,0:0:0:0:
350,356,51714,2,0,P|386:320|359:231,1,125,2|0,0:0|0:0,0:0:0:0:
325,189,52020,1,2,0:0:0:0:
325,189,52224,5,2,0:0:0:0:
290,62,52326,1,0,0:0:0:0:
161,290,52530,1,2,0:0:0:0:
288,255,52632,1,0,0:0:0:0:
439,40,52836,2,0,L|450:141,1,62.5,2|0,0:0|0:0,0:0:0:0:
336,340,53142,5,0,0:0:0:0:
336,340,53244,2,0,L|325:239,1,62.5,2|0,0:0|0:0,0:0:0:0:
214,40,53551,1,0,0:0:0:0:
92,89,53653,1,2,0:0:0:0:
187,178,53755,1,0,0:0:0:0:
65,227,53857,1,2,0:0:0:0:
171,303,53959,1,0,0:0:0:0:
49,352,54061,1,2,0:0:0:0:
49,352,54265,6,0,P|73:323|71:286,1,62.5,2|0,0:0|0:0,0:0:0:0:
44,241,54571,6,0,P|47:178|89:155,1,93.75,2|0,0:0|0:0,0:0:0:0:
130,143,54979,6,0,P|183:131|101:71,1,218.75,10|0,0:0|0:0,0:0:0:0:
74,242,55897,6,0,P|92:318|130:331,1,125,12|0,0:0|0:0,0:0:0:0:
224,335,56204,2,0,B|281:335|281:335|294:332|294:332|356:332,1,125
466,332,56510,2,0,B|486:271|486:271|479:175,1,125
377,54,56918,1,0,0:0:0:0:
377,54,57122,1,2,0:0:0:0:
254,29,57224,1,2,0:0:0:0:
280,151,57326,1,2,0:0:0:0:
396,298,57530,6,0,P|463:293|461:215,1,125,8|0,0:0|0:0,0:0:0:0:
477,182,57836,2,0,L|383:75,1,125
350,44,58142,2,0,P|276:27|211:52,1,125
156,141,58551,1,0,0:0:0:0:
156,141,58755,1,2,0:0:0:0:
230,270,58857,1,2,0:0:0:0:
306,141,58959,1,2,0:0:0:0:
72,348,59163,6,0,P|67:268|80:217,1,125,8|0,0:0|0:0,0:0:0:0:
160,184,59469,2,0,L|160:320,1,125
244,348,59775,2,0,P|249:268|236:217,1,125
142,64,60183,1,0,0:0:0:0:
142,64,60387,1,2,0:0:0:0:
359,80,60489,1,2,0:0:0:0:
323,276,60591,1,2,0:0:0:0:
62,224,60795,6,0,P|132:251|144:222,1,125,8|0,0:0|0:0,0:0:0:0:
186,139,61102,2,0,P|226:99|267:138,1,125
313,220,61408,2,0,P|383:247|395:218,1,125
255,93,61816,1,0,0:0:0:0:
255,93,62020,1,2,0:0:0:0:
155,371,62122,1,2,0:0:0:0:
480,269,62224,1,2,0:0:0:0:
169,21,62428,6,0,P|158:162|159:163,1,125,8|0,0:0|0:0,0:0:0:0:
210,192,62734,2,0,B|255:236|255:236|315:182,1,125
373,132,63040,2,0,P|377:71|343:21,1,125
255,230,63448,1,0,0:0:0:0:
255,230,63653,1,2,0:0:0:0:
96,7,63755,1,2,0:0:0:0:
416,7,63857,1,2,0:0:0:0:
255,362,64061,6,0,P|179:319|180:269,1,125,8|0,0:0|0:0,0:0:0:0:
257,362,64367,2,0,P|333:319|332:269,1,125
256,168,64673,2,0,L|256:300,1,125
256,72,65081,1,0,0:0:0:0:
256,72,65285,1,2,0:0:0:0:
386,298,65387,1,2,0:0:0:0:
511,78,65489,1,2,0:0:0:0:
255,22,65693,6,0,P|179:65|180:115,1,125,8|0,0:0|0:0,0:0:0:0:
257,22,65999,2,0,P|333:65|332:115,1,125
256,216,66305,2,0,L|256:84,1,125
256,312,66713,1,0,0:0:0:0:
256,312,66917,1,2,0:0:0:0:
126,86,67019,1,2,0:0:0:0:
1,306,67121,1,2,0:0:0:0:
396,311,67326,6,0,P|433:239|432:164,1,125,8|0,0:0|0:0,0:0:0:0:
360,106,67632,2,0,L|353:245,1,125
308,308,67938,2,0,P|271:236|272:161,1,125
452,32,68346,1,8,0:0:0:0:
452,32,68551,1,8,0:0:0:0:
401,302,68653,1,0,0:0:0:0:
280,16,68755,1,8,0:0:0:0:
229,286,68857,1,0,0:0:0:0:
111,7,68959,6,0,P|103:80|120:138,2,125,12|0|0,0:0|0:0|0:0,0:0:0:0:
290,59,69571,1,0,0:0:0:0:
342,238,69775,2,0,P|381:132|424:105,1,125,2|0,0:0|0:0,0:0:0:0:
459,299,70183,2,0,P|353:260|326:217,1,125,2|0,0:0|0:0,0:0:0:0:
273,81,70591,5,0,0:0:0:0:
88,48,70795,1,0,0:0:0:0:
143,226,70999,2,0,P|185:304|240:355,1,125
302,330,71306,2,0,P|342:282|369:226,1,125
256,0,71714,2,0,L|256:99,1,62.5
255,249,72020,1,0,0:0:0:0:
116,122,72224,6,0,P|206:112|257:124,1,125,8|0,0:0|0:0,0:0:0:0:
369,253,72632,2,0,P|279:263|228:251,1,125
122,115,73040,2,0,P|87:186|127:298,1,187.5
197,331,73448,2,0,B|216:280|216:280|245:301|245:301|276:280|276:280|297:336,1,187.5
390,350,73857,6,0,P|462:324|423:163,1,250,8|0,0:0|0:0,0:0:0:0:
278,98,74469,1,0,0:0:0:0:
278,98,74571,1,0,0:0:0:0:
90,89,74775,1,0,0:0:0:0:
165,260,74979,1,0,0:0:0:0:
165,260,75081,2,0,P|229:313|292:329,1,125
454,346,75489,5,8,0:0:0:0:
433,101,75693,1,0,0:0:0:0:
317,272,75897,1,0,0:0:0:0:
296,27,76102,2,0,P|187:19|134:39,1,125
58,346,76510,1,0,0:0:0:0:
79,101,76714,1,0,0:0:0:0:
195,272,76918,1,0,0:0:0:0:
216,27,77122,6,0,P|325:19|378:39,1,125,8|0,0:0|0:0,0:0:0:0:
487,191,77530,1,0,0:0:0:0:
296,357,77734,2,0,P|187:365|134:345,1,125
28,191,78142,1,0,0:0:0:0:
230,32,78346,1,0,0:0:0:0:
257,273,78551,1,0,0:0:0:0:
406,82,78755,6,0,L|441:260,1,125,8|0,0:0|0:0,0:0:0:0:
256,363,79163,1,0,0:0:0:0:
106,82,79367,2,0,L|71:260,1,125
256,346,79775,1,0,0:0:0:0:
391,151,79979,1,0,0:0:0:0:
85,32,80183,6,0,P|40:115|85:226,1,187.5,2|0,0:0|0:0,0:0:0:0:
137,145,80591,2,0,P|202:87|257:175,1,187.5,2|0,0:0|0:0,0:0:0:0:
334,204,80999,2,0,P|355:114|310:34,1,187.5,2|0,0:0|0:0,0:0:0:0:
181,16,81408,1,8,0:0:0:0:
54,17,81510,1,0,0:0:0:0:
162,95,81612,1,8,0:0:0:0:
35,96,81714,1,0,0:0:0:0:
149,177,81816,1,8,0:0:0:0:
22,178,81918,1,0,0:0:0:0:
132,259,82020,6,0,P|219:286|264:261,1,125,12|0,0:0|0:0,0:0:0:0:
368,56,82428,1,0,0:0:0:0:
454,290,82632,1,0,0:0:0:0:
207,329,82836,2,0,P|162:266|163:125,1,187.5
197,42,83244,2,0,P|89:81|62:171,1,187.5
74,267,83653,5,8,0:0:0:0:
309,351,83857,1,0,0:0:0:0:
421,127,84061,2,0,L|451:276,1,125
382,357,84367,2,0,L|233:387,1,125
98,190,84775,1,0,0:0:0:0:
98,190,84877,1,0,0:0:0:0:
266,5,85081,1,0,0:0:0:0:
266,5,85285,6,0,P|356:57|386:108,1,125,8|0,0:0|0:0,0:0:0:0:
270,302,85693,2,0,P|180:250|150:199,1,125
302,22,86102,2,0,P|351:84|363:203,1,187.5
295,288,86510,6,0,B|229:224|229:224|223:174|223:174|155:85,1,234.375
55,32,86918,6,0,P|33:98|47:178,1,125,8|0,0:0|0:0,0:0:0:0:
197,344,87530,2,0,P|240:356|299:350,2,62.5
97,268,87836,1,0,0:0:0:0:
135,149,87938,1,0,0:0:0:0:
217,242,88040,1,0,0:0:0:0:
262,86,88142,1,8,0:0:0:0:
310,200,88244,1,0,0:0:0:0:
356,33,88346,1,0,0:0:0:0:
444,192,88448,1,0,0:0:0:0:
505,0,88551,6,0,P|461:16|395:20,1,62.5,8|0,0:0|0:0,0:0:0:0:
269,54,88755,2,0,P|313:38|379:34,1,62.5
512,111,88959,2,0,P|468:127|402:131,1,62.5
276,165,89163,1,0,0:0:0:0:
276,165,89571,2,0,P|276:247|263:262,1,62.5
204,319,89775,2,0,P|204:237|217:222,1,62.5
276,165,89979,2,0,P|358:165|373:178,1,62.5
400,262,90183,5,8,0:0:0:0:
291,324,90285,1,0,0:0:0:0:
284,199,90387,1,0,0:0:0:0:
131,234,90489,1,0,0:0:0:0:
176,117,90591,2,0,P|107:74|78:74,1,62.5
47,52,90795,2,0,P|23:149|36:230,2,125
301,25,91408,1,0,0:0:0:0:
490,193,91612,1,0,0:0:0:0:
324,342,91816,6,0,L|233:343,1,62.5,8|0,0:0|0:0,0:0:0:0:
113,341,92020,2,0,L|204:342,1,62.5
324,342,92224,2,0,L|233:343,1,62.5
113,341,92428,1,0,0:0:0:0:
42,26,92836,2,0,P|32:119|41:180,1,125
118,303,93244,2,0,B|223:322|276:232|276:232,1,187.5,2|0,0:0|0:0,0:0:0:0:
284,134,93653,2,0,P|280:227|384:298,1,187.5,2|0,0:0|0:0,0:0:0:0:
412,309,94061,2,0,P|320:295|234:376,1,187.5,2|0,0:0|0:0,0:0:0:0:
256,192,94392,12,0,94979,0:0:0:0:
42,31,95081,6,0,P|32:124|46:161,1,125,12|0,0:0|0:0,0:0:0:0:
138,231,95489,2,0,P|148:138|134:101,1,125
246,47,95897,2,0,P|297:95|416:62,2,187.5,2|0|0,0:0|0:0|0:0,0:0:0:0:
121,30,96714,5,8,0:0:0:0:
42,127,96918,1,0,0:0:0:0:
66,249,97122,1,0,0:0:0:0:
66,249,97224,2,0,B|115:317|204:342|204:342,1,125
224,333,97530,2,0,P|269:276|267:173,1,125,2|0,0:0|0:0,0:0:0:0:
243,105,97938,1,0,0:0:0:0:
365,131,98142,1,0,0:0:0:0:
427,377,98346,6,0,L|419:231,1,125,8|0,0:0|0:0,0:0:0:0:
333,161,98755,2,0,L|341:307,1,125
233,351,99163,1,0,0:0:0:0:
110,325,99367,1,0,0:0:0:0:
35,225,99571,1,2,0:0:0:0:
22,100,99775,1,0,0:0:0:0:
131,161,99979,6,0,P|206:189|277:179,1,125
298,147,100285,1,0,0:0:0:0:
298,147,100591,2,0,P|327:239|196:232,1,250,2|0,0:0|0:0,0:0:0:0:
108,174,101204,1,0,0:0:0:0:
132,51,101408,1,0,0:0:0:0:
219,139,101612,6,0,P|276:165|366:152,1,125,8|0,0:0|0:0,0:0:0:0:
479,85,102020,2,0,P|422:111|332:98,1,125
219,25,102428,2,0,P|276:51|366:38,2,125,2|0|0,0:0|0:0|0:0,0:0:0:0:
477,6,103040,1,0,0:0:0:0:
428,121,103244,5,8,0:0:0:0:
428,121,103448,2,0,P|396:239|274:229,2,250,2|0|0,0:0|0:0|0:0,0:0:0:0:
322,52,104469,2,0,P|225:31|179:38,1,125
98,105,104877,6,0,P|95:213|92:276,1,125,8|0,0:0|0:0,0:0:0:0:
178,322,105285,2,0,P|181:214|184:151,1,125
91,283,105693,2,0,P|199:286|262:289,1,125,2|0,0:0|0:0,0:0:0:0:
308,203,106101,2,0,P|200:200|137:197,1,125
86,118,106510,5,8,0:0:0:0:
158,16,106714,1,0,0:0:0:0:
229,118,106918,1,0,0:0:0:0:
142,207,107122,2,0,P|101:285|142:341,1,125,2|0,0:0|0:0,0:0:0:0:
230,352,107530,1,0,0:0:0:0:
353,331,107734,1,0,0:0:0:0:
441,242,107938,1,0,0:0:0:0:
441,117,108142,6,0,P|321:67|236:59,1,187.5,12|0,0:0|0:0,0:0:0:0:
201,60,108551,2,0,P|213:126|276:184,1,125,2|0,0:0|0:0,0:0:0:0:
71,267,108959,2,0,P|191:317|276:325,1,187.5
311,324,109368,2,0,P|299:258|236:200,1,125,2|0,0:0|0:0,0:0:0:0:
430,33,109775,6,0,L|430:199,2,125,8|2|0,0:0|0:0|0:0,0:0:0:0:
305,23,110387,1,0,0:0:0:0:
191,225,110591,2,0,P|195:132|112:50,1,187.5
45,128,110999,2,0,P|93:68|181:81,1,125,2|0,0:0|0:0,0:0:0:0:
262,66,111408,5,8,0:0:0:0:
368,131,111612,1,0,0:0:0:0:
253,180,111816,1,0,0:0:0:0:
359,245,112020,1,0,0:0:0:0:
241,287,112224,2,0,L|159:317,2,62.5,2|0|0,0:0|0:0|0:0,0:0:0:0:
300,269,112530,2,0,P|369:241|406:176,1,125
267,67,113040,6,0,P|153:90|125:121,1,125,8|0,0:0|0:0,0:0:0:0:
93,204,113448,1,0,0:0:0:0:
140,320,113653,1,0,0:0:0:0:
140,320,113755,1,0,0:0:0:0:
256,365,113959,1,0,0:0:0:0:
372,320,114163,1,0,0:0:0:0:
372,320,114265,1,2,0:0:0:0:
419,204,114469,1,0,0:0:0:0:
373,87,114673,6,0,P|389:167|357:231,1,125,8|0,0:0|0:0,0:0:0:0:
288,295,115081,1,0,0:0:0:0:
288,295,115285,2,0,P|204:318|136:285,2,125,0|2|0,0:0|0:0|0:0,0:0:0:0:
353,188,115897,2,0,L|377:113,1,62.5
192,29,116306,6,0,P|158:120|91:139,1,125,8|0,0:0|0:0,0:0:0:0:
26,186,116714,1,0,0:0:0:0:
76,300,116918,2,0,P|134:322|172:323,2,62.5,0|0|2,0:0|0:0|0:0,0:0:0:0:
43,179,117326,1,0,0:0:0:0:
99,67,117530,1,0,0:0:0:0:
152,179,117734,1,0,0:0:0:0:
225,78,117938,6,0,P|242:195|232:220,1,125,8|0,0:0|0:0,0:0:0:0:
117,217,118346,2,0,P|234:200|259:210,1,125
291,233,118653,2,0,P|408:250|433:240,1,125,2|0,0:0|0:0,0:0:0:0:
452,202,118959,1,0,0:0:0:0:
462,77,119163,2,0,P|376:31|326:36,1,125
226,36,119571,6,0,P|166:82|195:123,2,125,8|0|0,0:0|0:0|0:0,0:0:0:0:
339,88,120183,1,0,0:0:0:0:
409,191,120387,2,0,P|415:283|386:315,1,125,2|0,0:0|0:0,0:0:0:0:
278,341,120795,1,0,0:0:0:0:
156,313,120999,1,0,0:0:0:0:
28,191,121204,6,0,P|39:104|91:54,1,125
110,113,121510,2,0,P|163:144|216:96,1,125
258,73,121816,2,0,P|289:126|290:188,1,125,2|8,0:0|0:0,0:0:0:0:
211,285,122224,1,0,0:0:0:0:
73,52,122428,1,8,0:0:0:0:
301,285,122632,1,0,0:0:0:0:
439,52,122836,6,0,P|315:40|277:47,1,125,12|0,0:0|0:0,0:0:0:0:
209,106,123142,2,0,P|197:230|204:268,1,125
277,324,123448,2,0,P|401:336|439:329,1,125
197,188,123857,1,0,0:0:0:0:
197,188,124061,1,2,0:0:0:0:
390,29,124163,1,2,0:0:0:0:
454,269,124265,1,2,0:0:0:0:
60,329,124469,6,0,L|67:160,1,125,8|0,0:0|0:0,0:0:0:0:
112,88,124775,2,0,L|119:257,1,125
182,319,125081,2,0,B|207:260|207:260|189:150,1,125
27,16,125489,1,0,0:0:0:0:
27,16,125693,1,2,0:0:0:0:
255,56,125795,1,2,0:0:0:0:
485,16,125897,1,2,0:0:0:0:
387,336,126102,6,0,P|378:251|349:166,1,125,8|0,0:0|0:0,0:0:0:0:
244,231,126408,2,0,P|329:222|414:193,1,125
348,90,126714,2,0,P|357:175|386:260,1,125
367,212,127122,1,0,0:0:0:0:
367,212,127326,1,2,0:0:0:0:
162,44,127428,1,2,0:0:0:0:
156,297,127530,1,2,0:0:0:0:
424,57,127734,6,0,P|422:152|398:182,1,125,8|0,0:0|0:0,0:0:0:0:
316,259,128040,2,0,P|306:198|333:142,1,125
424,57,128346,2,0,P|422:152|398:182,1,125
255,373,128755,1,0,0:0:0:0:
255,373,128959,1,2,0:0:0:0:
92,91,129061,1,2,0:0:0:0:
420,91,129163,1,2,0:0:0:0:
31,251,129367,6,0,P|95:176|141:174,1,125,8|0,0:0|0:0,0:0:0:0:
51,90,129673,2,0,P|149:82|183:113,1,125
176,4,129979,2,0,P|260:54|270:98,1,125
329,315,130387,1,0,0:0:0:0:
329,315,130591,1,2,0:0:0:0:
426,84,130693,1,2,0:0:0:0:
164,41,130795,1,2,0:0:0:0:
89,357,130999,6,0,L|81:200,1,125,8|0,0:0|0:0,0:0:0:0:
70,35,131306,2,0,L|76:159,1,125
89,357,131612,2,0,B|86:293|86:293|84:279|84:279|81:200,1,125
221,25,132020,1,0,0:0:0:0:
221,25,132224,1,2,0:0:0:0:
264,347,132326,1,2,0:0:0:0:
474,104,132428,1,2,0:0:0:0:
391,359,132632,6,0,P|381:253|392:178,1,125,8|0,0:0|0:0,0:0:0:0:
486,195,132938,2,0,P|442:192|486:185,1,125
391,24,133244,2,0,P|381:86|382:149,1,125
208,330,133653,1,0,0:0:0:0:
208,330,133857,1,2,0:0:0:0:
174,29,133959,1,2,0:0:0:0:
208,330,134061,1,2,0:0:0:0:
336,89,134265,6,0,P|339:45|346:89,1,125,8|0,0:0|0:0,0:0:0:0:
422,195,134571,2,0,P|466:192|422:185,1,125
336,295,134877,2,0,P|339:339|346:295,1,125
130,61,135285,1,0,0:0:0:0:
130,61,135489,1,10,0:0:0:0:
434,223,135591,1,2,0:0:0:0:
80,238,135693,1,10,0:0:0:0:
370,50,135795,1,2,0:0:0:0:
246,373,135897,6,0,P|176:353|149:264,1,125,12|0,0:0|0:0,0:0:0:0:
147,123,136306,2,0,P|183:74|243:61,1,125,0|0,0:0|0:0,0:0:0:0:
432,143,136714,2,0,P|410:229|318:293,1,187.5
242,216,137122,2,0,P|320:225|304:72,1,250,0|8,0:0|0:0,0:0:0:0:
157,37,137734,5,0,0:0:0:0:
35,179,137938,1,0,0:0:0:0:
214,232,138142,1,0,0:0:0:0:
214,232,138244,1,0,0:0:0:0:
157,37,138448,1,0,0:0:0:0:
35,179,138652,1,0,0:0:0:0:
35,179,138755,1,0,0:0:0:0:
214,232,138958,1,0,0:0:0:0:
157,37,139163,6,0,P|254:40|317:73,1,125,8|0,0:0|0:0,0:0:0:0:
276,291,139571,2,0,L|289:136,1,125
470,45,139979,2,0,P|373:48|264:115,1,187.5
368,143,140387,2,0,P|337:221|228:207,1,187.5
184,150,140795,2,0,P|164:232|310:335,1,250,10|0,0:0|0:0,0:0:0:0:
437,247,141408,5,0,0:0:0:0:
437,247,141510,1,0,0:0:0:0:
293,126,141714,1,0,0:0:0:0:
119,83,141816,1,0,0:0:0:0:
259,188,141918,1,0,0:0:0:0:
85,145,142020,1,8,0:0:0:0:
227,251,142122,1,0,0:0:0:0:
53,208,142224,1,8,0:0:0:0:
195,318,142326,1,0,0:0:0:0:
21,275,142428,6,0,L|21:168,1,62.5,8|0,0:0|0:0,0:0:0:0:
81,59,142632,2,0,L|81:166,1,62.5
132,277,142836,2,0,L|132:170,1,62.5
192,61,143040,1,2,0:0:0:0:
192,61,143448,6,0,L|299:61,1,62.5
408,121,143652,2,0,L|301:121,1,62.5
190,172,143856,2,0,L|297:172,1,62.5
406,232,144061,6,0,L|407:312,1,62.5,8|0,0:0|0:0,0:0:0:0:
216,342,144265,2,0,L|136:343,1,62.5
106,152,144469,2,0,L|105:72,1,62.5
296,42,144673,1,2,0:0:0:0:
293,45,145081,2,0,L|201:45,1,62.5
19,115,145285,2,0,L|111:115,1,62.5
288,191,145489,2,0,L|196:191,1,62.5
14,261,145693,6,0,L|106:261,1,62.5,8|0,0:0|0:0,0:0:0:0:
288,263,145897,2,0,L|196:263,1,62.5
14,261,146102,2,0,L|106:261,1,62.5
288,263,146306,1,2,0:0:0:0:
288,263,146714,2,0,L|390:264,1,62.5
444,258,146918,2,0,P|480:176|470:158,1,62.5
483,118,147121,6,0,B|378:99|325:189|325:189,1,187.5,2|0,0:0|0:0,0:0:0:0:
317,287,147530,2,0,P|321:194|217:123,1,187.5,2|0,0:0|0:0,0:0:0:0:
189,112,147938,2,0,P|281:126|367:45,1,187.5,2|0,0:0|0:0,0:0:0:0:
423,10,148346,1,8,0:0:0:0:
459,87,148448,1,0,0:0:0:0:
479,178,148551,1,8,0:0:0:0:
444,287,148653,1,0,0:0:0:0:
336,355,148755,1,8,0:0:0:0:
176,368,148857,1,0,0:0:0:0:
11,346,148959,6,0,L|18:221,1,125,12|0,0:0|0:0,0:0:0:0:
74,109,149367,2,0,L|175:106,2,62.5
18,221,149775,2,0,P|51:299|99:299,1,125,2|0,0:0|0:0,0:0:0:0:
207,299,150183,2,0,P|262:275|270:216,1,125
256,92,150591,5,8,0:0:0:0:
364,30,150795,1,0,0:0:0:0:
256,92,150999,1,0,0:0:0:0:
148,30,151204,2,0,P|86:71|77:166,2,125,0|2|0,0:0|0:0|0:0,0:0:0:0:
145,154,151816,1,2,0:0:0:0:
196,267,152020,1,0,0:0:0:0:
316,267,152224,5,8,0:0:0:0:
367,154,152428,1,0,0:0:0:0:
256,40,152632,2,0,L|256:168,1,125,2|0,0:0|0:0,0:0:0:0:
256,344,153040,2,0,L|256:216,1,125
145,154,153448,2,0,P|145:200|211:264,1,125
249,287,153755,1,0,0:0:0:0:
304,314,153857,6,0,P|350:314|414:248,1,125,8|0,0:0|0:0,0:0:0:0:
370,145,154265,1,0,0:0:0:0:
258,88,154469,1,0,0:0:0:0:
141,133,154673,2,0,P|123:221|120:267,2,125,2|0|0,0:0|0:0|0:0,0:0:0:0:
254,105,155285,1,0,0:0:0:0:
375,133,155489,6,0,P|393:221|396:267,1,125,8|0,0:0|0:0,0:0:0:0:
314,350,155897,2,0,P|296:262|293:216,1,125
131,133,156306,2,0,P|113:221|110:267,1,125,2|0,0:0|0:0,0:0:0:0:
195,290,156714,2,0,P|208:233|213:184,2,62.5
152,335,157020,1,0,0:0:0:0:
98,303,157122,6,0,P|76:227|76:148,1,125,8|0,0:0|0:0,0:0:0:0:
127,68,157530,1,0,0:0:0:0:
256,142,157734,1,0,0:0:0:0:
385,68,157938,2,0,P|430:156|404:219,2,125,2|0|0,0:0|0:0|0:0,0:0:0:0:
325,218,158551,1,0,0:0:0:0:
204,251,158755,6,0,P|181:178|204:102,1,125,8|0,0:0|0:0,0:0:0:0:
376,169,159163,2,0,L|245:190,1,125
127,191,159571,1,0,0:0:0:0:
45,96,159775,1,0,0:0:0:0:
127,191,159979,1,2,0:0:0:0:
2,191,160183,1,0,0:0:0:0:
126,190,160387,6,0,P|199:182|187:123,1,125,8|0,0:0|0:0,0:0:0:0:
160,25,160795,2,0,P|246:25|280:79,1,125
290,172,161204,2,0,P|335:261|363:284,1,125,2|0,0:0|0:0,0:0:0:0:
445,193,161612,1,0,0:0:0:0:
429,68,161816,1,0,0:0:0:0:
312,22,162020,6,0,L|151:25,1,125,12|0,0:0|0:0,0:0:0:0:
11,120,162428,2,0,L|172:117,1,125
187,310,162836,2,0,L|193:172,2,125,0|0|2,0:0|0:0|0:0,0:0:0:0:
379,256,163448,1,0,0:0:0:0:
325,62,163653,6,0,L|296:213,1,125,8|0,0:0|0:0,0:0:0:0:
134,295,164061,2,0,L|163:144,1,125
339,89,164469,2,0,P|195:57|194:58,2,125,2|0|0,0:0|0:0|0:0,0:0:0:0:
250,268,165081,1,0,0:0:0:0:
51,246,165285,6,0,B|33:176|38:150|38:150,2,62.5,8|0|0,0:0|0:0|0:0,0:0:0:0:
238,316,165693,2,0,P|302:308|362:276,1,125
447,102,166102,1,0,0:0:0:0:
256,41,166306,1,0,0:0:0:0:
70,115,166510,1,2,0:0:0:0:
51,314,166714,1,0,0:0:0:0:
246,354,166918,6,0,P|337:359|397:220,1,250,8|0,0:0|0:0,0:0:0:0:
304,56,167530,1,0,0:0:0:0:
304,56,167632,1,0,0:0:0:0:
104,37,167836,1,0,0:0:0:0:
166,226,168040,1,0,0:0:0:0:
166,226,168142,2,0,P|212:288|300:311,1,125,2|0,0:0|0:0,0:0:0:0:
349,130,168551,6,0,L|362:268,1,125,8|0,0:0|0:0,0:0:0:0:
436,69,168959,2,0,L|447:193,1,125
439,293,169265,2,0,L|378:351,1,62.5
194,345,169571,1,0,0:0:0:0:
61,195,169775,2,0,L|60:63,1,125,2|0,0:0|0:0,0:0:0:0:
154,37,170081,1,0,0:0:0:0:
254,21,170183,6,0,P|334:15|358:22,2,62.5,8|0|0,0:0|0:0|0:0,0:0:0:0:
155,38,170489,2,0,P|137:126|161:206,1,125
211,231,170795,2,0,P|299:249|379:225,2,125,0|2|0,0:0|0:0|0:0,0:0:0:0:
301,51,171408,1,0,0:0:0:0:
439,195,171612,1,0,0:0:0:0:
293,332,171816,6,0,P|292:260|325:211,1,125,8|0,0:0|0:0,0:0:0:0:
471,87,172224,1,0,0:0:0:0:
471,87,172428,2,0,B|482:162|482:162|459:264,1,125
317,338,172836,1,0,0:0:0:0:
117,328,173040,2,0,P|81:261|80:251,2,62.5
321,338,173448,6,0,P|419:305|393:158,1,250,8|0,0:0|0:0,0:0:0:0:
252,69,174061,1,0,0:0:0:0:
52,80,174265,2,0,L|46:260,1,125,2|0,0:0|0:0,0:0:0:0:
187,347,174673,2,0,L|182:222,1,125
250,59,175081,6,0,P|287:56|321:69,1,62.5
373,124,175387,2,0,P|376:161|363:195,1,62.5
303,238,175693,6,0,P|260:262|212:258,1,93.75
64,135,176510,5,0,0:0:0:0:
256,46,176714,6,0,P|350:61|412:130,1,187.500007152558,12|0,0:0|0:0,0:0:0:0:
412,219,177020,2,0,B|318:227|318:227|221:167,1,187.500007152558
167,117,177326,2,0,B|122:73|122:73|105:143|57:250,1,187.500007152558
192,342,177734,1,0,0:0:0:0:
192,342,177938,1,2,0:0:0:0:
319,90,178040,1,2,0:0:0:0:
470,336,178142,1,2,0:0:0:0:
256,100,178346,6,0,L|256:292,1,187.500007152558,8|0,0:0|0:0,0:0:0:0:
108,350,178653,2,0,P|126:250|194:269,1,187.500007152558
324,261,178959,2,0,P|408:265|404:350,1,187.500007152558
94,273,179367,1,0,0:0:0:0:
94,273,179571,1,2,0:0:0:0:
255,59,179673,1,2,0:0:0:0:
418,273,179775,1,2,0:0:0:0:
195,44,179979,6,0,P|184:160|153:228,1,187.500007152558,8|0,0:0|0:0,0:0:0:0:
10,290,180285,2,0,P|126:279|194:248,1,187.500007152558
207,92,180591,2,0,P|241:178|246:271,1,187.500007152558
474,350,180999,1,0,0:0:0:0:
474,350,181204,1,2,0:0:0:0:
255,76,181306,1,2,0:0:0:0:
38,350,181408,1,2,0:0:0:0:
153,53,181612,6,0,B|163:156|163:156|255:183,1,187.500007152558,8|0,0:0|0:0,0:0:0:0:
353,202,181918,2,0,B|433:225|433:225|443:328,1,187.500007152558
341,376,182224,2,0,P|247:358|194:268,1,187.500007152558
124,73,182632,1,0,0:0:0:0:
124,73,182836,1,2,0:0:0:0:
497,191,182938,1,2,0:0:0:0:
124,311,183040,1,2,0:0:0:0:
412,31,183244,6,0,L|402:224,1,187.500007152558,8|0,0:0|0:0,0:0:0:0:
331,307,183551,2,0,L|341:114,1,187.500007152558
282,23,183857,2,0,L|272:216,1,187.500007152558
82,331,184265,1,0,0:0:0:0:
82,331,184469,1,2,0:0:0:0:
132,36,184571,1,2,0:0:0:0:
82,331,184673,1,2,0:0:0:0:
305,307,184877,6,0,P|412:275|467:196,1,187.500007152558,8|0,0:0|0:0,0:0:0:0:
358,165,185183,2,0,P|326:58|247:3,1,187.500007152558
255,123,185489,2,0,P|148:155|93:234,1,187.500007152558
403,318,185897,1,0,0:0:0:0:
403,318,186102,1,2,0:0:0:0:
114,248,186204,1,2,0:0:0:0:
206,17,186306,1,2,0:0:0:0:
449,309,186510,6,0,P|451:163|378:142,1,187.500007152558,8|0,0:0|0:0,0:0:0:0:
341,87,186816,2,0,P|256:53|158:90,1,187.500007152558
77,151,187122,2,0,P|27:226|63:309,1,187.500007152558
285,343,187530,1,0,0:0:0:0:
285,343,187734,1,2,0:0:0:0:
105,56,187836,1,2,0:0:0:0:
125,354,187938,1,2,0:0:0:0:
432,147,188142,6,0,P|402:62|264:41,1,187.500007152558,8|0,0:0|0:0,0:0:0:0:
185,29,188448,2,0,P|100:63|70:149,1,187.500007152558
95,253,188755,2,0,B|187:278|187:278|332:278,1,187.500007152558
405,139,189163,1,0,0:0:0:0:
405,139,189367,1,10,0:0:0:0:
25,95,189469,1,0,0:0:0:0:
395,275,189571,1,10,0:0:0:0:
15,231,189673,1,0,0:0:0:0:
379,380,189775,6,0,P|468:335|468:215,1,187.500007152558,12|0,0:0|0:0,0:0:0:0:
393,91,190183,2,0,P|305:114|268:196,1,187.500007152558
281,383,190591,2,0,P|264:287|96:175,1,281.250010728836
33,197,190999,2,0,P|112:141|310:180,1,281.250010728836
356,227,191408,5,8,0:0:0:0:
441,60,191612,1,0,0:0:0:0:
253,56,191816,2,0,P|191:141|153:86,1,187.500007152558,2|0,0:0|0:0,0:0:0:0:
106,29,192122,1,0,0:0:0:0:
55,209,192326,1,0,0:0:0:0:
193,335,192530,1,0,0:0:0:0:
193,335,192632,2,0,P|326:343|381:331,1,187.500007152558,2|0,0:0|0:0,0:0:0:0:
431,152,193040,6,0,B|401:104|387:66|387:66|332:55|252:22,1,187.500007152558,8|0,0:0|0:0,0:0:0:0:
114,66,193448,2,0,B|128:98|139:153|139:153|177:167|225:197,1,187.500007152558
409,155,193857,2,0,P|399:272|277:220,1,281.250010728836
239,146,194265,2,0,P|125:191|109:70,1,281.250010728836,2|0,0:0|0:0,0:0:0:0:
202,35,194673,6,0,P|287:38|379:117,1,187.500007152558,8|0,0:0|0:0,0:0:0:0:
419,277,195285,1,0,0:0:0:0:
419,277,195387,2,0,P|316:304|226:286,1,187.500007152558
41,194,195693,1,2,0:0:0:0:
249,121,195795,1,0,0:0:0:0:
41,194,195897,1,8,0:0:0:0:
212,56,195999,1,0,0:0:0:0:
41,194,196102,1,8,0:0:0:0:
151,13,196204,1,0,0:0:0:0:
41,194,196306,6,0,L|96:302,1,93.7500035762788,8|0,0:0|0:0,0:0:0:0:
256,384,196510,2,0,L|364:329,1,93.7500035762788
471,190,196714,2,0,L|416:82,1,93.7500035762788
255,1,196918,1,2,0:0:0:0:
256,0,197326,2,0,L|256:96,1,93.7500035762788
127,127,197530,2,0,L|127:223,1,93.7500035762788
385,242,197734,2,0,L|385:338,1,93.7500035762788
397,347,197938,6,0,L|397:253,1,93.7500035762788,8|0,0:0|0:0,0:0:0:0:
116,215,198142,2,0,L|116:121,1,93.7500035762788
256,93,198346,2,0,L|256:0,1,93.7500035762788
256,296,198551,1,0,0:0:0:0:
256,296,198959,2,0,L|356:296,1,93.7500035762788
72,192,199163,2,0,L|165:192,1,93.7500035762788
349,88,199367,2,0,L|255:88,1,93.7500035762788
72,192,199571,6,0,L|72:296,1,93.7500035762788,8|0,0:0|0:0,0:0:0:0:
256,376,199775,2,0,L|360:376,1,93.7500035762788
440,192,199979,2,0,L|440:88,1,93.7500035762788
256,8,200183,1,2,0:0:0:0:
256,12,200591,2,0,P|158:21|98:99,1,187.500007152558
143,267,200999,6,0,P|276:316|376:184,1,281.250010728836,2|0,0:0|0:0,0:0:0:0:
298,144,201408,2,0,P|259:255|183:165,1,281.250010728836,2|0,0:0|0:0,0:0:0:0:
211,17,201816,6,0,L|254:221,1,174.999994659424,2|0,0:0|0:0,0:0:0:0:
268,282,202326,1,0,0:0:0:0:
268,282,202428,6,0,P|348:322|369:222,1,187.500007152558
356,47,202836,6,0,L|277:47,1,46.8750017881394,12|0,0:0|0:0,0:0:0:0:
191,47,203040,2,0,L|270:47,1,46.8750017881394
356,47,203244,2,0,L|277:47,1,46.8750017881394
191,47,203448,2,0,L|270:47,2,46.8750017881394
72,48,203755,2,0,L|72:120,1,46.8750017881394
72,212,203959,1,0,0:0:0:0:
133,311,204061,1,0,0:0:0:0:
256,355,204163,1,0,0:0:0:0:
379,311,204265,1,0,0:0:0:0:
440,212,204367,1,0,0:0:0:0:
390,105,204469,6,0,L|363:140,1,23.4375008940697,8|0,0:0|0:0,0:0:0:0:
122,105,204622,2,0,L|149:140,1,23.4375008940697
255,360,204826,2,0,L|255:320,1,23.4375008940697
256,86,205030,2,0,L|256:126,1,23.4375008940697
458,41,205489,5,0,0:0:0:0:
458,41,205693,2,0,L|446:111,1,46.8750017881394
361,212,205897,2,0,L|373:142,1,46.8750017881394
271,32,206102,6,0,L|211:31,1,46.8750017881394,8|0,0:0|0:0,0:0:0:0:
73,210,206408,1,0,0:0:0:0:
73,210,206612,2,0,L|90:294,1,46.8750017881394
462,32,207122,1,0,0:0:0:0:
462,32,207326,2,0,L|457:104,1,46.8750017881394
252,41,207530,2,0,L|324:60,1,46.8750017881394
445,136,207734,5,10,0:0:0:0:
444,167,207802,1,2,0:0:0:0:
438,197,207870,1,2,0:0:0:0:
426,226,207938,5,2,0:0:0:0:
409,252,208006,1,2,0:0:0:0:
387,275,208074,1,2,0:0:0:0:
361,292,208142,5,2,0:0:0:0:
333,305,208210,1,2,0:0:0:0:
303,312,208278,1,2,0:0:0:0:
271,314,208346,2,0,L|176:250,1,93.7500035762788,2|0,0:0|0:0,0:0:0:0:
32,28,208959,6,0,L|32:100,1,46.8750017881394
93,220,209163,2,0,L|93:148,1,46.8750017881394
215,34,209367,6,0,P|282:32|298:34,1,62.5,8|0,0:0|0:0,0:0:0:0:
412,109,209571,1,0,0:0:0:0:
412,109,209673,1,0,0:0:0:0:
216,104,209775,2,0,L|296:104,1,62.5,8|0,0:0|0:0,0:0:0:0:
412,109,209979,1,0,0:0:0:0:
412,109,210081,1,0,0:0:0:0:
280,197,210183,2,0,P|249:198|218:195,1,62.5,8|0,0:0|0:0,0:0:0:0:
105,86,210387,6,0,L|77:157,1,62.5,2|0,0:0|0:0,0:0:0:0:
105,86,210591,2,0,L|77:157,1,62.5,2|0,0:0|0:0,0:0:0:0:
105,86,210795,2,0,L|77:157,1,62.5,2|0,0:0|0:0,0:0:0:0:
105,86,210999,6,0,L|77:157,1,62.5,10|0,0:0|0:0,0:0:0:0:
150,343,211204,2,0,L|221:371,1,62.5,2|0,0:0|0:0,0:0:0:0:
407,298,211408,2,0,L|435:227,1,62.5,2|0,0:0|0:0,0:0:0:0:
362,41,211612,2,0,L|291:13,1,62.5,2|0,0:0|0:0,0:0:0:0:
105,86,211816,6,0,L|77:157,1,62.5,2|0,0:0|0:0,0:0:0:0:
150,343,212021,2,0,L|221:371,1,62.5,2|0,0:0|0:0,0:0:0:0:
407,298,212224,1,10,0:0:0:0:
420,39,212632,6,0,L|405:177,1,93.7500035762788,8|0,0:0|0:0,0:0:0:0:
294,335,212836,1,0,0:0:0:0:
294,335,212938,1,0,0:0:0:0:
92,39,213040,6,0,L|107:177,1,93.7500035762788,8|0,0:0|0:0,0:0:0:0:
218,335,213244,1,0,0:0:0:0:
218,335,213346,1,0,0:0:0:0:
477,135,213448,6,0,P|435:103|313:110,1,93.7500035762788,8|0,0:0|0:0,0:0:0:0:
100,141,213653,1,0,0:0:0:0:
100,141,213755,1,0,0:0:0:0:
477,249,213857,6,0,P|435:281|313:274,1,93.7500035762788,8|0,0:0|0:0,0:0:0:0:
76,54,214469,6,0,P|77:210|132:219,1,125
132,239,214673,2,0,P|131:83|76:74,1,125,8|0,0:0|0:0,0:0:0:0:
171,6,214877,2,0,P|248:295|411:28,1,750,2|0,0:0|0:0,0:0:0:0:
54,103,215693,1,2,0:0:0:0:
287,358,215897,6,0,P|436:277|456:179,1,250,12|0,0:0|0:0,0:0:0:0:
390,101,216204,2,0,P|241:182|221:280,1,250
205,373,216510,2,0,P|174:222|41:182,1,250
294,26,216918,1,0,0:0:0:0:
294,26,217122,1,2,0:0:0:0:
254,381,217224,1,2,0:0:0:0:
218,26,217326,1,2,0:0:0:0:
85,320,217530,6,0,L|91:53,1,250,8|0,0:0|0:0,0:0:0:0:
199,8,217836,2,0,L|193:275,1,250
85,320,218142,2,0,B|86:204|86:204|90:181|90:181|93:52,1,250
243,271,218551,1,0,0:0:0:0:
243,271,218755,1,2,0:0:0:0:
503,72,218857,1,2,0:0:0:0:
228,0,218959,1,2,0:0:0:0:
160,329,219163,6,0,B|65:244|65:244|55:117,1,250,8|0,0:0|0:0,0:0:0:0:
111,10,219469,2,0,B|206:95|206:95|216:222,1,250
264,332,219775,2,0,B|359:247|359:247|369:120,1,250
133,40,220183,1,0,0:0:0:0:
133,40,220387,1,2,0:0:0:0:
255,382,220489,1,2,0:0:0:0:
379,40,220591,1,2,0:0:0:0:
42,286,220795,6,0,P|59:202|67:291,1,250,8|0,0:0|0:0,0:0:0:0:
169,369,221102,2,0,B|255:275|255:275|354:378,1,250
470,286,221408,2,0,P|453:202|445:291,1,250
254,29,221816,1,0,0:0:0:0:
254,29,222020,1,2,0:0:0:0:
78,346,222122,1,2,0:0:0:0:
434,346,222224,1,2,0:0:0:0:
485,37,222428,6,0,P|352:58|214:20,1,250,8|0,0:0|0:0,0:0:0:0:
20,124,222734,2,0,L|284:124,1,250
484,230,223040,2,0,P|351:209|213:247,1,250
25,37,223448,1,0,0:0:0:0:
25,37,223653,1,2,0:0:0:0:
256,302,223755,1,2,0:0:0:0:
487,37,223857,1,2,0:0:0:0:
178,30,224061,6,0,B|172:172|172:172|57:221,1,250,8|0,0:0|0:0,0:0:0:0:
219,350,224367,2,0,B|225:208|225:208|340:159,1,250
424,239,224673,2,0,B|282:233|282:233|233:118,1,250
17,19,225081,1,0,0:0:0:0:
17,19,225285,1,2,0:0:0:0:
256,192,225387,1,2,0:0:0:0:
495,19,225489,1,2,0:0:0:0:
408,253,225693,6,0,B|282:281|282:281|358:163,1,250,8|0,0:0|0:0,0:0:0:0:
209,342,225999,2,0,B|181:216|181:216|299:292,1,250
121,143,226306,2,0,B|247:115|247:115|171:233,1,250
399,339,226714,1,0,0:0:0:0:
399,339,226918,1,2,0:0:0:0:
255,1,227020,1,2,0:0:0:0:
113,339,227122,1,2,0:0:0:0:
375,74,227326,6,0,P|245:156|167:77,1,250,8|0,0:0|0:0,0:0:0:0:
112,8,227632,2,0,P|183:146|111:227,1,250
30,150,227938,2,0,P|161:217|254:106,1,250
421,27,228244,1,0,0:0:0:0:
386,312,228346,1,8,0:0:0:0:
319,19,228448,1,0,0:0:0:0:
285,318,228550,1,8,0:0:0:0:
214,12,228653,1,0,0:0:0:0:
181,342,228755,1,8,0:0:0:0:
110,5,228857,1,0,0:0:0:0:
65,368,228959,6,0,P|55:235|139:151,1,250,12|0,0:0|0:0,0:0:0:0:
382,155,229367,2,0,P|461:247|447:368,1,250
74,312,229775,2,0,P|83:186|288:58,1,375
394,98,230183,2,0,P|303:192|288:23,1,375,2|0,0:0|0:0,0:0:0:0:
396,17,230591,5,8,0:0:0:0:
455,259,230795,1,0,0:0:0:0:
220,173,230999,1,0,0:0:0:0:
396,17,231204,1,2,0:0:0:0:
396,17,231306,1,0,0:0:0:0:
455,259,231510,1,0,0:0:0:0:
220,173,231714,1,0,0:0:0:0:
220,173,231816,2,0,P|172:47|266:41,1,250,2|0,0:0|0:0,0:0:0:0:
429,198,232224,6,0,P|368:308|309:241,1,250,8|0,0:0|0:0,0:0:0:0:
82,198,232632,2,0,P|108:302|202:249,1,250
386,80,233040,2,0,P|420:202|206:296,1,375
120,255,233448,2,0,P|107:81|272:25,1,375,2|0,0:0|0:0,0:0:0:0:
358,69,233857,6,0,P|345:172|425:89,1,250,8|0,0:0|0:0,0:0:0:0:
206,30,234469,6,0,P|155:164|168:192,2,125
329,10,234775,1,0,0:0:0:0:
264,259,234877,1,2,0:0:0:0:
329,10,234979,1,0,0:0:0:0:
320,269,235081,1,8,0:0:0:0:
329,10,235183,1,0,0:0:0:0:
375,259,235285,1,8,0:0:0:0:
329,10,235387,1,0,0:0:0:0:
429,242,235489,6,0,P|441:306|363:354,1,125,8|0,0:0|0:0,0:0:0:0:
206,365,235693,2,0,P|142:377|94:299,1,125
83,142,235897,2,0,P|71:78|149:30,1,125
306,19,236102,1,2,0:0:0:0:
306,19,236510,2,0,L|304:152,1,125
206,365,236714,2,0,L|208:232,1,125,2|0,0:0|0:0,0:0:0:0:
356,20,236918,2,0,L|354:153,1,125
156,364,237122,6,0,L|158:231,1,125,8|0,0:0|0:0,0:0:0:0:
84,10,237326,2,0,L|82:143,1,125
356,364,237530,2,0,L|354:231,1,125
428,10,237734,1,2,0:0:0:0:
428,10,238142,2,0,L|272:17,1,125
84,10,238346,2,0,L|240:17,1,125,2|0,0:0|0:0,0:0:0:0:
500,192,238551,2,0,L|368:192,1,125
12,192,238755,6,0,L|144:192,1,125,8|0,0:0|0:0,0:0:0:0:
435,344,238959,2,0,B|474:217|431:157|430:157,1,125
77,344,239163,2,0,B|38:217|81:157|82:157,1,125
256,26,239367,1,2,0:0:0:0:
256,26,239775,2,0,L|113:23,1,125
256,26,239979,2,0,L|399:23,1,125
459,120,240183,6,0,P|437:267|276:185,1,375,2|0,0:0|0:0,0:0:0:0:
279,72,240591,2,0,P|420:-7|460:149,1,375,2|0,0:0|0:0,0:0:0:0:
401,259,240999,2,0,P|257:334|68:144,1,375,2|0,0:0|0:0,0:0:0:0:
55,111,241408,1,0,0:0:0:0:
129,8,241510,1,0,0:0:0:0:
256,6,241612,1,0,0:0:0:0:
383,8,241714,1,0,0:0:0:0:
457,111,241816,1,0,0:0:0:0:
457,111,242020,6,0,L|417:251,1,125,8|0,0:0|0:0,0:0:0:0:
55,273,242326,2,0,L|95:133,1,125
464,27,242836,2,0,L|452:174,1,125
349,349,243040,2,0,L|361:202,1,125
288,20,243244,2,0,L|276:167,1,125,8|0,0:0|0:0,0:0:0:0:
173,341,243448,6,0,P|284:60|327:70,1,437.5,2|0,0:0|0:0,0:0:0:0:
422,261,245081,1,0,0:0:0:0:
98,348,245285,6,0,P|46:125|167:35,1,375.000014305115,12|0,0:0|0:0,0:0:0:0:
414,348,245693,2,0,P|466:125|345:35,1,375.000014305115
121,346,246102,2,0,P|52:200|192:251,1,375.000014305115
250,320,246408,1,0,0:0:0:0:
353,364,246510,1,2,0:0:0:0:
448,304,246612,1,0,0:0:0:0:
477,195,246714,1,0,0:0:0:0:
445,87,246816,1,0,0:0:0:0:
355,19,246918,6,0,P|161:89|191:47,2,562.500021457673,8|0|0,0:0|0:0|0:0,0:0:0:0:
36,193,247938,1,0,0:0:0:0:
36,193,248142,1,2,0:0:0:0:
462,353,248244,1,2,0:0:0:0:
462,31,248346,1,2,0:0:0:0:
36,193,248448,1,2,0:0:0:0:
462,353,248551,6,0,P|484:147|314:74,1,375.000014305115,8|0,0:0|0:0,0:0:0:0:
110,347,248959,2,0,P|147:177|185:214,1,375.000014305115
373,91,249367,2,0,P|446:278|311:308,1,375.000014305115
328,314,249775,1,2,0:0:0:0:
78,29,249877,1,2,0:0:0:0:
328,314,249979,1,2,0:0:0:0:
78,29,250081,1,0,0:0:0:0:
338,323,250183,6,0,P|475:168|355:83,1,375.000014305115,8|0,0:0|0:0,0:0:0:0:
244,83,250489,2,0,P|261:210|273:83,1,375.000014305115
126,85,250795,2,0,P|33:227|174:323,1,375.000014305115
400,320,251204,1,0,0:0:0:0:
400,320,251408,1,8,0:0:0:0:
469,23,251510,1,0,0:0:0:0:
465,320,251612,1,8,0:0:0:0:
403,22,251714,1,0,0:0:0:0:
409,333,251816,6,0,L|203:387,1,187.500007152558,8|0,0:0|0:0,0:0:0:0:
247,159,252020,2,0,L|453:105,1,187.500007152558
227,381,252224,2,0,L|29:335,1,187.500007152558
255,59,252428,1,2,0:0:0:0:
256,58,252836,2,0,P|161:76|49:70,1,187.500007152558
256,58,253040,2,0,P|351:76|463:70,1,187.500007152558
78,123,253244,2,0,P|90:190|-22:184,1,187.500007152558
434,123,253448,6,0,P|422:190|534:184,1,187.500007152558,8|0,0:0|0:0,0:0:0:0:
320,300,253653,2,0,P|253:288|259:400,1,187.500007152558
78,261,253857,2,0,P|90:194|-22:200,1,187.500007152558
192,84,254061,1,2,0:0:0:0:
192,82,254469,2,0,L|169:278,1,187.500007152558
320,82,254673,2,0,L|341:268,1,187.500007152558,2|0,0:0|0:0,0:0:0:0:
73,80,254877,2,0,L|169:278,1,187.500007152558
439,80,255081,6,0,L|343:278,1,187.500007152558,8|0,0:0|0:0,0:0:0:0:
182,346,255285,2,0,L|361:244,1,187.500007152558
330,38,255489,2,0,L|151:140,1,187.500007152558
396,343,255693,1,2,0:0:0:0:
396,343,256102,2,0,L|420:144,1,187.500007152558
116,41,256306,2,0,L|92:240,1,187.500007152558
229,354,256510,6,0,B|128:103|128:103|475:100,1,562.500021457673,2|0,0:0|0:0,0:0:0:0:
419,283,256918,2,0,B|128:281|128:281|229:30,1,562.500021457673,2|0,0:0|0:0,0:0:0:0:
339,10,257326,2,0,B|336:301|336:301|85:200,1,562.500021457673,2|0,0:0|0:0,0:0:0:0:
49,94,257734,1,8,0:0:0:0:
158,21,257836,1,2,0:0:0:0:
302,6,257938,1,8,0:0:0:0:
448,89,258040,1,2,0:0:0:0:
465,275,258142,1,8,0:0:0:0:
262,238,258244,1,2,0:0:0:0:
262,238,258346,6,0,L|248:105,1,125,12|0,0:0|0:0,0:0:0:0:
146,47,258551,1,0,0:0:0:0:
146,47,258653,2,0,L|160:180,1,125
259,282,258857,1,0,0:0:0:0:
259,282,258959,1,0,0:0:0:0:
259,282,259061,2,0,P|329:283|406:271,1,125
462,148,259265,1,0,0:0:0:0:
462,148,259367,1,0,0:0:0:0:
462,148,259469,1,0,0:0:0:0:
462,148,259571,2,0,P|356:47|321:51,1,125
264,136,259775,1,0,0:0:0:0:
264,136,259877,1,0,0:0:0:0:
264,136,259979,6,0,P|352:233|368:235,1,125,8|0,0:0|0:0,0:0:0:0:
486,238,260183,1,0,0:0:0:0:
486,238,260285,1,0,0:0:0:0:
486,238,260387,1,0,0:0:0:0:
486,238,260489,1,0,0:0:0:0:
486,238,260591,2,0,L|394:338,1,125
252,350,260795,1,0,0:0:0:0:
252,350,260897,2,0,P|118:301|101:285,1,125
91,168,261102,1,0,0:0:0:0:
91,168,261204,2,0,P|225:217|242:233,1,125
322,301,261408,1,0,0:0:0:0:
322,301,261510,1,0,0:0:0:0:
322,301,261612,6,0,P|458:303|462:296,1,125,8|0,0:0|0:0,0:0:0:0:
456,180,261816,1,0,0:0:0:0:
456,180,261918,2,0,L|361:82,1,125
225,48,262122,1,0,0:0:0:0:
225,48,262224,1,0,0:0:0:0:
225,48,262326,2,0,L|61:46,1,125
32,180,262530,1,0,0:0:0:0:
32,180,262632,1,0,0:0:0:0:
32,180,262734,1,0,0:0:0:0:
32,180,262836,2,0,L|38:318,1,125
182,343,263040,1,0,0:0:0:0:
182,343,263142,1,0,0:0:0:0:
182,343,263244,6,0,L|342:316,1,125,8|0,0:0|0:0,0:0:0:0:
337,175,263448,1,0,0:0:0:0:
337,175,263551,2,0,L|177:202,1,125
89,111,263755,1,0,0:0:0:0:
89,111,263857,1,0,0:0:0:0:
89,111,263959,1,0,0:0:0:0:
89,111,264061,1,0,0:0:0:0:
89,111,264163,2,0,L|65:244,1,125
185,325,264367,1,0,0:0:0:0:
185,325,264469,2,0,L|209:192,1,125
294,79,264673,1,0,0:0:0:0:
294,79,264775,1,0,0:0:0:0:
294,79,264877,5,8,0:0:0:0:
256,192,264903,12,0,269775,0:0:0:0:
