osu file format v14

[General]
AudioFilename: mindrust.mp3
AudioLeadIn: 0
PreviewTime: 115643
Countdown: 0
SampleSet: Soft
StackLeniency: 0.7
Mode: 3
LetterboxInBreaks: 0
SpecialStyle: 0
WidescreenStoryboard: 1

[Editor]
DistanceSpacing: 1
BeatDivisor: 4
GridSize: 4
TimelineZoom: 3.599999

[Metadata]
Title:Scaremania Vol. 1
TitleUnicode:Scaremania Vol. 1
Artist:Scarlet
ArtistUnicode:Scarlet
Creator:[ Scarlet Red ]
Version:Kalmah - Mindrust
Source:
Tags:
BeatmapID:1564079
BeatmapSetID:644609

[Difficulty]
HPDrainRate:8
CircleSize:4
OverallDifficulty:8
ApproachRate:5
SliderMultiplier:1.4
SliderTickRate:1

[Events]
//Background and Video events
0,0,"Mindrust.png",0,0
//Break Periods
//Storyboard Layer 0 (Background)
//Storyboard Layer 1 (Fail)
//Storyboard Layer 2 (Pass)
//Storyboard Layer 3 (Foreground)
//Storyboard Sound Samples

[TimingPoints]
-928,285.714285714286,4,2,1,45,1,0

[HitObjects]
64,192,214,5,0,0:0:0:0:
320,192,214,1,0,0:0:0:0:
448,192,214,1,0,0:0:0:0:
192,192,214,1,0,0:0:0:0:
192,192,357,128,0,500:0:0:0:0:
64,192,500,1,0,0:0:0:0:
320,192,500,1,0,0:0:0:0:
448,192,643,1,0,0:0:0:0:
448,192,786,1,0,0:0:0:0:
64,192,929,1,0,0:0:0:0:
320,192,929,1,0,0:0:0:0:
192,192,1072,1,0,0:0:0:0:
192,192,1214,1,0,0:0:0:0:
64,192,1357,1,0,0:0:0:0:
448,192,1357,1,0,0:0:0:0:
320,192,1500,1,0,0:0:0:0:
320,192,1643,1,0,0:0:0:0:
192,192,1786,1,0,0:0:0:0:
64,192,1786,1,0,0:0:0:0:
448,192,1929,1,0,0:0:0:0:
448,192,2072,1,0,0:0:0:0:
64,192,2214,1,0,0:0:0:0:
320,192,2214,1,0,0:0:0:0:
192,192,2357,1,0,0:0:0:0:
448,192,2357,1,0,0:0:0:0:
64,192,2357,1,0,0:0:0:0:
320,192,2357,1,0,0:0:0:0:
64,192,2500,1,0,0:0:0:0:
192,192,2500,1,0,0:0:0:0:
320,192,2500,1,0,0:0:0:0:
448,192,2500,1,0,0:0:0:0:
64,192,2643,1,0,0:0:0:0:
320,192,2786,1,0,0:0:0:0:
448,192,2786,1,0,0:0:0:0:
192,192,2929,1,0,0:0:0:0:
192,192,3072,1,0,0:0:0:0:
64,192,3214,1,0,0:0:0:0:
320,192,3214,1,0,0:0:0:0:
448,192,3357,1,0,0:0:0:0:
448,192,3500,1,0,0:0:0:0:
64,192,3643,1,0,0:0:0:0:
320,192,3643,1,0,0:0:0:0:
192,192,3786,1,0,0:0:0:0:
192,192,3929,1,0,0:0:0:0:
64,192,4072,1,0,0:0:0:0:
448,192,4072,1,0,0:0:0:0:
320,192,4214,1,0,0:0:0:0:
320,192,4357,1,0,0:0:0:0:
192,192,4500,1,0,0:0:0:0:
448,192,4500,1,0,0:0:0:0:
64,192,4643,1,0,0:0:0:0:
448,192,4786,128,0,7072:0:0:0:0:
192,192,4786,1,0,0:0:0:0:
320,192,4786,1,0,0:0:0:0:
64,192,4786,128,0,5072:0:0:0:0:
320,192,5072,1,0,0:0:0:0:
192,192,5072,1,0,0:0:0:0:
192,192,5214,1,0,0:0:0:0:
192,192,5357,1,0,0:0:0:0:
192,192,5500,1,0,0:0:0:0:
64,192,5500,1,0,0:0:0:0:
320,192,5643,1,0,0:0:0:0:
320,192,5786,1,0,0:0:0:0:
64,192,5929,1,0,0:0:0:0:
320,192,5929,1,0,0:0:0:0:
192,192,6072,1,0,0:0:0:0:
192,192,6214,1,0,0:0:0:0:
64,192,6357,1,0,0:0:0:0:
320,192,6357,1,0,0:0:0:0:
64,192,6500,1,0,0:0:0:0:
64,192,6643,1,0,0:0:0:0:
320,192,6786,1,0,0:0:0:0:
192,192,6786,1,0,0:0:0:0:
64,192,6929,1,0,0:0:0:0:
192,192,7072,1,0,0:0:0:0:
320,192,7072,1,0,0:0:0:0:
64,192,7143,1,0,0:0:0:0:
192,192,7214,1,0,0:0:0:0:
320,192,7286,1,0,0:0:0:0:
448,192,7357,1,0,0:0:0:0:
64,192,7357,1,0,0:0:0:0:
320,192,7429,1,0,0:0:0:0:
192,192,7500,1,0,0:0:0:0:
320,192,7572,1,0,0:0:0:0:
64,192,7643,1,0,0:0:0:0:
192,192,7643,1,0,0:0:0:0:
320,192,7714,1,0,0:0:0:0:
448,192,7786,1,0,0:0:0:0:
320,192,7857,1,0,0:0:0:0:
64,192,7929,1,0,0:0:0:0:
192,192,7929,1,0,0:0:0:0:
448,192,8000,1,0,0:0:0:0:
320,192,8072,1,0,0:0:0:0:
192,192,8143,1,0,0:0:0:0:
64,192,8214,1,0,0:0:0:0:
192,192,8286,1,0,0:0:0:0:
320,192,8357,1,0,0:0:0:0:
448,192,8429,1,0,0:0:0:0:
64,192,8500,1,0,0:0:0:0:
192,192,8572,1,0,0:0:0:0:
320,192,8643,1,0,0:0:0:0:
448,192,8714,1,0,0:0:0:0:
320,192,8786,1,0,0:0:0:0:
192,192,8857,1,0,0:0:0:0:
64,192,8929,1,0,0:0:0:0:
448,192,9000,1,0,0:0:0:0:
320,192,9072,1,0,0:0:0:0:
192,192,9143,1,0,0:0:0:0:
320,192,9214,1,0,0:0:0:0:
448,192,9286,1,0,0:0:0:0:
64,192,9357,1,0,0:0:0:0:
320,192,9357,1,0,0:0:0:0:
64,192,9500,1,0,0:0:0:0:
320,192,9500,1,0,0:0:0:0:
448,192,9500,1,0,0:0:0:0:
192,192,9643,1,0,0:0:0:0:
320,192,9643,1,0,0:0:0:0:
64,192,9786,1,0,0:0:0:0:
192,192,9786,1,0,0:0:0:0:
320,192,9786,1,0,0:0:0:0:
448,192,9929,1,0,0:0:0:0:
192,192,9929,1,0,0:0:0:0:
64,192,10072,1,0,0:0:0:0:
192,192,10072,1,0,0:0:0:0:
448,192,10072,1,0,0:0:0:0:
64,192,10214,1,0,0:0:0:0:
448,192,10214,1,0,0:0:0:0:
192,192,10357,1,0,0:0:0:0:
64,192,10357,1,0,0:0:0:0:
320,192,10357,1,0,0:0:0:0:
64,192,10500,1,0,0:0:0:0:
192,192,10500,1,0,0:0:0:0:
448,192,10643,1,0,0:0:0:0:
192,192,10643,1,0,0:0:0:0:
64,192,10643,1,0,0:0:0:0:
320,192,10786,1,0,0:0:0:0:
192,192,10786,1,0,0:0:0:0:
192,192,10929,1,0,0:0:0:0:
320,192,10929,1,0,0:0:0:0:
448,192,10929,1,0,0:0:0:0:
64,192,11072,1,0,0:0:0:0:
320,192,11072,1,0,0:0:0:0:
64,192,11214,1,0,0:0:0:0:
192,192,11214,1,0,0:0:0:0:
320,192,11214,1,0,0:0:0:0:
64,192,11357,1,0,0:0:0:0:
192,192,11357,1,0,0:0:0:0:
320,192,11357,1,0,0:0:0:0:
448,192,11357,1,0,0:0:0:0:
448,192,11500,1,0,0:0:0:0:
320,192,11500,1,0,0:0:0:0:
192,192,11500,1,0,0:0:0:0:
64,192,11643,1,0,0:0:0:0:
192,192,11643,1,0,0:0:0:0:
448,192,11786,1,0,0:0:0:0:
192,192,11786,1,0,0:0:0:0:
64,192,11786,1,0,0:0:0:0:
320,192,11929,1,0,0:0:0:0:
192,192,11929,1,0,0:0:0:0:
64,192,12072,1,0,0:0:0:0:
320,192,12072,1,0,0:0:0:0:
448,192,12072,1,0,0:0:0:0:
192,192,12214,1,0,0:0:0:0:
320,192,12214,1,0,0:0:0:0:
64,192,12357,1,0,0:0:0:0:
192,192,12357,1,0,0:0:0:0:
448,192,12357,1,0,0:0:0:0:
320,192,12500,1,0,0:0:0:0:
448,192,12500,1,0,0:0:0:0:
64,192,12643,1,0,0:0:0:0:
320,192,12643,1,0,0:0:0:0:
448,192,12643,1,0,0:0:0:0:
64,192,12786,1,0,0:0:0:0:
192,192,12786,1,0,0:0:0:0:
448,192,12929,1,0,0:0:0:0:
320,192,12929,1,0,0:0:0:0:
64,192,12929,1,0,0:0:0:0:
320,192,13072,1,0,0:0:0:0:
64,192,13072,1,0,0:0:0:0:
192,192,13214,1,0,0:0:0:0:
448,192,13214,1,0,0:0:0:0:
320,192,13214,1,0,0:0:0:0:
64,192,13357,1,0,0:0:0:0:
448,192,13357,1,0,0:0:0:0:
192,192,13500,1,0,0:0:0:0:
320,192,13500,1,0,0:0:0:0:
448,192,13500,1,0,0:0:0:0:
64,192,13643,1,0,0:0:0:0:
192,192,13643,1,0,0:0:0:0:
320,192,13643,1,0,0:0:0:0:
448,192,13643,1,0,0:0:0:0:
64,192,13786,1,0,0:0:0:0:
192,192,13786,1,0,0:0:0:0:
320,192,13786,1,0,0:0:0:0:
448,192,13929,1,0,0:0:0:0:
192,192,13929,1,0,0:0:0:0:
64,192,14072,1,0,0:0:0:0:
320,192,14072,1,0,0:0:0:0:
448,192,14072,1,0,0:0:0:0:
64,192,14214,1,0,0:0:0:0:
192,192,14214,1,0,0:0:0:0:
448,192,14357,1,0,0:0:0:0:
192,192,14357,1,0,0:0:0:0:
64,192,14357,1,0,0:0:0:0:
320,192,14500,1,0,0:0:0:0:
192,192,14500,1,0,0:0:0:0:
320,192,14643,1,0,0:0:0:0:
448,192,14643,1,0,0:0:0:0:
192,192,14643,1,0,0:0:0:0:
64,192,14786,1,0,0:0:0:0:
320,192,14786,1,0,0:0:0:0:
64,192,14929,1,0,0:0:0:0:
192,192,14929,1,0,0:0:0:0:
448,192,14929,1,0,0:0:0:0:
320,192,15072,1,0,0:0:0:0:
448,192,15072,1,0,0:0:0:0:
192,192,15214,1,0,0:0:0:0:
320,192,15214,1,0,0:0:0:0:
448,192,15214,1,0,0:0:0:0:
64,192,15357,1,0,0:0:0:0:
448,192,15357,1,0,0:0:0:0:
64,192,15500,1,0,0:0:0:0:
192,192,15500,1,0,0:0:0:0:
448,192,15500,1,0,0:0:0:0:
320,192,15643,1,0,0:0:0:0:
192,192,15643,1,0,0:0:0:0:
64,192,15786,1,0,0:0:0:0:
448,192,15786,1,0,0:0:0:0:
320,192,15786,1,0,0:0:0:0:
64,192,15929,1,0,0:0:0:0:
192,192,15929,1,0,0:0:0:0:
320,192,15929,1,0,0:0:0:0:
448,192,15929,1,0,0:0:0:0:
64,192,16072,1,0,0:0:0:0:
192,192,16072,1,0,0:0:0:0:
448,192,16072,1,0,0:0:0:0:
448,192,16214,1,0,0:0:0:0:
192,192,16214,1,0,0:0:0:0:
64,192,16357,1,0,0:0:0:0:
320,192,16357,1,0,0:0:0:0:
448,192,16357,1,0,0:0:0:0:
192,192,16500,1,0,0:0:0:0:
64,192,16500,1,0,0:0:0:0:
448,192,16643,1,0,0:0:0:0:
320,192,16643,1,0,0:0:0:0:
192,192,16643,1,0,0:0:0:0:
64,192,16786,1,0,0:0:0:0:
192,192,16786,1,0,0:0:0:0:
448,192,16929,1,0,0:0:0:0:
192,192,16929,1,0,0:0:0:0:
64,192,16929,1,0,0:0:0:0:
448,192,17072,1,0,0:0:0:0:
320,192,17072,1,0,0:0:0:0:
64,192,17214,1,0,0:0:0:0:
320,192,17214,1,0,0:0:0:0:
448,192,17214,1,0,0:0:0:0:
64,192,17357,1,0,0:0:0:0:
320,192,17357,1,0,0:0:0:0:
448,192,17500,1,0,0:0:0:0:
192,192,17500,1,0,0:0:0:0:
320,192,17572,1,0,0:0:0:0:
192,192,17643,1,0,0:0:0:0:
64,192,17714,1,0,0:0:0:0:
192,192,17786,1,0,0:0:0:0:
320,192,17786,1,0,0:0:0:0:
64,192,17857,1,0,0:0:0:0:
192,192,17929,1,0,0:0:0:0:
320,192,18000,1,0,0:0:0:0:
192,192,18072,1,0,0:0:0:0:
64,192,18072,1,0,0:0:0:0:
320,192,18143,1,0,0:0:0:0:
448,192,18214,1,0,0:0:0:0:
320,192,18286,1,0,0:0:0:0:
64,192,18357,1,0,0:0:0:0:
448,192,18357,1,0,0:0:0:0:
192,192,18429,1,0,0:0:0:0:
448,192,18500,1,0,0:0:0:0:
320,192,18500,1,0,0:0:0:0:
64,192,18500,1,0,0:0:0:0:
192,192,18572,1,0,0:0:0:0:
64,192,18643,1,0,0:0:0:0:
192,192,18714,1,0,0:0:0:0:
448,192,18786,128,0,18929:0:0:0:0:
64,192,18786,1,0,0:0:0:0:
320,192,18929,128,0,19072:0:0:0:0:
448,192,19072,128,0,19214:0:0:0:0:
192,192,19214,128,0,19357:0:0:0:0:
64,192,19357,1,0,0:0:0:0:
448,192,19357,1,0,0:0:0:0:
320,192,19429,1,0,0:0:0:0:
192,192,19500,1,0,0:0:0:0:
64,192,19572,1,0,0:0:0:0:
320,192,19643,128,0,19786:0:0:0:0:
64,192,19786,128,0,19929:0:0:0:0:
320,192,19929,128,0,20072:0:0:0:0:
448,192,19929,1,0,0:0:0:0:
64,192,20072,128,0,20214:0:0:0:0:
448,192,20214,128,0,20357:0:0:0:0:
64,192,20357,128,0,20500:0:0:0:0:
320,192,20500,128,0,20643:0:0:0:0:
448,192,20500,1,0,0:0:0:0:
192,192,20643,128,0,20786:0:0:0:0:
64,192,20786,1,0,0:0:0:0:
320,192,20786,1,0,0:0:0:0:
448,192,20857,1,0,0:0:0:0:
320,192,20929,1,0,0:0:0:0:
192,192,21000,1,0,0:0:0:0:
64,192,21072,128,0,21214:0:0:0:0:
320,192,21072,1,0,0:0:0:0:
448,192,21214,128,0,21357:0:0:0:0:
64,192,21357,128,0,21500:0:0:0:0:
448,192,21500,128,0,21643:0:0:0:0:
64,192,21643,1,0,0:0:0:0:
320,192,21643,1,0,0:0:0:0:
192,192,21714,1,0,0:0:0:0:
64,192,21786,1,0,0:0:0:0:
448,192,21857,1,0,0:0:0:0:
320,192,21929,128,0,22072:0:0:0:0:
192,192,22072,128,0,22214:0:0:0:0:
320,192,22214,128,0,22357:0:0:0:0:
448,192,22214,1,0,0:0:0:0:
192,192,22357,128,0,22500:0:0:0:0:
64,192,22357,1,0,0:0:0:0:
448,192,22500,128,0,22643:0:0:0:0:
320,192,22500,1,0,0:0:0:0:
192,192,22643,128,0,22786:0:0:0:0:
64,192,22643,1,0,0:0:0:0:
320,192,22786,128,0,22929:0:0:0:0:
448,192,22786,1,0,0:0:0:0:
64,192,22929,128,0,23072:0:0:0:0:
192,192,23072,1,0,0:0:0:0:
448,192,23072,1,0,0:0:0:0:
320,192,23143,1,0,0:0:0:0:
192,192,23214,1,0,0:0:0:0:
320,192,23286,1,0,0:0:0:0:
64,192,23357,128,0,23500:0:0:0:0:
448,192,23357,1,0,0:0:0:0:
320,192,23500,128,0,23643:0:0:0:0:
64,192,23643,128,0,23786:0:0:0:0:
320,192,23786,128,0,23929:0:0:0:0:
448,192,23929,1,0,0:0:0:0:
64,192,23929,1,0,0:0:0:0:
192,192,24000,1,0,0:0:0:0:
320,192,24072,1,0,0:0:0:0:
448,192,24143,1,0,0:0:0:0:
192,192,24214,128,0,24357:0:0:0:0:
448,192,24357,128,0,24500:0:0:0:0:
192,192,24500,128,0,24643:0:0:0:0:
64,192,24500,1,0,0:0:0:0:
448,192,24643,128,0,24786:0:0:0:0:
64,192,24786,128,0,24929:0:0:0:0:
448,192,24929,128,0,25072:0:0:0:0:
192,192,25072,128,0,25214:0:0:0:0:
64,192,25072,1,0,0:0:0:0:
320,192,25214,128,0,25357:0:0:0:0:
64,192,25357,1,0,0:0:0:0:
448,192,25357,1,0,0:0:0:0:
192,192,25429,1,0,0:0:0:0:
320,192,25500,1,0,0:0:0:0:
64,192,25572,1,0,0:0:0:0:
192,192,25643,1,0,0:0:0:0:
448,192,25643,128,0,25786:0:0:0:0:
64,192,25786,128,0,25929:0:0:0:0:
448,192,25929,128,0,26072:0:0:0:0:
64,192,26072,128,0,26214:0:0:0:0:
320,192,26214,1,0,0:0:0:0:
448,192,26214,1,0,0:0:0:0:
192,192,26286,1,0,0:0:0:0:
320,192,26357,1,0,0:0:0:0:
448,192,26429,1,0,0:0:0:0:
64,192,26500,128,0,26643:0:0:0:0:
320,192,26643,128,0,26786:0:0:0:0:
64,192,26786,128,0,26929:0:0:0:0:
192,192,26786,1,0,0:0:0:0:
320,192,26929,128,0,27072:0:0:0:0:
448,192,26929,1,0,0:0:0:0:
192,192,27072,128,0,27214:0:0:0:0:
64,192,27072,1,0,0:0:0:0:
320,192,27214,128,0,27357:0:0:0:0:
448,192,27214,1,0,0:0:0:0:
64,192,27357,128,0,27500:0:0:0:0:
192,192,27357,1,0,0:0:0:0:
448,192,27500,128,0,27643:0:0:0:0:
320,192,27643,1,0,0:0:0:0:
192,192,27643,1,0,0:0:0:0:
64,192,27714,1,0,0:0:0:0:
192,192,27786,1,0,0:0:0:0:
320,192,27857,1,0,0:0:0:0:
64,192,27929,1,0,0:0:0:0:
448,192,27929,128,0,28072:0:0:0:0:
192,192,28072,128,0,28214:0:0:0:0:
64,192,28072,1,0,0:0:0:0:
448,192,28214,128,0,28357:0:0:0:0:
320,192,28214,1,0,0:0:0:0:
64,192,28357,128,0,28500:0:0:0:0:
192,192,28357,1,0,0:0:0:0:
320,192,28500,1,0,0:0:0:0:
448,192,28500,1,0,0:0:0:0:
192,192,28572,1,0,0:0:0:0:
320,192,28643,1,0,0:0:0:0:
448,192,28714,1,0,0:0:0:0:
64,192,28786,128,0,28929:0:0:0:0:
192,192,28786,1,0,0:0:0:0:
320,192,28929,128,0,29072:0:0:0:0:
448,192,28929,1,0,0:0:0:0:
64,192,29072,128,0,29214:0:0:0:0:
192,192,29072,1,0,0:0:0:0:
448,192,29214,1,0,0:0:0:0:
320,192,29214,128,0,29357:0:0:0:0:
192,192,29357,128,0,29500:0:0:0:0:
64,192,29357,1,0,0:0:0:0:
320,192,29500,128,0,29643:0:0:0:0:
448,192,29500,1,0,0:0:0:0:
64,192,29643,128,0,29786:0:0:0:0:
192,192,29643,1,0,0:0:0:0:
192,192,29786,128,0,29929:0:0:0:0:
448,192,29786,1,0,0:0:0:0:
320,192,29929,1,0,0:0:0:0:
448,192,29929,1,0,0:0:0:0:
64,192,30000,1,0,0:0:0:0:
192,192,30072,1,0,0:0:0:0:
64,192,30143,1,0,0:0:0:0:
448,192,30214,1,0,0:0:0:0:
320,192,30214,128,0,30357:0:0:0:0:
192,192,30357,128,0,30500:0:0:0:0:
64,192,30357,1,0,0:0:0:0:
320,192,30500,128,0,30643:0:0:0:0:
448,192,30500,1,0,0:0:0:0:
192,192,30643,128,0,30786:0:0:0:0:
64,192,30643,1,0,0:0:0:0:
448,192,30786,1,0,0:0:0:0:
64,192,30786,1,0,0:0:0:0:
320,192,30857,1,0,0:0:0:0:
192,192,30929,1,0,0:0:0:0:
320,192,31000,1,0,0:0:0:0:
192,192,31072,1,0,0:0:0:0:
64,192,31072,128,0,31214:0:0:0:0:
448,192,31214,128,0,31357:0:0:0:0:
320,192,31214,1,0,0:0:0:0:
64,192,31357,128,0,31500:0:0:0:0:
192,192,31357,1,0,0:0:0:0:
448,192,31500,128,0,31643:0:0:0:0:
320,192,31500,1,0,0:0:0:0:
192,192,31643,128,0,31786:0:0:0:0:
64,192,31643,1,0,0:0:0:0:
448,192,31786,128,0,31929:0:0:0:0:
320,192,31786,1,0,0:0:0:0:
320,192,31929,128,0,32072:0:0:0:0:
64,192,31929,1,0,0:0:0:0:
448,192,32072,128,0,32214:0:0:0:0:
192,192,32214,1,0,0:0:0:0:
64,192,32214,1,0,0:0:0:0:
320,192,32286,1,0,0:0:0:0:
192,192,32357,1,0,0:0:0:0:
64,192,32429,1,0,0:0:0:0:
448,192,32500,1,0,0:0:0:0:
320,192,32500,1,0,0:0:0:0:
192,192,32572,1,0,0:0:0:0:
320,192,32643,1,0,0:0:0:0:
448,192,32714,1,0,0:0:0:0:
64,192,32786,1,0,0:0:0:0:
192,192,32786,1,0,0:0:0:0:
320,192,32857,1,0,0:0:0:0:
448,192,32929,1,0,0:0:0:0:
320,192,33000,1,0,0:0:0:0:
64,192,33072,1,0,0:0:0:0:
448,192,33072,1,0,0:0:0:0:
192,192,33143,1,0,0:0:0:0:
320,192,33214,1,0,0:0:0:0:
192,192,33286,1,0,0:0:0:0:
64,192,33357,1,0,0:0:0:0:
320,192,33357,1,0,0:0:0:0:
448,192,33429,1,0,0:0:0:0:
320,192,33500,1,0,0:0:0:0:
192,192,33572,1,0,0:0:0:0:
64,192,33643,1,0,0:0:0:0:
448,192,33643,1,0,0:0:0:0:
320,192,33714,1,0,0:0:0:0:
192,192,33786,1,0,0:0:0:0:
64,192,33857,1,0,0:0:0:0:
192,192,33929,1,0,0:0:0:0:
320,192,33929,1,0,0:0:0:0:
64,192,34000,1,0,0:0:0:0:
192,192,34072,1,0,0:0:0:0:
320,192,34143,1,0,0:0:0:0:
448,192,34214,1,0,0:0:0:0:
192,192,34214,1,0,0:0:0:0:
320,192,34286,1,0,0:0:0:0:
448,192,34357,1,0,0:0:0:0:
64,192,34429,1,0,0:0:0:0:
192,192,34500,1,0,0:0:0:0:
320,192,34500,1,0,0:0:0:0:
448,192,34572,1,0,0:0:0:0:
320,192,34643,1,0,0:0:0:0:
192,192,34714,1,0,0:0:0:0:
64,192,34786,1,0,0:0:0:0:
320,192,34786,1,0,0:0:0:0:
192,192,34857,1,0,0:0:0:0:
64,192,34929,1,0,0:0:0:0:
192,192,35000,1,0,0:0:0:0:
64,192,35072,1,0,0:0:0:0:
448,192,35072,1,0,0:0:0:0:
320,192,35143,1,0,0:0:0:0:
448,192,35214,1,0,0:0:0:0:
320,192,35286,1,0,0:0:0:0:
64,192,35357,1,0,0:0:0:0:
192,192,35357,1,0,0:0:0:0:
320,192,35429,1,0,0:0:0:0:
448,192,35500,1,0,0:0:0:0:
64,192,35572,1,0,0:0:0:0:
192,192,35643,1,0,0:0:0:0:
448,192,35643,1,0,0:0:0:0:
320,192,35714,1,0,0:0:0:0:
192,192,35786,1,0,0:0:0:0:
64,192,35857,1,0,0:0:0:0:
192,192,35929,1,0,0:0:0:0:
320,192,35929,1,0,0:0:0:0:
64,192,36000,1,0,0:0:0:0:
192,192,36072,1,0,0:0:0:0:
64,192,36143,1,0,0:0:0:0:
448,192,36214,1,0,0:0:0:0:
320,192,36214,1,0,0:0:0:0:
192,192,36286,1,0,0:0:0:0:
320,192,36357,1,0,0:0:0:0:
448,192,36429,1,0,0:0:0:0:
192,192,36500,1,0,0:0:0:0:
64,192,36500,1,0,0:0:0:0:
448,192,36572,1,0,0:0:0:0:
320,192,36643,1,0,0:0:0:0:
192,192,36714,1,0,0:0:0:0:
448,192,36786,128,0,37929:0:0:0:0:
64,192,36786,128,0,37929:0:0:0:0:
320,192,37929,1,0,0:0:0:0:
192,192,38000,1,0,0:0:0:0:
64,192,38072,1,0,0:0:0:0:
192,192,38143,1,0,0:0:0:0:
448,192,38214,1,0,0:0:0:0:
320,192,38214,1,0,0:0:0:0:
64,192,38286,1,0,0:0:0:0:
192,192,38357,1,0,0:0:0:0:
320,192,38429,1,0,0:0:0:0:
192,192,38500,1,0,0:0:0:0:
448,192,38500,1,0,0:0:0:0:
320,192,38572,1,0,0:0:0:0:
192,192,38643,1,0,0:0:0:0:
64,192,38714,1,0,0:0:0:0:
448,192,38786,1,0,0:0:0:0:
320,192,38786,1,0,0:0:0:0:
64,192,38857,1,0,0:0:0:0:
192,192,38857,1,0,0:0:0:0:
448,192,38929,1,0,0:0:0:0:
320,192,38929,1,0,0:0:0:0:
64,192,39000,1,0,0:0:0:0:
192,192,39000,1,0,0:0:0:0:
320,192,39072,1,0,0:0:0:0:
448,192,39072,1,0,0:0:0:0:
192,192,39143,1,0,0:0:0:0:
64,192,39214,1,0,0:0:0:0:
320,192,39214,1,0,0:0:0:0:
448,192,39286,1,0,0:0:0:0:
64,192,39357,1,0,0:0:0:0:
192,192,39357,1,0,0:0:0:0:
320,192,39429,1,0,0:0:0:0:
192,192,39500,1,0,0:0:0:0:
448,192,39500,1,0,0:0:0:0:
64,192,39572,1,0,0:0:0:0:
192,192,39643,1,0,0:0:0:0:
320,192,39643,1,0,0:0:0:0:
448,192,39714,1,0,0:0:0:0:
64,192,39786,1,0,0:0:0:0:
320,192,39786,1,0,0:0:0:0:
192,192,39857,1,0,0:0:0:0:
64,192,39929,1,0,0:0:0:0:
448,192,39929,1,0,0:0:0:0:
320,192,40000,1,0,0:0:0:0:
192,192,40072,1,0,0:0:0:0:
448,192,40072,1,0,0:0:0:0:
64,192,40143,1,0,0:0:0:0:
320,192,40214,1,0,0:0:0:0:
448,192,40214,1,0,0:0:0:0:
192,192,40286,1,0,0:0:0:0:
64,192,40357,1,0,0:0:0:0:
448,192,40357,1,0,0:0:0:0:
320,192,40429,1,0,0:0:0:0:
192,192,40500,1,0,0:0:0:0:
64,192,40500,1,0,0:0:0:0:
448,192,40572,1,0,0:0:0:0:
64,192,40643,1,0,0:0:0:0:
192,192,40643,1,0,0:0:0:0:
320,192,40714,1,0,0:0:0:0:
448,192,40786,1,0,0:0:0:0:
192,192,40786,1,0,0:0:0:0:
320,192,40857,1,0,0:0:0:0:
64,192,40929,1,0,0:0:0:0:
448,192,40929,1,0,0:0:0:0:
192,192,41000,1,0,0:0:0:0:
64,192,41072,1,0,0:0:0:0:
320,192,41072,1,0,0:0:0:0:
448,192,41143,1,0,0:0:0:0:
192,192,41214,1,0,0:0:0:0:
320,192,41214,1,0,0:0:0:0:
64,192,41286,1,0,0:0:0:0:
448,192,41357,1,0,0:0:0:0:
320,192,41357,1,0,0:0:0:0:
192,192,41429,1,0,0:0:0:0:
64,192,41500,1,0,0:0:0:0:
448,192,41500,1,0,0:0:0:0:
320,192,41572,1,0,0:0:0:0:
64,192,41643,1,0,0:0:0:0:
192,192,41643,1,0,0:0:0:0:
448,192,41714,1,0,0:0:0:0:
64,192,41786,1,0,0:0:0:0:
320,192,41786,1,0,0:0:0:0:
192,192,41857,1,0,0:0:0:0:
448,192,41929,1,0,0:0:0:0:
320,192,41929,1,0,0:0:0:0:
64,192,42000,1,0,0:0:0:0:
192,192,42072,1,0,0:0:0:0:
320,192,42072,1,0,0:0:0:0:
448,192,42143,1,0,0:0:0:0:
64,192,42214,1,0,0:0:0:0:
320,192,42214,1,0,0:0:0:0:
192,192,42286,1,0,0:0:0:0:
448,192,42357,1,0,0:0:0:0:
64,192,42357,1,0,0:0:0:0:
320,192,42429,1,0,0:0:0:0:
448,192,42500,1,0,0:0:0:0:
192,192,42500,1,0,0:0:0:0:
64,192,42572,1,0,0:0:0:0:
448,192,42643,1,0,0:0:0:0:
320,192,42643,1,0,0:0:0:0:
192,192,42714,1,0,0:0:0:0:
64,192,42786,1,0,0:0:0:0:
320,192,42786,1,0,0:0:0:0:
448,192,42857,1,0,0:0:0:0:
64,192,42929,1,0,0:0:0:0:
320,192,42929,1,0,0:0:0:0:
192,192,43000,1,0,0:0:0:0:
448,192,43072,1,0,0:0:0:0:
64,192,43072,1,0,0:0:0:0:
320,192,43143,1,0,0:0:0:0:
64,192,43214,1,0,0:0:0:0:
448,192,43214,1,0,0:0:0:0:
192,192,43286,1,0,0:0:0:0:
448,192,43357,1,0,0:0:0:0:
320,192,43357,1,0,0:0:0:0:
64,192,43429,1,0,0:0:0:0:
192,192,43500,1,0,0:0:0:0:
320,192,43500,1,0,0:0:0:0:
448,192,43572,1,0,0:0:0:0:
64,192,43643,1,0,0:0:0:0:
320,192,43643,1,0,0:0:0:0:
192,192,43714,1,0,0:0:0:0:
448,192,43786,1,0,0:0:0:0:
320,192,43786,1,0,0:0:0:0:
64,192,43857,1,0,0:0:0:0:
192,192,43929,1,0,0:0:0:0:
448,192,43929,1,0,0:0:0:0:
320,192,44000,1,0,0:0:0:0:
64,192,44072,1,0,0:0:0:0:
448,192,44072,1,0,0:0:0:0:
192,192,44143,1,0,0:0:0:0:
64,192,44214,1,0,0:0:0:0:
320,192,44214,1,0,0:0:0:0:
448,192,44286,1,0,0:0:0:0:
192,192,44357,1,0,0:0:0:0:
320,192,44357,1,0,0:0:0:0:
64,192,44429,1,0,0:0:0:0:
448,192,44500,1,0,0:0:0:0:
192,192,44500,1,0,0:0:0:0:
320,192,44572,1,0,0:0:0:0:
64,192,44643,1,0,0:0:0:0:
448,192,44643,1,0,0:0:0:0:
192,192,44714,1,0,0:0:0:0:
64,192,44786,1,0,0:0:0:0:
320,192,44786,1,0,0:0:0:0:
448,192,44857,1,0,0:0:0:0:
192,192,44929,1,0,0:0:0:0:
320,192,44929,1,0,0:0:0:0:
64,192,45000,1,0,0:0:0:0:
448,192,45072,1,0,0:0:0:0:
320,192,45072,1,0,0:0:0:0:
192,192,45143,1,0,0:0:0:0:
64,192,45214,1,0,0:0:0:0:
448,192,45214,1,0,0:0:0:0:
320,192,45286,1,0,0:0:0:0:
64,192,45357,1,0,0:0:0:0:
192,192,45357,1,0,0:0:0:0:
448,192,45429,1,0,0:0:0:0:
320,192,45500,1,0,0:0:0:0:
192,192,45500,1,0,0:0:0:0:
64,192,45572,1,0,0:0:0:0:
448,192,45643,1,0,0:0:0:0:
192,192,45643,1,0,0:0:0:0:
320,192,45714,1,0,0:0:0:0:
64,192,45786,1,0,0:0:0:0:
448,192,45786,1,0,0:0:0:0:
192,192,45857,1,0,0:0:0:0:
448,192,45929,1,0,0:0:0:0:
320,192,45929,1,0,0:0:0:0:
64,192,46000,1,0,0:0:0:0:
192,192,46072,1,0,0:0:0:0:
448,192,46072,1,0,0:0:0:0:
320,192,46143,1,0,0:0:0:0:
64,192,46214,1,0,0:0:0:0:
448,192,46214,1,0,0:0:0:0:
192,192,46286,1,0,0:0:0:0:
64,192,46357,1,0,0:0:0:0:
320,192,46357,1,0,0:0:0:0:
448,192,46429,1,0,0:0:0:0:
192,192,46500,1,0,0:0:0:0:
320,192,46500,1,0,0:0:0:0:
64,192,46572,1,0,0:0:0:0:
192,192,46643,1,0,0:0:0:0:
320,192,46643,1,0,0:0:0:0:
448,192,46714,1,0,0:0:0:0:
64,192,46786,1,0,0:0:0:0:
320,192,46786,1,0,0:0:0:0:
192,192,46857,1,0,0:0:0:0:
448,192,46929,1,0,0:0:0:0:
320,192,46929,1,0,0:0:0:0:
64,192,47000,1,0,0:0:0:0:
448,192,47072,1,0,0:0:0:0:
192,192,47072,1,0,0:0:0:0:
64,192,47143,1,0,0:0:0:0:
448,192,47214,1,0,0:0:0:0:
320,192,47214,1,0,0:0:0:0:
192,192,47286,1,0,0:0:0:0:
448,192,47357,1,0,0:0:0:0:
64,192,47357,1,0,0:0:0:0:
320,192,47429,1,0,0:0:0:0:
64,192,47500,1,0,0:0:0:0:
192,192,47500,1,0,0:0:0:0:
448,192,47572,1,0,0:0:0:0:
320,192,47643,1,0,0:0:0:0:
192,192,47643,1,0,0:0:0:0:
64,192,47714,1,0,0:0:0:0:
448,192,47786,1,0,0:0:0:0:
192,192,47786,1,0,0:0:0:0:
320,192,47857,1,0,0:0:0:0:
64,192,47929,1,0,0:0:0:0:
448,192,47929,1,0,0:0:0:0:
192,192,48000,1,0,0:0:0:0:
64,192,48072,1,0,0:0:0:0:
320,192,48072,1,0,0:0:0:0:
448,192,48143,1,0,0:0:0:0:
192,192,48214,1,0,0:0:0:0:
320,192,48214,1,0,0:0:0:0:
64,192,48286,1,0,0:0:0:0:
448,192,48357,1,0,0:0:0:0:
320,192,48357,1,0,0:0:0:0:
192,192,48429,1,0,0:0:0:0:
64,192,48500,1,0,0:0:0:0:
448,192,48500,1,0,0:0:0:0:
320,192,48572,1,0,0:0:0:0:
64,192,48643,1,0,0:0:0:0:
192,192,48643,1,0,0:0:0:0:
448,192,48714,1,0,0:0:0:0:
320,192,48786,1,0,0:0:0:0:
192,192,48786,1,0,0:0:0:0:
64,192,48857,1,0,0:0:0:0:
448,192,48929,1,0,0:0:0:0:
192,192,48929,1,0,0:0:0:0:
320,192,49000,1,0,0:0:0:0:
64,192,49072,1,0,0:0:0:0:
448,192,49072,1,0,0:0:0:0:
192,192,49143,1,0,0:0:0:0:
448,192,49214,1,0,0:0:0:0:
320,192,49214,1,0,0:0:0:0:
64,192,49286,1,0,0:0:0:0:
192,192,49357,1,0,0:0:0:0:
448,192,49357,1,0,0:0:0:0:
320,192,49429,1,0,0:0:0:0:
64,192,49500,1,0,0:0:0:0:
192,192,49500,1,0,0:0:0:0:
448,192,49572,1,0,0:0:0:0:
320,192,49643,1,0,0:0:0:0:
64,192,49643,1,0,0:0:0:0:
192,192,49714,1,0,0:0:0:0:
320,192,49786,1,0,0:0:0:0:
448,192,49786,1,0,0:0:0:0:
64,192,49857,1,0,0:0:0:0:
192,192,49929,1,0,0:0:0:0:
448,192,49929,1,0,0:0:0:0:
320,192,50000,1,0,0:0:0:0:
64,192,50072,1,0,0:0:0:0:
448,192,50072,1,0,0:0:0:0:
192,192,50143,1,0,0:0:0:0:
320,192,50214,1,0,0:0:0:0:
448,192,50214,1,0,0:0:0:0:
64,192,50286,1,0,0:0:0:0:
192,192,50357,1,0,0:0:0:0:
448,192,50357,1,0,0:0:0:0:
320,192,50429,1,0,0:0:0:0:
64,192,50500,1,0,0:0:0:0:
448,192,50500,1,0,0:0:0:0:
192,192,50572,1,0,0:0:0:0:
320,192,50643,1,0,0:0:0:0:
448,192,50643,1,0,0:0:0:0:
64,192,50714,1,0,0:0:0:0:
192,192,50786,1,0,0:0:0:0:
448,192,50786,1,0,0:0:0:0:
320,192,50857,1,0,0:0:0:0:
64,192,50929,1,0,0:0:0:0:
192,192,50929,1,0,0:0:0:0:
448,192,51000,1,0,0:0:0:0:
320,192,51072,1,0,0:0:0:0:
192,192,51072,1,0,0:0:0:0:
448,192,51143,1,0,0:0:0:0:
64,192,51214,1,0,0:0:0:0:
320,192,51214,1,0,0:0:0:0:
192,192,51286,1,0,0:0:0:0:
64,192,51357,1,0,0:0:0:0:
448,192,51357,1,0,0:0:0:0:
320,192,51429,1,0,0:0:0:0:
64,192,51500,1,0,0:0:0:0:
192,192,51500,1,0,0:0:0:0:
320,192,51572,1,0,0:0:0:0:
448,192,51643,1,0,0:0:0:0:
192,192,51643,1,0,0:0:0:0:
320,192,51714,1,0,0:0:0:0:
64,192,51786,1,0,0:0:0:0:
448,192,51786,1,0,0:0:0:0:
192,192,51857,1,0,0:0:0:0:
64,192,51929,1,0,0:0:0:0:
320,192,51929,1,0,0:0:0:0:
448,192,52000,1,0,0:0:0:0:
192,192,52072,1,0,0:0:0:0:
320,192,52072,1,0,0:0:0:0:
64,192,52143,1,0,0:0:0:0:
448,192,52214,1,0,0:0:0:0:
192,192,52214,1,0,0:0:0:0:
320,192,52286,1,0,0:0:0:0:
64,192,52357,1,0,0:0:0:0:
448,192,52357,1,0,0:0:0:0:
192,192,52429,1,0,0:0:0:0:
448,192,52500,1,0,0:0:0:0:
320,192,52500,1,0,0:0:0:0:
64,192,52572,1,0,0:0:0:0:
192,192,52643,1,0,0:0:0:0:
448,192,52643,1,0,0:0:0:0:
320,192,52714,1,0,0:0:0:0:
64,192,52786,1,0,0:0:0:0:
448,192,52786,1,0,0:0:0:0:
192,192,52857,1,0,0:0:0:0:
448,192,52929,1,0,0:0:0:0:
320,192,52929,1,0,0:0:0:0:
192,192,53000,1,0,0:0:0:0:
64,192,53072,1,0,0:0:0:0:
320,192,53072,1,0,0:0:0:0:
448,192,53143,1,0,0:0:0:0:
64,192,53214,1,0,0:0:0:0:
192,192,53214,1,0,0:0:0:0:
320,192,53286,1,0,0:0:0:0:
448,192,53357,1,0,0:0:0:0:
192,192,53357,1,0,0:0:0:0:
320,192,53429,1,0,0:0:0:0:
64,192,53500,1,0,0:0:0:0:
448,192,53500,1,0,0:0:0:0:
192,192,53572,1,0,0:0:0:0:
64,192,53643,1,0,0:0:0:0:
448,192,53643,1,0,0:0:0:0:
320,192,53714,1,0,0:0:0:0:
64,192,53786,1,0,0:0:0:0:
192,192,53786,1,0,0:0:0:0:
448,192,53857,1,0,0:0:0:0:
320,192,53929,1,0,0:0:0:0:
64,192,53929,1,0,0:0:0:0:
192,192,54000,1,0,0:0:0:0:
448,192,54072,1,0,0:0:0:0:
320,192,54072,1,0,0:0:0:0:
64,192,54143,1,0,0:0:0:0:
192,192,54214,1,0,0:0:0:0:
320,192,54214,1,0,0:0:0:0:
448,192,54286,1,0,0:0:0:0:
64,192,54357,1,0,0:0:0:0:
320,192,54357,1,0,0:0:0:0:
192,192,54429,1,0,0:0:0:0:
64,192,54500,1,0,0:0:0:0:
448,192,54500,1,0,0:0:0:0:
320,192,54572,1,0,0:0:0:0:
64,192,54643,1,0,0:0:0:0:
192,192,54643,1,0,0:0:0:0:
448,192,54714,1,0,0:0:0:0:
192,192,54786,1,0,0:0:0:0:
320,192,54786,1,0,0:0:0:0:
64,192,54857,1,0,0:0:0:0:
448,192,54929,1,0,0:0:0:0:
192,192,54929,1,0,0:0:0:0:
320,192,55000,1,0,0:0:0:0:
64,192,55072,1,0,0:0:0:0:
448,192,55072,1,0,0:0:0:0:
192,192,55143,1,0,0:0:0:0:
64,192,55214,1,0,0:0:0:0:
320,192,55214,1,0,0:0:0:0:
448,192,55286,1,0,0:0:0:0:
192,192,55357,1,0,0:0:0:0:
320,192,55357,1,0,0:0:0:0:
64,192,55429,1,0,0:0:0:0:
448,192,55500,1,0,0:0:0:0:
192,192,55500,1,0,0:0:0:0:
64,192,55572,1,0,0:0:0:0:
192,192,55643,1,0,0:0:0:0:
320,192,55643,1,0,0:0:0:0:
448,192,55714,1,0,0:0:0:0:
64,192,55786,1,0,0:0:0:0:
320,192,55786,1,0,0:0:0:0:
192,192,55857,1,0,0:0:0:0:
448,192,55929,1,0,0:0:0:0:
320,192,55929,1,0,0:0:0:0:
64,192,56000,1,0,0:0:0:0:
192,192,56072,1,0,0:0:0:0:
320,192,56072,1,0,0:0:0:0:
448,192,56143,1,0,0:0:0:0:
64,192,56214,1,0,0:0:0:0:
320,192,56214,1,0,0:0:0:0:
192,192,56286,1,0,0:0:0:0:
448,192,56357,1,0,0:0:0:0:
320,192,56357,1,0,0:0:0:0:
64,192,56429,1,0,0:0:0:0:
192,192,56500,1,0,0:0:0:0:
448,192,56500,1,0,0:0:0:0:
320,192,56572,1,0,0:0:0:0:
448,192,56643,1,0,0:0:0:0:
64,192,56643,1,0,0:0:0:0:
320,192,56714,1,0,0:0:0:0:
192,192,56786,1,0,0:0:0:0:
448,192,56786,1,0,0:0:0:0:
64,192,56857,1,0,0:0:0:0:
192,192,56929,1,0,0:0:0:0:
320,192,56929,1,0,0:0:0:0:
448,192,57000,1,0,0:0:0:0:
64,192,57072,1,0,0:0:0:0:
192,192,57072,1,0,0:0:0:0:
320,192,57143,1,0,0:0:0:0:
448,192,57214,1,0,0:0:0:0:
64,192,57214,1,0,0:0:0:0:
192,192,57286,1,0,0:0:0:0:
448,192,57357,1,0,0:0:0:0:
320,192,57357,1,0,0:0:0:0:
64,192,57500,1,0,0:0:0:0:
192,192,57500,1,0,0:0:0:0:
64,192,57643,1,0,0:0:0:0:
448,192,57643,1,0,0:0:0:0:
320,192,57643,1,0,0:0:0:0:
192,192,57786,1,0,0:0:0:0:
448,192,57786,1,0,0:0:0:0:
64,192,57929,1,0,0:0:0:0:
320,192,57929,1,0,0:0:0:0:
64,192,58072,1,0,0:0:0:0:
192,192,58072,1,0,0:0:0:0:
448,192,58214,1,0,0:0:0:0:
320,192,58214,1,0,0:0:0:0:
192,192,58214,1,0,0:0:0:0:
64,192,58357,1,0,0:0:0:0:
320,192,58357,1,0,0:0:0:0:
448,192,58500,1,0,0:0:0:0:
320,192,58500,1,0,0:0:0:0:
64,192,58643,1,0,0:0:0:0:
448,192,58643,1,0,0:0:0:0:
64,192,58786,1,0,0:0:0:0:
192,192,58786,1,0,0:0:0:0:
448,192,58786,1,0,0:0:0:0:
64,192,58929,1,0,0:0:0:0:
320,192,58929,1,0,0:0:0:0:
192,192,59072,1,0,0:0:0:0:
448,192,59072,1,0,0:0:0:0:
64,192,59214,1,0,0:0:0:0:
192,192,59214,1,0,0:0:0:0:
448,192,59357,1,0,0:0:0:0:
64,192,59357,1,0,0:0:0:0:
320,192,59357,1,0,0:0:0:0:
192,192,59500,1,0,0:0:0:0:
320,192,59500,1,0,0:0:0:0:
64,192,59643,1,0,0:0:0:0:
448,192,59643,1,0,0:0:0:0:
448,192,59786,1,0,0:0:0:0:
320,192,59786,1,0,0:0:0:0:
64,192,59929,1,0,0:0:0:0:
192,192,59929,1,0,0:0:0:0:
320,192,59929,1,0,0:0:0:0:
64,192,60072,1,0,0:0:0:0:
448,192,60072,1,0,0:0:0:0:
192,192,60214,1,0,0:0:0:0:
448,192,60214,1,0,0:0:0:0:
64,192,60357,1,0,0:0:0:0:
320,192,60357,1,0,0:0:0:0:
448,192,60500,1,0,0:0:0:0:
320,192,60500,1,0,0:0:0:0:
64,192,60500,1,0,0:0:0:0:
448,192,60643,1,0,0:0:0:0:
320,192,60643,1,0,0:0:0:0:
64,192,60786,1,0,0:0:0:0:
192,192,60786,1,0,0:0:0:0:
448,192,60929,1,0,0:0:0:0:
320,192,60929,1,0,0:0:0:0:
64,192,61072,1,0,0:0:0:0:
320,192,61072,1,0,0:0:0:0:
448,192,61072,1,0,0:0:0:0:
192,192,61214,1,0,0:0:0:0:
320,192,61214,1,0,0:0:0:0:
64,192,61357,1,0,0:0:0:0:
192,192,61357,1,0,0:0:0:0:
448,192,61500,1,0,0:0:0:0:
320,192,61500,1,0,0:0:0:0:
192,192,61643,1,0,0:0:0:0:
320,192,61643,1,0,0:0:0:0:
448,192,61643,1,0,0:0:0:0:
64,192,61786,1,0,0:0:0:0:
320,192,61786,1,0,0:0:0:0:
192,192,61929,1,0,0:0:0:0:
448,192,61929,1,0,0:0:0:0:
448,192,62072,1,0,0:0:0:0:
320,192,62072,1,0,0:0:0:0:
64,192,62214,1,0,0:0:0:0:
192,192,62214,1,0,0:0:0:0:
320,192,62214,1,0,0:0:0:0:
448,192,62357,1,0,0:0:0:0:
64,192,62357,1,0,0:0:0:0:
320,192,62500,1,0,0:0:0:0:
448,192,62500,1,0,0:0:0:0:
192,192,62643,1,0,0:0:0:0:
320,192,62643,1,0,0:0:0:0:
64,192,62786,1,0,0:0:0:0:
320,192,62786,1,0,0:0:0:0:
448,192,62786,1,0,0:0:0:0:
64,192,62929,1,0,0:0:0:0:
192,192,62929,1,0,0:0:0:0:
448,192,63072,1,0,0:0:0:0:
320,192,63072,1,0,0:0:0:0:
64,192,63214,1,0,0:0:0:0:
448,192,63214,1,0,0:0:0:0:
64,192,63357,1,0,0:0:0:0:
192,192,63357,1,0,0:0:0:0:
448,192,63357,1,0,0:0:0:0:
448,192,63500,1,0,0:0:0:0:
320,192,63500,1,0,0:0:0:0:
64,192,63643,1,0,0:0:0:0:
192,192,63643,1,0,0:0:0:0:
448,192,63786,1,0,0:0:0:0:
64,192,63786,1,0,0:0:0:0:
448,192,63929,1,0,0:0:0:0:
192,192,63929,1,0,0:0:0:0:
320,192,63929,1,0,0:0:0:0:
64,192,64072,1,0,0:0:0:0:
192,192,64072,1,0,0:0:0:0:
448,192,64214,1,0,0:0:0:0:
320,192,64214,1,0,0:0:0:0:
64,192,64357,1,0,0:0:0:0:
448,192,64357,1,0,0:0:0:0:
64,192,64500,1,0,0:0:0:0:
448,192,64500,1,0,0:0:0:0:
320,192,64500,1,0,0:0:0:0:
192,192,64643,1,0,0:0:0:0:
320,192,64643,1,0,0:0:0:0:
448,192,64786,1,0,0:0:0:0:
64,192,64786,1,0,0:0:0:0:
192,192,64929,1,0,0:0:0:0:
64,192,64929,1,0,0:0:0:0:
448,192,65072,1,0,0:0:0:0:
320,192,65072,1,0,0:0:0:0:
192,192,65072,1,0,0:0:0:0:
64,192,65214,1,0,0:0:0:0:
320,192,65214,1,0,0:0:0:0:
192,192,65357,1,0,0:0:0:0:
448,192,65357,1,0,0:0:0:0:
320,192,65429,1,0,0:0:0:0:
192,192,65500,1,0,0:0:0:0:
64,192,65572,1,0,0:0:0:0:
192,192,65643,1,0,0:0:0:0:
448,192,65643,1,0,0:0:0:0:
64,192,65786,1,0,0:0:0:0:
320,192,65786,1,0,0:0:0:0:
64,192,65929,1,0,0:0:0:0:
192,192,65929,1,0,0:0:0:0:
448,192,65929,1,0,0:0:0:0:
192,192,66072,1,0,0:0:0:0:
320,192,66072,1,0,0:0:0:0:
64,192,66214,1,0,0:0:0:0:
448,192,66214,1,0,0:0:0:0:
64,192,66357,1,0,0:0:0:0:
192,192,66357,1,0,0:0:0:0:
448,192,66357,1,0,0:0:0:0:
64,192,66500,1,0,0:0:0:0:
320,192,66500,1,0,0:0:0:0:
448,192,66500,1,0,0:0:0:0:
192,192,66643,1,0,0:0:0:0:
448,192,66643,1,0,0:0:0:0:
192,192,66786,1,0,0:0:0:0:
448,192,66786,1,0,0:0:0:0:
64,192,66786,1,0,0:0:0:0:
192,192,66929,1,0,0:0:0:0:
320,192,66929,1,0,0:0:0:0:
64,192,67072,1,0,0:0:0:0:
448,192,67072,1,0,0:0:0:0:
192,192,67214,1,0,0:0:0:0:
320,192,67214,1,0,0:0:0:0:
448,192,67357,1,0,0:0:0:0:
64,192,67357,1,0,0:0:0:0:
192,192,67357,1,0,0:0:0:0:
64,192,67500,1,0,0:0:0:0:
192,192,67500,1,0,0:0:0:0:
448,192,67643,1,0,0:0:0:0:
192,192,67643,1,0,0:0:0:0:
64,192,67786,1,0,0:0:0:0:
448,192,67786,1,0,0:0:0:0:
448,192,67929,1,0,0:0:0:0:
320,192,67929,1,0,0:0:0:0:
64,192,67929,1,0,0:0:0:0:
64,192,68072,1,0,0:0:0:0:
192,192,68072,1,0,0:0:0:0:
448,192,68214,1,0,0:0:0:0:
320,192,68214,1,0,0:0:0:0:
64,192,68214,1,0,0:0:0:0:
192,192,68357,1,0,0:0:0:0:
320,192,68357,1,0,0:0:0:0:
448,192,68500,1,0,0:0:0:0:
320,192,68500,1,0,0:0:0:0:
192,192,68500,1,0,0:0:0:0:
64,192,68643,1,0,0:0:0:0:
448,192,68643,1,0,0:0:0:0:
448,192,68786,1,0,0:0:0:0:
192,192,68786,1,0,0:0:0:0:
64,192,68929,1,0,0:0:0:0:
320,192,68929,1,0,0:0:0:0:
448,192,69072,1,0,0:0:0:0:
192,192,69072,1,0,0:0:0:0:
320,192,69072,1,0,0:0:0:0:
64,192,69214,1,0,0:0:0:0:
192,192,69214,1,0,0:0:0:0:
448,192,69357,1,0,0:0:0:0:
64,192,69357,1,0,0:0:0:0:
448,192,69500,1,0,0:0:0:0:
320,192,69500,1,0,0:0:0:0:
64,192,69643,1,0,0:0:0:0:
320,192,69643,1,0,0:0:0:0:
448,192,69643,1,0,0:0:0:0:
192,192,69786,1,0,0:0:0:0:
320,192,69786,1,0,0:0:0:0:
64,192,69929,1,0,0:0:0:0:
320,192,69929,1,0,0:0:0:0:
448,192,70072,1,0,0:0:0:0:
192,192,70072,1,0,0:0:0:0:
64,192,70214,1,0,0:0:0:0:
192,192,70214,1,0,0:0:0:0:
448,192,70214,1,0,0:0:0:0:
192,192,70357,1,0,0:0:0:0:
448,192,70357,1,0,0:0:0:0:
64,192,70500,1,0,0:0:0:0:
320,192,70500,1,0,0:0:0:0:
192,192,70643,1,0,0:0:0:0:
320,192,70643,1,0,0:0:0:0:
64,192,70786,1,0,0:0:0:0:
192,192,70786,1,0,0:0:0:0:
320,192,70786,1,0,0:0:0:0:
448,192,70929,1,0,0:0:0:0:
192,192,70929,1,0,0:0:0:0:
64,192,71072,1,0,0:0:0:0:
320,192,71072,1,0,0:0:0:0:
448,192,71214,1,0,0:0:0:0:
192,192,71214,1,0,0:0:0:0:
64,192,71357,1,0,0:0:0:0:
320,192,71357,1,0,0:0:0:0:
448,192,71357,1,0,0:0:0:0:
64,192,71500,1,0,0:0:0:0:
320,192,71500,1,0,0:0:0:0:
448,192,71643,1,0,0:0:0:0:
192,192,71643,1,0,0:0:0:0:
448,192,71786,1,0,0:0:0:0:
320,192,71786,1,0,0:0:0:0:
64,192,71929,1,0,0:0:0:0:
448,192,71929,1,0,0:0:0:0:
320,192,71929,1,0,0:0:0:0:
192,192,72072,1,0,0:0:0:0:
320,192,72072,1,0,0:0:0:0:
64,192,72214,1,0,0:0:0:0:
320,192,72214,1,0,0:0:0:0:
448,192,72357,1,0,0:0:0:0:
192,192,72357,1,0,0:0:0:0:
192,192,72500,1,0,0:0:0:0:
320,192,72500,1,0,0:0:0:0:
448,192,72500,1,0,0:0:0:0:
64,192,72643,1,0,0:0:0:0:
320,192,72643,1,0,0:0:0:0:
192,192,72786,1,0,0:0:0:0:
448,192,72786,1,0,0:0:0:0:
448,192,72929,1,0,0:0:0:0:
320,192,72929,1,0,0:0:0:0:
64,192,73072,1,0,0:0:0:0:
320,192,73072,1,0,0:0:0:0:
448,192,73072,1,0,0:0:0:0:
64,192,73214,1,0,0:0:0:0:
320,192,73214,1,0,0:0:0:0:
448,192,73357,1,0,0:0:0:0:
192,192,73357,1,0,0:0:0:0:
320,192,73500,1,0,0:0:0:0:
448,192,73500,1,0,0:0:0:0:
64,192,73643,1,0,0:0:0:0:
320,192,73643,1,0,0:0:0:0:
448,192,73643,1,0,0:0:0:0:
192,192,73786,1,0,0:0:0:0:
320,192,73786,1,0,0:0:0:0:
64,192,73929,1,0,0:0:0:0:
192,192,73929,1,0,0:0:0:0:
192,192,74072,1,0,0:0:0:0:
320,192,74072,1,0,0:0:0:0:
64,192,74214,1,0,0:0:0:0:
320,192,74214,1,0,0:0:0:0:
448,192,74214,1,0,0:0:0:0:
64,192,74357,1,0,0:0:0:0:
448,192,74357,1,0,0:0:0:0:
320,192,74500,1,0,0:0:0:0:
448,192,74500,1,0,0:0:0:0:
192,192,74572,1,0,0:0:0:0:
64,192,74643,1,0,0:0:0:0:
448,192,74714,1,0,0:0:0:0:
64,192,74786,1,0,0:0:0:0:
320,192,74786,1,0,0:0:0:0:
192,192,74857,1,0,0:0:0:0:
320,192,74929,1,0,0:0:0:0:
448,192,75000,1,0,0:0:0:0:
64,192,75072,1,0,0:0:0:0:
192,192,75072,1,0,0:0:0:0:
448,192,75143,1,0,0:0:0:0:
320,192,75143,1,0,0:0:0:0:
64,192,75214,1,0,0:0:0:0:
192,192,75214,1,0,0:0:0:0:
448,192,75286,1,0,0:0:0:0:
320,192,75286,1,0,0:0:0:0:
64,192,75357,1,0,0:0:0:0:
192,192,75357,1,0,0:0:0:0:
320,192,75429,1,0,0:0:0:0:
448,192,75429,1,0,0:0:0:0:
64,192,75500,1,0,0:0:0:0:
192,192,75500,1,0,0:0:0:0:
320,192,75572,1,0,0:0:0:0:
448,192,75572,1,0,0:0:0:0:
64,192,75643,1,0,0:0:0:0:
192,192,75643,1,0,0:0:0:0:
320,192,75714,1,0,0:0:0:0:
448,192,75786,1,0,0:0:0:0:
192,192,75786,1,0,0:0:0:0:
320,192,75857,1,0,0:0:0:0:
64,192,75929,1,0,0:0:0:0:
448,192,75929,1,0,0:0:0:0:
192,192,76000,1,0,0:0:0:0:
64,192,76072,1,0,0:0:0:0:
320,192,76072,1,0,0:0:0:0:
448,192,76143,1,0,0:0:0:0:
64,192,76214,1,0,0:0:0:0:
192,192,76214,1,0,0:0:0:0:
320,192,76286,1,0,0:0:0:0:
448,192,76357,1,0,0:0:0:0:
64,192,76357,1,0,0:0:0:0:
192,192,76429,1,0,0:0:0:0:
64,192,76500,1,0,0:0:0:0:
320,192,76500,1,0,0:0:0:0:
448,192,76572,1,0,0:0:0:0:
192,192,76643,1,0,0:0:0:0:
320,192,76643,1,0,0:0:0:0:
64,192,76714,1,0,0:0:0:0:
448,192,76786,1,0,0:0:0:0:
320,192,76786,1,0,0:0:0:0:
64,192,76857,1,0,0:0:0:0:
192,192,76929,1,0,0:0:0:0:
448,192,76929,1,0,0:0:0:0:
320,192,77000,1,0,0:0:0:0:
64,192,77072,1,0,0:0:0:0:
448,192,77072,1,0,0:0:0:0:
320,192,77143,1,0,0:0:0:0:
64,192,77214,1,0,0:0:0:0:
192,192,77214,1,0,0:0:0:0:
448,192,77286,1,0,0:0:0:0:
320,192,77357,1,0,0:0:0:0:
192,192,77357,1,0,0:0:0:0:
64,192,77429,1,0,0:0:0:0:
448,192,77500,1,0,0:0:0:0:
320,192,77500,1,0,0:0:0:0:
192,192,77572,1,0,0:0:0:0:
64,192,77643,1,0,0:0:0:0:
320,192,77643,1,0,0:0:0:0:
448,192,77714,1,0,0:0:0:0:
64,192,77786,1,0,0:0:0:0:
192,192,77786,1,0,0:0:0:0:
320,192,77857,1,0,0:0:0:0:
192,192,77929,1,0,0:0:0:0:
448,192,77929,1,0,0:0:0:0:
320,192,78000,1,0,0:0:0:0:
64,192,78072,1,0,0:0:0:0:
192,192,78072,1,0,0:0:0:0:
448,192,78143,1,0,0:0:0:0:
320,192,78214,1,0,0:0:0:0:
64,192,78214,1,0,0:0:0:0:
192,192,78286,1,0,0:0:0:0:
320,192,78357,1,0,0:0:0:0:
448,192,78357,1,0,0:0:0:0:
64,192,78429,1,0,0:0:0:0:
192,192,78500,1,0,0:0:0:0:
320,192,78500,1,0,0:0:0:0:
448,192,78572,1,0,0:0:0:0:
64,192,78643,1,0,0:0:0:0:
192,192,78643,1,0,0:0:0:0:
448,192,78714,1,0,0:0:0:0:
64,192,78786,1,0,0:0:0:0:
320,192,78786,1,0,0:0:0:0:
192,192,78857,1,0,0:0:0:0:
64,192,78929,1,0,0:0:0:0:
448,192,78929,1,0,0:0:0:0:
320,192,79000,1,0,0:0:0:0:
192,192,79072,1,0,0:0:0:0:
448,192,79072,1,0,0:0:0:0:
64,192,79143,1,0,0:0:0:0:
320,192,79214,1,0,0:0:0:0:
448,192,79214,1,0,0:0:0:0:
192,192,79286,1,0,0:0:0:0:
64,192,79357,1,0,0:0:0:0:
448,192,79357,1,0,0:0:0:0:
320,192,79429,1,0,0:0:0:0:
64,192,79500,1,0,0:0:0:0:
448,192,79500,1,0,0:0:0:0:
192,192,79572,1,0,0:0:0:0:
64,192,79643,1,0,0:0:0:0:
320,192,79643,1,0,0:0:0:0:
448,192,79714,1,0,0:0:0:0:
192,192,79786,1,0,0:0:0:0:
320,192,79786,1,0,0:0:0:0:
64,192,79857,1,0,0:0:0:0:
448,192,79929,1,0,0:0:0:0:
320,192,79929,1,0,0:0:0:0:
192,192,80000,1,0,0:0:0:0:
64,192,80072,1,0,0:0:0:0:
320,192,80072,1,0,0:0:0:0:
192,192,80143,1,0,0:0:0:0:
448,192,80214,1,0,0:0:0:0:
64,192,80214,1,0,0:0:0:0:
320,192,80286,1,0,0:0:0:0:
192,192,80357,1,0,0:0:0:0:
448,192,80357,1,0,0:0:0:0:
64,192,80429,1,0,0:0:0:0:
448,192,80500,1,0,0:0:0:0:
320,192,80500,1,0,0:0:0:0:
192,192,80572,1,0,0:0:0:0:
448,192,80643,1,0,0:0:0:0:
320,192,80643,1,0,0:0:0:0:
64,192,80714,1,0,0:0:0:0:
192,192,80786,1,0,0:0:0:0:
320,192,80786,1,0,0:0:0:0:
448,192,80857,1,0,0:0:0:0:
64,192,80929,1,0,0:0:0:0:
192,192,80929,1,0,0:0:0:0:
320,192,81000,1,0,0:0:0:0:
448,192,81072,1,0,0:0:0:0:
64,192,81072,1,0,0:0:0:0:
192,192,81143,1,0,0:0:0:0:
448,192,81214,1,0,0:0:0:0:
64,192,81214,1,0,0:0:0:0:
320,192,81286,1,0,0:0:0:0:
192,192,81357,1,0,0:0:0:0:
448,192,81357,1,0,0:0:0:0:
64,192,81429,1,0,0:0:0:0:
448,192,81500,1,0,0:0:0:0:
320,192,81500,1,0,0:0:0:0:
192,192,81572,1,0,0:0:0:0:
64,192,81643,1,0,0:0:0:0:
320,192,81643,1,0,0:0:0:0:
448,192,81714,1,0,0:0:0:0:
192,192,81786,1,0,0:0:0:0:
320,192,81786,1,0,0:0:0:0:
64,192,81857,1,0,0:0:0:0:
448,192,81929,1,0,0:0:0:0:
320,192,81929,1,0,0:0:0:0:
192,192,82000,1,0,0:0:0:0:
64,192,82072,1,0,0:0:0:0:
320,192,82072,1,0,0:0:0:0:
448,192,82143,1,0,0:0:0:0:
192,192,82214,1,0,0:0:0:0:
64,192,82214,1,0,0:0:0:0:
320,192,82286,1,0,0:0:0:0:
448,192,82357,1,0,0:0:0:0:
192,192,82357,1,0,0:0:0:0:
64,192,82429,1,0,0:0:0:0:
448,192,82500,1,0,0:0:0:0:
320,192,82500,1,0,0:0:0:0:
192,192,82572,1,0,0:0:0:0:
64,192,82643,1,0,0:0:0:0:
320,192,82643,1,0,0:0:0:0:
448,192,82714,1,0,0:0:0:0:
64,192,82786,1,0,0:0:0:0:
192,192,82786,1,0,0:0:0:0:
448,192,82857,1,0,0:0:0:0:
192,192,82929,1,0,0:0:0:0:
320,192,82929,1,0,0:0:0:0:
64,192,83000,1,0,0:0:0:0:
448,192,83072,1,0,0:0:0:0:
192,192,83072,1,0,0:0:0:0:
320,192,83143,1,0,0:0:0:0:
64,192,83214,1,0,0:0:0:0:
448,192,83214,1,0,0:0:0:0:
192,192,83286,1,0,0:0:0:0:
64,192,83357,1,0,0:0:0:0:
448,192,83357,1,0,0:0:0:0:
320,192,83429,1,0,0:0:0:0:
64,192,83500,1,0,0:0:0:0:
192,192,83500,1,0,0:0:0:0:
448,192,83572,1,0,0:0:0:0:
320,192,83643,1,0,0:0:0:0:
192,192,83643,1,0,0:0:0:0:
64,192,83714,1,0,0:0:0:0:
448,192,83786,1,0,0:0:0:0:
192,192,83786,1,0,0:0:0:0:
320,192,83857,1,0,0:0:0:0:
64,192,83929,1,0,0:0:0:0:
192,192,83929,1,0,0:0:0:0:
448,192,84000,1,0,0:0:0:0:
192,192,84072,1,0,0:0:0:0:
320,192,84072,1,0,0:0:0:0:
64,192,84143,1,0,0:0:0:0:
448,192,84214,1,0,0:0:0:0:
192,192,84214,1,0,0:0:0:0:
320,192,84286,1,0,0:0:0:0:
64,192,84357,1,0,0:0:0:0:
448,192,84357,1,0,0:0:0:0:
192,192,84429,1,0,0:0:0:0:
448,192,84500,1,0,0:0:0:0:
320,192,84500,1,0,0:0:0:0:
64,192,84572,1,0,0:0:0:0:
192,192,84643,1,0,0:0:0:0:
448,192,84643,1,0,0:0:0:0:
320,192,84714,1,0,0:0:0:0:
64,192,84786,1,0,0:0:0:0:
448,192,84786,1,0,0:0:0:0:
192,192,84857,1,0,0:0:0:0:
448,192,84929,1,0,0:0:0:0:
320,192,84929,1,0,0:0:0:0:
64,192,85000,1,0,0:0:0:0:
192,192,85072,1,0,0:0:0:0:
320,192,85072,1,0,0:0:0:0:
448,192,85143,1,0,0:0:0:0:
64,192,85214,1,0,0:0:0:0:
320,192,85214,1,0,0:0:0:0:
192,192,85286,1,0,0:0:0:0:
448,192,85357,1,0,0:0:0:0:
64,192,85357,1,0,0:0:0:0:
320,192,85429,1,0,0:0:0:0:
448,192,85500,1,0,0:0:0:0:
192,192,85500,1,0,0:0:0:0:
64,192,85572,1,0,0:0:0:0:
448,192,85643,1,0,0:0:0:0:
320,192,85643,1,0,0:0:0:0:
192,192,85714,1,0,0:0:0:0:
64,192,85786,1,0,0:0:0:0:
448,192,85786,1,0,0:0:0:0:
320,192,85857,1,0,0:0:0:0:
64,192,85929,1,0,0:0:0:0:
192,192,85929,1,0,0:0:0:0:
448,192,86000,1,0,0:0:0:0:
64,192,86072,1,0,0:0:0:0:
320,192,86072,1,0,0:0:0:0:
192,192,86143,1,0,0:0:0:0:
64,192,86214,1,0,0:0:0:0:
448,192,86214,1,0,0:0:0:0:
320,192,86286,1,0,0:0:0:0:
192,192,86357,1,0,0:0:0:0:
448,192,86357,1,0,0:0:0:0:
64,192,86429,1,0,0:0:0:0:
448,192,86500,1,0,0:0:0:0:
320,192,86500,1,0,0:0:0:0:
192,192,86572,1,0,0:0:0:0:
64,192,86643,1,0,0:0:0:0:
448,192,86643,1,0,0:0:0:0:
320,192,86714,1,0,0:0:0:0:
192,192,86786,1,0,0:0:0:0:
448,192,86786,1,0,0:0:0:0:
64,192,86857,1,0,0:0:0:0:
448,192,86929,1,0,0:0:0:0:
320,192,86929,1,0,0:0:0:0:
192,192,87000,1,0,0:0:0:0:
64,192,87072,1,0,0:0:0:0:
448,192,87072,1,0,0:0:0:0:
320,192,87143,1,0,0:0:0:0:
192,192,87214,1,0,0:0:0:0:
448,192,87214,1,0,0:0:0:0:
64,192,87286,1,0,0:0:0:0:
448,192,87357,1,0,0:0:0:0:
320,192,87357,1,0,0:0:0:0:
192,192,87429,1,0,0:0:0:0:
64,192,87500,1,0,0:0:0:0:
448,192,87500,1,0,0:0:0:0:
320,192,87572,1,0,0:0:0:0:
64,192,87643,1,0,0:0:0:0:
192,192,87643,1,0,0:0:0:0:
448,192,87714,1,0,0:0:0:0:
64,192,87786,1,0,0:0:0:0:
192,192,87786,1,0,0:0:0:0:
320,192,87857,1,0,0:0:0:0:
192,192,87929,1,0,0:0:0:0:
448,192,87929,1,0,0:0:0:0:
320,192,88000,1,0,0:0:0:0:
64,192,88072,1,0,0:0:0:0:
448,192,88072,1,0,0:0:0:0:
192,192,88143,1,0,0:0:0:0:
448,192,88214,1,0,0:0:0:0:
320,192,88214,1,0,0:0:0:0:
64,192,88286,1,0,0:0:0:0:
192,192,88357,1,0,0:0:0:0:
448,192,88357,1,0,0:0:0:0:
64,192,88429,1,0,0:0:0:0:
192,192,88500,1,0,0:0:0:0:
320,192,88500,1,0,0:0:0:0:
448,192,88572,1,0,0:0:0:0:
64,192,88643,1,0,0:0:0:0:
192,192,88643,1,0,0:0:0:0:
448,192,88714,1,0,0:0:0:0:
320,192,88786,1,0,0:0:0:0:
192,192,88786,1,0,0:0:0:0:
64,192,88857,1,0,0:0:0:0:
320,192,88929,1,0,0:0:0:0:
448,192,88929,1,0,0:0:0:0:
192,192,89000,1,0,0:0:0:0:
448,192,89072,1,0,0:0:0:0:
320,192,89072,1,0,0:0:0:0:
192,192,89143,1,0,0:0:0:0:
320,192,89214,1,0,0:0:0:0:
64,192,89214,1,0,0:0:0:0:
448,192,89286,1,0,0:0:0:0:
320,192,89357,1,0,0:0:0:0:
192,192,89357,1,0,0:0:0:0:
64,192,89429,1,0,0:0:0:0:
320,192,89500,1,0,0:0:0:0:
448,192,89500,1,0,0:0:0:0:
192,192,89572,1,0,0:0:0:0:
64,192,89643,1,0,0:0:0:0:
448,192,89643,1,0,0:0:0:0:
320,192,89714,1,0,0:0:0:0:
192,192,89786,1,0,0:0:0:0:
64,192,89786,1,0,0:0:0:0:
448,192,89857,1,0,0:0:0:0:
192,192,89929,1,0,0:0:0:0:
320,192,89929,1,0,0:0:0:0:
64,192,90000,1,0,0:0:0:0:
320,192,90072,1,0,0:0:0:0:
448,192,90072,1,0,0:0:0:0:
192,192,90143,1,0,0:0:0:0:
320,192,90214,1,0,0:0:0:0:
64,192,90214,1,0,0:0:0:0:
448,192,90286,1,0,0:0:0:0:
192,192,90357,1,0,0:0:0:0:
64,192,90357,1,0,0:0:0:0:
320,192,90429,1,0,0:0:0:0:
192,192,90500,1,0,0:0:0:0:
64,192,90500,1,0,0:0:0:0:
448,192,90572,1,0,0:0:0:0:
320,192,90643,1,0,0:0:0:0:
64,192,90643,1,0,0:0:0:0:
192,192,90714,1,0,0:0:0:0:
320,192,90786,1,0,0:0:0:0:
448,192,90786,1,0,0:0:0:0:
64,192,90857,1,0,0:0:0:0:
192,192,90929,1,0,0:0:0:0:
448,192,90929,1,0,0:0:0:0:
320,192,91000,1,0,0:0:0:0:
448,192,91072,1,0,0:0:0:0:
64,192,91072,1,0,0:0:0:0:
192,192,91143,1,0,0:0:0:0:
448,192,91214,1,0,0:0:0:0:
320,192,91214,1,0,0:0:0:0:
64,192,91286,1,0,0:0:0:0:
448,192,91357,1,0,0:0:0:0:
192,192,91357,1,0,0:0:0:0:
320,192,91429,1,0,0:0:0:0:
192,192,91500,1,0,0:0:0:0:
64,192,91500,1,0,0:0:0:0:
448,192,91572,1,0,0:0:0:0:
320,192,91643,1,0,0:0:0:0:
192,192,91643,1,0,0:0:0:0:
64,192,91714,1,0,0:0:0:0:
320,192,91786,1,0,0:0:0:0:
192,192,91786,1,0,0:0:0:0:
448,192,91857,1,0,0:0:0:0:
320,192,91929,1,0,0:0:0:0:
64,192,91929,1,0,0:0:0:0:
192,192,92000,1,0,0:0:0:0:
320,192,92072,1,0,0:0:0:0:
448,192,92072,1,0,0:0:0:0:
64,192,92143,1,0,0:0:0:0:
448,192,92214,1,0,0:0:0:0:
320,192,92214,1,0,0:0:0:0:
192,192,92286,1,0,0:0:0:0:
320,192,92357,1,0,0:0:0:0:
64,192,92357,1,0,0:0:0:0:
192,192,92429,1,0,0:0:0:0:
320,192,92500,1,0,0:0:0:0:
448,192,92500,1,0,0:0:0:0:
64,192,92572,1,0,0:0:0:0:
448,192,92643,1,0,0:0:0:0:
192,192,92643,1,0,0:0:0:0:
320,192,92714,1,0,0:0:0:0:
448,192,92786,1,0,0:0:0:0:
64,192,92786,1,0,0:0:0:0:
192,192,92857,1,0,0:0:0:0:
320,192,92929,1,0,0:0:0:0:
64,192,92929,1,0,0:0:0:0:
448,192,93000,1,0,0:0:0:0:
320,192,93072,1,0,0:0:0:0:
192,192,93072,1,0,0:0:0:0:
64,192,93143,1,0,0:0:0:0:
320,192,93214,1,0,0:0:0:0:
448,192,93214,1,0,0:0:0:0:
64,192,93286,1,0,0:0:0:0:
320,192,93357,1,0,0:0:0:0:
192,192,93357,1,0,0:0:0:0:
448,192,93429,1,0,0:0:0:0:
320,192,93500,1,0,0:0:0:0:
64,192,93500,1,0,0:0:0:0:
192,192,93572,1,0,0:0:0:0:
64,192,93643,1,0,0:0:0:0:
448,192,93643,1,0,0:0:0:0:
320,192,93714,1,0,0:0:0:0:
448,192,93786,1,0,0:0:0:0:
192,192,93786,1,0,0:0:0:0:
320,192,93857,1,0,0:0:0:0:
192,192,93929,1,0,0:0:0:0:
64,192,93929,1,0,0:0:0:0:
320,192,94072,1,0,0:0:0:0:
448,192,94072,1,0,0:0:0:0:
448,192,94214,1,0,0:0:0:0:
320,192,94214,1,0,0:0:0:0:
64,192,94214,1,0,0:0:0:0:
320,192,94357,1,0,0:0:0:0:
64,192,94357,1,0,0:0:0:0:
192,192,94500,1,0,0:0:0:0:
448,192,94500,1,0,0:0:0:0:
448,192,94643,1,0,0:0:0:0:
320,192,94643,1,0,0:0:0:0:
448,192,94786,1,0,0:0:0:0:
320,192,94786,1,0,0:0:0:0:
192,192,94786,1,0,0:0:0:0:
320,192,94929,1,0,0:0:0:0:
64,192,94929,1,0,0:0:0:0:
192,192,95072,1,0,0:0:0:0:
64,192,95072,1,0,0:0:0:0:
320,192,95214,1,0,0:0:0:0:
192,192,95214,1,0,0:0:0:0:
448,192,95357,1,0,0:0:0:0:
192,192,95357,1,0,0:0:0:0:
64,192,95357,1,0,0:0:0:0:
192,192,95500,1,0,0:0:0:0:
448,192,95500,1,0,0:0:0:0:
448,192,95643,1,0,0:0:0:0:
320,192,95643,1,0,0:0:0:0:
192,192,95786,1,0,0:0:0:0:
64,192,95786,1,0,0:0:0:0:
320,192,95929,1,0,0:0:0:0:
192,192,95929,1,0,0:0:0:0:
64,192,95929,1,0,0:0:0:0:
64,192,96072,1,0,0:0:0:0:
448,192,96072,1,0,0:0:0:0:
448,192,96214,1,0,0:0:0:0:
320,192,96214,1,0,0:0:0:0:
320,192,96357,1,0,0:0:0:0:
192,192,96357,1,0,0:0:0:0:
320,192,96500,1,0,0:0:0:0:
448,192,96500,1,0,0:0:0:0:
64,192,96500,1,0,0:0:0:0:
320,192,96643,1,0,0:0:0:0:
192,192,96643,1,0,0:0:0:0:
192,192,96786,1,0,0:0:0:0:
64,192,96786,1,0,0:0:0:0:
320,192,96929,1,0,0:0:0:0:
448,192,96929,1,0,0:0:0:0:
320,192,97072,1,0,0:0:0:0:
192,192,97072,1,0,0:0:0:0:
64,192,97072,1,0,0:0:0:0:
192,192,97214,1,0,0:0:0:0:
448,192,97214,1,0,0:0:0:0:
448,192,97357,1,0,0:0:0:0:
320,192,97357,1,0,0:0:0:0:
448,192,97500,1,0,0:0:0:0:
192,192,97500,1,0,0:0:0:0:
448,192,97643,1,0,0:0:0:0:
192,192,97643,1,0,0:0:0:0:
64,192,97643,1,0,0:0:0:0:
448,192,97786,1,0,0:0:0:0:
320,192,97786,1,0,0:0:0:0:
320,192,97929,1,0,0:0:0:0:
192,192,97929,1,0,0:0:0:0:
192,192,98072,1,0,0:0:0:0:
64,192,98072,1,0,0:0:0:0:
320,192,98214,1,0,0:0:0:0:
448,192,98214,1,0,0:0:0:0:
64,192,98214,1,0,0:0:0:0:
320,192,98357,1,0,0:0:0:0:
192,192,98357,1,0,0:0:0:0:
448,192,98500,1,0,0:0:0:0:
64,192,98500,1,0,0:0:0:0:
192,192,98643,1,0,0:0:0:0:
64,192,98643,1,0,0:0:0:0:
448,192,98786,1,0,0:0:0:0:
320,192,98786,1,0,0:0:0:0:
64,192,98786,1,0,0:0:0:0:
320,192,98929,1,0,0:0:0:0:
64,192,98929,1,0,0:0:0:0:
192,192,99072,1,0,0:0:0:0:
448,192,99072,1,0,0:0:0:0:
320,192,99214,1,0,0:0:0:0:
64,192,99214,1,0,0:0:0:0:
192,192,99357,1,0,0:0:0:0:
320,192,99357,1,0,0:0:0:0:
448,192,99357,1,0,0:0:0:0:
192,192,99500,1,0,0:0:0:0:
64,192,99500,1,0,0:0:0:0:
320,192,99643,1,0,0:0:0:0:
448,192,99643,1,0,0:0:0:0:
320,192,99786,1,0,0:0:0:0:
64,192,99786,1,0,0:0:0:0:
64,192,99929,1,0,0:0:0:0:
192,192,99929,1,0,0:0:0:0:
320,192,99929,1,0,0:0:0:0:
320,192,100072,1,0,0:0:0:0:
64,192,100072,1,0,0:0:0:0:
320,192,100214,1,0,0:0:0:0:
448,192,100214,1,0,0:0:0:0:
448,192,100357,1,0,0:0:0:0:
64,192,100357,1,0,0:0:0:0:
448,192,100500,1,0,0:0:0:0:
320,192,100500,1,0,0:0:0:0:
64,192,100500,1,0,0:0:0:0:
192,192,100643,1,0,0:0:0:0:
64,192,100643,1,0,0:0:0:0:
448,192,100786,1,0,0:0:0:0:
320,192,100786,1,0,0:0:0:0:
64,192,100929,1,0,0:0:0:0:
320,192,100929,1,0,0:0:0:0:
448,192,101072,1,0,0:0:0:0:
320,192,101072,1,0,0:0:0:0:
192,192,101072,1,0,0:0:0:0:
64,192,101214,1,0,0:0:0:0:
448,192,101214,1,0,0:0:0:0:
64,192,101357,1,0,0:0:0:0:
192,192,101357,1,0,0:0:0:0:
192,192,101500,1,0,0:0:0:0:
320,192,101500,1,0,0:0:0:0:
64,192,101643,1,0,0:0:0:0:
192,192,101643,1,0,0:0:0:0:
320,192,101643,1,0,0:0:0:0:
448,192,101786,1,0,0:0:0:0:
320,192,101786,1,0,0:0:0:0:
64,192,101929,1,0,0:0:0:0:
192,192,101929,1,0,0:0:0:0:
320,192,102000,1,0,0:0:0:0:
448,192,102072,1,0,0:0:0:0:
320,192,102143,1,0,0:0:0:0:
64,192,102214,1,0,0:0:0:0:
448,192,102214,1,0,0:0:0:0:
64,192,102357,1,0,0:0:0:0:
320,192,102357,1,0,0:0:0:0:
448,192,102500,1,0,0:0:0:0:
320,192,102500,1,0,0:0:0:0:
64,192,102500,1,0,0:0:0:0:
64,192,102643,1,0,0:0:0:0:
192,192,102643,1,0,0:0:0:0:
448,192,102643,1,0,0:0:0:0:
192,192,102786,1,0,0:0:0:0:
320,192,102786,1,0,0:0:0:0:
448,192,102786,1,0,0:0:0:0:
64,192,102929,1,0,0:0:0:0:
192,192,102929,1,0,0:0:0:0:
320,192,102929,1,0,0:0:0:0:
448,192,103072,1,0,0:0:0:0:
320,192,103072,1,0,0:0:0:0:
64,192,103214,1,0,0:0:0:0:
192,192,103214,1,0,0:0:0:0:
64,192,103357,1,0,0:0:0:0:
320,192,103357,1,0,0:0:0:0:
448,192,103357,1,0,0:0:0:0:
192,192,103500,1,0,0:0:0:0:
320,192,103500,1,0,0:0:0:0:
448,192,103643,1,0,0:0:0:0:
64,192,103643,1,0,0:0:0:0:
192,192,103786,1,0,0:0:0:0:
64,192,103786,1,0,0:0:0:0:
64,192,103929,1,0,0:0:0:0:
192,192,103929,1,0,0:0:0:0:
448,192,103929,1,0,0:0:0:0:
320,192,104072,1,0,0:0:0:0:
448,192,104072,1,0,0:0:0:0:
320,192,104214,1,0,0:0:0:0:
64,192,104214,1,0,0:0:0:0:
192,192,104357,1,0,0:0:0:0:
64,192,104357,1,0,0:0:0:0:
320,192,104500,1,0,0:0:0:0:
192,192,104500,1,0,0:0:0:0:
448,192,104500,1,0,0:0:0:0:
320,192,104643,1,0,0:0:0:0:
64,192,104643,1,0,0:0:0:0:
320,192,104786,1,0,0:0:0:0:
448,192,104786,1,0,0:0:0:0:
448,192,104929,1,0,0:0:0:0:
192,192,104929,1,0,0:0:0:0:
320,192,105072,1,0,0:0:0:0:
448,192,105072,1,0,0:0:0:0:
64,192,105072,1,0,0:0:0:0:
192,192,105214,1,0,0:0:0:0:
64,192,105214,1,0,0:0:0:0:
320,192,105357,1,0,0:0:0:0:
448,192,105357,1,0,0:0:0:0:
192,192,105500,1,0,0:0:0:0:
64,192,105500,1,0,0:0:0:0:
64,192,105643,1,0,0:0:0:0:
192,192,105643,1,0,0:0:0:0:
448,192,105643,1,0,0:0:0:0:
192,192,105786,1,0,0:0:0:0:
448,192,105786,1,0,0:0:0:0:
320,192,105929,1,0,0:0:0:0:
64,192,105929,1,0,0:0:0:0:
320,192,106072,1,0,0:0:0:0:
192,192,106072,1,0,0:0:0:0:
448,192,106214,1,0,0:0:0:0:
320,192,106214,1,0,0:0:0:0:
64,192,106214,1,0,0:0:0:0:
192,192,106357,1,0,0:0:0:0:
64,192,106357,1,0,0:0:0:0:
320,192,106500,1,0,0:0:0:0:
448,192,106500,1,0,0:0:0:0:
320,192,106643,1,0,0:0:0:0:
64,192,106643,1,0,0:0:0:0:
448,192,106786,1,0,0:0:0:0:
320,192,106786,1,0,0:0:0:0:
64,192,106786,1,0,0:0:0:0:
192,192,106929,1,0,0:0:0:0:
64,192,106929,1,0,0:0:0:0:
320,192,107072,1,0,0:0:0:0:
448,192,107072,1,0,0:0:0:0:
320,192,107214,1,0,0:0:0:0:
192,192,107214,1,0,0:0:0:0:
320,192,107357,1,0,0:0:0:0:
192,192,107357,1,0,0:0:0:0:
64,192,107357,1,0,0:0:0:0:
192,192,107500,1,0,0:0:0:0:
448,192,107500,1,0,0:0:0:0:
320,192,107643,1,0,0:0:0:0:
64,192,107643,1,0,0:0:0:0:
192,192,107786,1,0,0:0:0:0:
64,192,107786,1,0,0:0:0:0:
192,192,107929,1,0,0:0:0:0:
320,192,107929,1,0,0:0:0:0:
448,192,107929,1,0,0:0:0:0:
320,192,108072,1,0,0:0:0:0:
64,192,108072,1,0,0:0:0:0:
320,192,108214,1,0,0:0:0:0:
448,192,108214,1,0,0:0:0:0:
192,192,108357,1,0,0:0:0:0:
64,192,108357,1,0,0:0:0:0:
64,192,108500,1,0,0:0:0:0:
320,192,108500,1,0,0:0:0:0:
448,192,108500,1,0,0:0:0:0:
448,192,108643,1,0,0:0:0:0:
64,192,108643,1,0,0:0:0:0:
320,192,108786,1,0,0:0:0:0:
192,192,108786,1,0,0:0:0:0:
192,192,108929,1,0,0:0:0:0:
64,192,108929,1,0,0:0:0:0:
64,192,109072,1,0,0:0:0:0:
320,192,109072,1,0,0:0:0:0:
448,192,109072,1,0,0:0:0:0:
320,192,109214,1,0,0:0:0:0:
192,192,109214,1,0,0:0:0:0:
64,192,109357,1,0,0:0:0:0:
448,192,109357,1,0,0:0:0:0:
448,192,109500,1,0,0:0:0:0:
320,192,109500,1,0,0:0:0:0:
320,192,109643,1,0,0:0:0:0:
192,192,109643,1,0,0:0:0:0:
64,192,109643,1,0,0:0:0:0:
320,192,109786,1,0,0:0:0:0:
448,192,109786,1,0,0:0:0:0:
320,192,109929,1,0,0:0:0:0:
64,192,109929,1,0,0:0:0:0:
448,192,110072,1,0,0:0:0:0:
64,192,110072,1,0,0:0:0:0:
448,192,110214,1,0,0:0:0:0:
320,192,110214,1,0,0:0:0:0:
192,192,110214,1,0,0:0:0:0:
320,192,110357,1,0,0:0:0:0:
64,192,110357,1,0,0:0:0:0:
64,192,110500,1,0,0:0:0:0:
192,192,110500,1,0,0:0:0:0:
448,192,110643,1,0,0:0:0:0:
64,192,110643,1,0,0:0:0:0:
64,192,110786,1,0,0:0:0:0:
192,192,110786,1,0,0:0:0:0:
320,192,110786,1,0,0:0:0:0:
320,192,110929,5,0,0:0:0:0:
448,192,110929,1,0,0:0:0:0:
64,192,111072,5,0,0:0:0:0:
192,192,111072,1,0,0:0:0:0:
448,192,111143,1,0,0:0:0:0:
320,192,111214,1,0,0:0:0:0:
192,192,111286,1,0,0:0:0:0:
320,192,111357,1,0,0:0:0:0:
64,192,111357,1,0,0:0:0:0:
320,192,111500,1,0,0:0:0:0:
64,192,111500,1,0,0:0:0:0:
448,192,111500,1,0,0:0:0:0:
448,192,111643,1,0,0:0:0:0:
192,192,111643,1,0,0:0:0:0:
64,192,111643,1,0,0:0:0:0:
320,192,111786,1,0,0:0:0:0:
192,192,111786,1,0,0:0:0:0:
64,192,111786,1,0,0:0:0:0:
192,192,111929,1,0,0:0:0:0:
320,192,111929,1,0,0:0:0:0:
448,192,111929,1,0,0:0:0:0:
64,192,112072,5,0,0:0:0:0:
192,192,112072,1,0,0:0:0:0:
64,192,112214,128,0,113357:0:0:0:0:
448,192,112214,128,0,112357:0:0:0:0:
320,192,112357,128,0,112500:0:0:0:0:
448,192,112500,128,0,112643:0:0:0:0:
192,192,112643,128,0,112786:0:0:0:0:
320,192,112786,128,0,112929:0:0:0:0:
448,192,112929,128,0,113072:0:0:0:0:
192,192,113072,128,0,113214:0:0:0:0:
448,192,113214,128,0,113357:0:0:0:0:
320,192,113357,128,0,113500:0:0:0:0:
192,192,113357,128,0,114500:0:0:0:0:
448,192,113500,128,0,113643:0:0:0:0:
64,192,113643,128,0,113786:0:0:0:0:
448,192,113786,128,0,113929:0:0:0:0:
64,192,113929,128,0,114072:0:0:0:0:
320,192,114072,128,0,114214:0:0:0:0:
448,192,114214,128,0,114357:0:0:0:0:
64,192,114357,128,0,114500:0:0:0:0:
320,192,114500,128,0,115643:0:0:0:0:
448,192,114500,128,0,114643:0:0:0:0:
192,192,114643,128,0,114786:0:0:0:0:
64,192,114786,128,0,114929:0:0:0:0:
448,192,114929,128,0,115072:0:0:0:0:
64,192,115072,128,0,115214:0:0:0:0:
192,192,115214,128,0,115357:0:0:0:0:
448,192,115357,128,0,115500:0:0:0:0:
192,192,115500,128,0,115643:0:0:0:0:
448,192,115643,128,0,115786:0:0:0:0:
192,192,115786,128,0,115929:0:0:0:0:
64,192,115786,1,0,0:0:0:0:
448,192,115929,128,0,116072:0:0:0:0:
320,192,115929,1,0,0:0:0:0:
192,192,116072,128,0,116214:0:0:0:0:
64,192,116072,1,0,0:0:0:0:
320,192,116214,128,0,116357:0:0:0:0:
448,192,116214,1,0,0:0:0:0:
64,192,116357,128,0,116500:0:0:0:0:
192,192,116357,1,0,0:0:0:0:
448,192,116500,128,0,116643:0:0:0:0:
320,192,116500,1,0,0:0:0:0:
320,192,116643,128,0,116786:0:0:0:0:
192,192,116643,1,0,0:0:0:0:
64,192,116786,1,0,0:0:0:0:
448,192,116786,1,0,0:0:0:0:
192,192,116857,1,0,0:0:0:0:
320,192,116929,1,0,0:0:0:0:
448,192,117000,1,0,0:0:0:0:
320,192,117072,128,0,117214:0:0:0:0:
64,192,117072,1,0,0:0:0:0:
192,192,117214,128,0,117357:0:0:0:0:
320,192,117357,128,0,117500:0:0:0:0:
192,192,117500,128,0,117643:0:0:0:0:
448,192,117643,1,0,0:0:0:0:
64,192,117643,1,0,0:0:0:0:
320,192,117714,1,0,0:0:0:0:
448,192,117786,1,0,0:0:0:0:
320,192,117857,1,0,0:0:0:0:
64,192,117929,128,0,118072:0:0:0:0:
448,192,118072,128,0,118214:0:0:0:0:
64,192,118214,128,0,118357:0:0:0:0:
192,192,118214,1,0,0:0:0:0:
448,192,118357,128,0,118500:0:0:0:0:
192,192,118500,128,0,118643:0:0:0:0:
448,192,118643,128,0,118786:0:0:0:0:
64,192,118786,128,0,118929:0:0:0:0:
448,192,118929,128,0,119072:0:0:0:0:
320,192,119072,1,0,0:0:0:0:
192,192,119072,1,0,0:0:0:0:
64,192,119143,1,0,0:0:0:0:
192,192,119214,1,0,0:0:0:0:
320,192,119286,1,0,0:0:0:0:
192,192,119357,128,0,119500:0:0:0:0:
64,192,119357,1,0,0:0:0:0:
320,192,119500,128,0,119643:0:0:0:0:
192,192,119643,128,0,119786:0:0:0:0:
320,192,119786,128,0,119929:0:0:0:0:
64,192,119929,1,0,0:0:0:0:
448,192,119929,1,0,0:0:0:0:
192,192,120000,1,0,0:0:0:0:
320,192,120072,1,0,0:0:0:0:
192,192,120143,1,0,0:0:0:0:
448,192,120214,128,0,120357:0:0:0:0:
192,192,120357,128,0,120500:0:0:0:0:
448,192,120500,128,0,120643:0:0:0:0:
320,192,120500,1,0,0:0:0:0:
192,192,120643,128,0,120786:0:0:0:0:
64,192,120643,1,0,0:0:0:0:
320,192,120786,128,0,120929:0:0:0:0:
448,192,120786,1,0,0:0:0:0:
192,192,120929,128,0,121072:0:0:0:0:
64,192,120929,1,0,0:0:0:0:
448,192,121072,128,0,121214:0:0:0:0:
320,192,121072,1,0,0:0:0:0:
64,192,121214,128,0,121357:0:0:0:0:
192,192,121214,1,0,0:0:0:0:
448,192,121357,1,0,0:0:0:0:
320,192,121357,1,0,0:0:0:0:
192,192,121429,1,0,0:0:0:0:
64,192,121500,1,0,0:0:0:0:
192,192,121572,1,0,0:0:0:0:
64,192,121643,128,0,121786:0:0:0:0:
448,192,121643,1,0,0:0:0:0:
320,192,121786,128,0,121929:0:0:0:0:
64,192,121929,128,0,122072:0:0:0:0:
320,192,122072,128,0,122214:0:0:0:0:
192,192,122214,1,0,0:0:0:0:
448,192,122214,1,0,0:0:0:0:
64,192,122286,1,0,0:0:0:0:
192,192,122357,1,0,0:0:0:0:
64,192,122429,1,0,0:0:0:0:
320,192,122500,128,0,122643:0:0:0:0:
192,192,122643,128,0,122786:0:0:0:0:
320,192,122786,128,0,122929:0:0:0:0:
448,192,122786,1,0,0:0:0:0:
192,192,122929,128,0,123072:0:0:0:0:
448,192,123072,128,0,123214:0:0:0:0:
192,192,123214,128,0,123357:0:0:0:0:
64,192,123357,1,0,0:0:0:0:
320,192,123357,128,0,123500:0:0:0:0:
192,192,123500,128,0,123643:0:0:0:0:
448,192,123643,1,0,0:0:0:0:
64,192,123643,1,0,0:0:0:0:
320,192,123714,1,0,0:0:0:0:
192,192,123786,1,0,0:0:0:0:
64,192,123857,1,0,0:0:0:0:
448,192,123929,128,0,124072:0:0:0:0:
320,192,123929,1,0,0:0:0:0:
192,192,124072,128,0,124214:0:0:0:0:
448,192,124214,128,0,124357:0:0:0:0:
192,192,124357,128,0,124500:0:0:0:0:
448,192,124500,1,0,0:0:0:0:
320,192,124500,1,0,0:0:0:0:
64,192,124572,1,0,0:0:0:0:
448,192,124643,1,0,0:0:0:0:
320,192,124714,1,0,0:0:0:0:
192,192,124786,128,0,124929:0:0:0:0:
320,192,124929,128,0,125072:0:0:0:0:
192,192,125072,128,0,125214:0:0:0:0:
64,192,125072,1,0,0:0:0:0:
320,192,125214,128,0,125357:0:0:0:0:
448,192,125214,1,0,0:0:0:0:
64,192,125357,128,0,125500:0:0:0:0:
192,192,125357,1,0,0:0:0:0:
320,192,125500,128,0,125643:0:0:0:0:
448,192,125500,1,0,0:0:0:0:
192,192,125643,128,0,125786:0:0:0:0:
64,192,125643,1,0,0:0:0:0:
64,192,125786,128,0,125929:0:0:0:0:
448,192,125786,1,0,0:0:0:0:
320,192,125929,1,0,0:0:0:0:
448,192,125929,1,0,0:0:0:0:
192,192,126000,1,0,0:0:0:0:
64,192,126072,1,0,0:0:0:0:
192,192,126143,1,0,0:0:0:0:
64,192,126214,128,0,126357:0:0:0:0:
448,192,126214,1,0,0:0:0:0:
320,192,126357,128,0,126500:0:0:0:0:
192,192,126357,1,0,0:0:0:0:
64,192,126500,128,0,126643:0:0:0:0:
448,192,126500,1,0,0:0:0:0:
320,192,126643,128,0,126786:0:0:0:0:
192,192,126643,1,0,0:0:0:0:
448,192,126786,1,0,0:0:0:0:
192,192,126786,1,0,0:0:0:0:
64,192,126857,1,0,0:0:0:0:
192,192,126929,1,0,0:0:0:0:
320,192,127000,1,0,0:0:0:0:
192,192,127072,128,0,127214:0:0:0:0:
448,192,127072,1,0,0:0:0:0:
320,192,127214,128,0,127357:0:0:0:0:
64,192,127214,1,0,0:0:0:0:
448,192,127357,1,0,0:0:0:0:
192,192,127357,128,0,127500:0:0:0:0:
64,192,127500,1,0,0:0:0:0:
320,192,127500,128,0,127643:0:0:0:0:
64,192,127643,128,0,127786:0:0:0:0:
448,192,127643,1,0,0:0:0:0:
192,192,127786,1,0,0:0:0:0:
320,192,127786,128,0,127929:0:0:0:0:
448,192,127929,128,0,128072:0:0:0:0:
64,192,127929,1,0,0:0:0:0:
192,192,128072,128,0,128214:0:0:0:0:
320,192,128072,1,0,0:0:0:0:
64,192,128214,1,0,0:0:0:0:
448,192,128214,1,0,0:0:0:0:
320,192,128286,1,0,0:0:0:0:
192,192,128357,1,0,0:0:0:0:
448,192,128429,1,0,0:0:0:0:
320,192,128500,1,0,0:0:0:0:
64,192,128500,128,0,128643:0:0:0:0:
448,192,128643,128,0,128786:0:0:0:0:
192,192,128643,1,0,0:0:0:0:
64,192,128786,128,0,128929:0:0:0:0:
320,192,128786,1,0,0:0:0:0:
448,192,128929,128,0,129072:0:0:0:0:
192,192,128929,1,0,0:0:0:0:
320,192,129072,1,0,0:0:0:0:
64,192,129072,1,0,0:0:0:0:
192,192,129143,1,0,0:0:0:0:
320,192,129214,1,0,0:0:0:0:
192,192,129286,1,0,0:0:0:0:
320,192,129357,128,0,129500:0:0:0:0:
448,192,129357,1,0,0:0:0:0:
192,192,129500,128,0,129643:0:0:0:0:
64,192,129500,1,0,0:0:0:0:
320,192,129643,128,0,129786:0:0:0:0:
448,192,129643,1,0,0:0:0:0:
192,192,129786,128,0,129929:0:0:0:0:
64,192,129786,1,0,0:0:0:0:
448,192,129929,128,0,130072:0:0:0:0:
320,192,129929,1,0,0:0:0:0:
192,192,130072,128,0,130214:0:0:0:0:
64,192,130072,1,0,0:0:0:0:
64,192,130214,128,0,130357:0:0:0:0:
448,192,130214,1,0,0:0:0:0:
320,192,130357,128,0,130500:0:0:0:0:
192,192,130357,1,0,0:0:0:0:
448,192,130500,1,0,0:0:0:0:
64,192,130500,1,0,0:0:0:0:
192,192,130572,1,0,0:0:0:0:
320,192,130643,1,0,0:0:0:0:
192,192,130714,1,0,0:0:0:0:
64,192,130786,1,0,0:0:0:0:
320,192,130786,1,0,0:0:0:0:
448,192,130857,1,0,0:0:0:0:
320,192,130929,1,0,0:0:0:0:
192,192,131000,1,0,0:0:0:0:
448,192,131072,1,0,0:0:0:0:
320,192,131072,1,0,0:0:0:0:
64,192,131143,1,0,0:0:0:0:
192,192,131214,1,0,0:0:0:0:
320,192,131286,1,0,0:0:0:0:
64,192,131357,1,0,0:0:0:0:
448,192,131357,1,0,0:0:0:0:
192,192,131429,1,0,0:0:0:0:
320,192,131500,1,0,0:0:0:0:
448,192,131572,1,0,0:0:0:0:
192,192,131643,1,0,0:0:0:0:
320,192,131643,1,0,0:0:0:0:
64,192,131714,1,0,0:0:0:0:
192,192,131786,1,0,0:0:0:0:
320,192,131857,1,0,0:0:0:0:
64,192,131929,1,0,0:0:0:0:
192,192,131929,1,0,0:0:0:0:
320,192,132000,1,0,0:0:0:0:
448,192,132072,1,0,0:0:0:0:
320,192,132143,1,0,0:0:0:0:
64,192,132214,1,0,0:0:0:0:
448,192,132214,1,0,0:0:0:0:
320,192,132286,1,0,0:0:0:0:
192,192,132357,1,0,0:0:0:0:
64,192,132429,1,0,0:0:0:0:
448,192,132500,1,0,0:0:0:0:
320,192,132500,1,0,0:0:0:0:
192,192,132572,1,0,0:0:0:0:
64,192,132643,1,0,0:0:0:0:
192,192,132714,1,0,0:0:0:0:
64,192,132786,1,0,0:0:0:0:
448,192,132786,1,0,0:0:0:0:
192,192,132857,1,0,0:0:0:0:
320,192,132929,1,0,0:0:0:0:
192,192,133000,1,0,0:0:0:0:
64,192,133072,1,0,0:0:0:0:
320,192,133072,1,0,0:0:0:0:
448,192,133143,1,0,0:0:0:0:
320,192,133214,1,0,0:0:0:0:
192,192,133286,1,0,0:0:0:0:
64,192,133357,1,0,0:0:0:0:
448,192,133357,1,0,0:0:0:0:
320,192,133429,1,0,0:0:0:0:
192,192,133500,1,0,0:0:0:0:
64,192,133572,1,0,0:0:0:0:
320,192,133643,1,0,0:0:0:0:
448,192,133643,1,0,0:0:0:0:
192,192,133714,1,0,0:0:0:0:
320,192,133786,1,0,0:0:0:0:
448,192,133857,1,0,0:0:0:0:
64,192,133929,1,0,0:0:0:0:
320,192,133929,1,0,0:0:0:0:
192,192,134000,1,0,0:0:0:0:
320,192,134072,1,0,0:0:0:0:
448,192,134143,1,0,0:0:0:0:
64,192,134214,1,0,0:0:0:0:
192,192,134214,1,0,0:0:0:0:
320,192,134286,1,0,0:0:0:0:
448,192,134357,1,0,0:0:0:0:
320,192,134429,1,0,0:0:0:0:
64,192,134500,1,0,0:0:0:0:
192,192,134500,1,0,0:0:0:0:
448,192,134572,1,0,0:0:0:0:
320,192,134643,1,0,0:0:0:0:
192,192,134714,1,0,0:0:0:0:
64,192,134786,1,0,0:0:0:0:
448,192,134786,1,0,0:0:0:0:
320,192,134857,1,0,0:0:0:0:
192,192,134929,1,0,0:0:0:0:
64,192,135000,1,0,0:0:0:0:
448,192,135072,128,0,135143:0:0:0:0:
448,192,135214,128,0,135286:0:0:0:0:
448,192,135357,128,0,135429:0:0:0:0:
448,192,135500,128,0,135572:0:0:0:0:
448,192,135643,128,0,135714:0:0:0:0:
448,192,135786,128,0,135857:0:0:0:0:
448,192,135929,128,0,136000:0:0:0:0:
448,192,136072,128,0,136143:0:0:0:0:
448,192,136214,128,0,136286:0:0:0:0:
448,192,136357,128,0,136429:0:0:0:0:
448,192,136500,128,0,136572:0:0:0:0:
448,192,136643,128,0,136714:0:0:0:0:
448,192,136786,128,0,136857:0:0:0:0:
448,192,136929,128,0,137000:0:0:0:0:
448,192,137072,128,0,137143:0:0:0:0:
448,192,137214,128,0,137286:0:0:0:0:
448,192,137357,128,0,137429:0:0:0:0:
448,192,137500,128,0,137572:0:0:0:0:
448,192,137643,128,0,137714:0:0:0:0:
320,192,137786,128,0,137857:0:0:0:0:
320,192,137929,128,0,138000:0:0:0:0:
320,192,138072,128,0,138143:0:0:0:0:
320,192,138214,128,0,138286:0:0:0:0:
320,192,138357,128,0,138429:0:0:0:0:
192,192,138500,128,0,138572:0:0:0:0:
192,192,138643,128,0,138714:0:0:0:0:
192,192,138786,128,0,138857:0:0:0:0:
192,192,138929,128,0,139000:0:0:0:0:
192,192,139072,128,0,139143:0:0:0:0:
320,192,139143,128,0,139357:0:0:0:0:
192,192,139357,128,0,139429:0:0:0:0:
320,192,139429,128,0,139643:0:0:0:0:
192,192,139643,128,0,139714:0:0:0:0:
320,192,139714,128,0,139929:0:0:0:0:
64,192,139929,128,0,140024:0:0:0:0:
192,192,140024,128,0,140119:0:0:0:0:
320,192,140119,128,0,140214:0:0:0:0:
192,192,140214,128,0,140310:0:0:0:0:
448,192,140310,128,0,140405:0:0:0:0:
320,192,140405,128,0,140500:0:0:0:0:
192,192,140500,128,0,140595:0:0:0:0:
64,192,140595,128,0,140691:0:0:0:0:
320,192,140691,128,0,140786:0:0:0:0:
192,192,140786,128,0,140881:0:0:0:0:
320,192,140881,128,0,140976:0:0:0:0:
448,192,140976,128,0,141072:0:0:0:0:
320,192,141072,128,0,141167:0:0:0:0:
192,192,141167,128,0,141262:0:0:0:0:
64,192,141262,128,0,141357:0:0:0:0:
320,192,141357,128,0,141452:0:0:0:0:
192,192,141452,128,0,141548:0:0:0:0:
320,192,141548,128,0,141643:0:0:0:0:
64,192,141643,128,0,141738:0:0:0:0:
192,192,141738,128,0,141833:0:0:0:0:
320,192,141833,128,0,141929:0:0:0:0:
448,192,141929,128,0,142024:0:0:0:0:
320,192,142024,128,0,142119:0:0:0:0:
192,192,142119,128,0,142214:0:0:0:0:
320,192,142214,128,0,142310:0:0:0:0:
64,192,142310,128,0,142405:0:0:0:0:
192,192,142405,128,0,142500:0:0:0:0:
64,192,142500,128,0,142595:0:0:0:0:
320,192,142595,128,0,142691:0:0:0:0:
448,192,142691,128,0,142786:0:0:0:0:
320,192,142786,128,0,142881:0:0:0:0:
192,192,142881,128,0,142976:0:0:0:0:
64,192,142976,128,0,143072:0:0:0:0:
320,192,143072,128,0,143167:0:0:0:0:
192,192,143167,128,0,143262:0:0:0:0:
320,192,143262,128,0,143357:0:0:0:0:
448,192,143357,1,0,0:0:0:0:
64,192,143429,1,0,0:0:0:0:
192,192,143429,1,0,0:0:0:0:
320,192,143500,1,0,0:0:0:0:
448,192,143500,1,0,0:0:0:0:
64,192,143572,1,0,0:0:0:0:
192,192,143572,1,0,0:0:0:0:
320,192,143643,1,0,0:0:0:0:
448,192,143643,1,0,0:0:0:0:
64,192,143786,1,0,0:0:0:0:
448,192,143786,1,0,0:0:0:0:
64,192,143929,1,0,0:0:0:0:
320,192,143929,1,0,0:0:0:0:
448,192,144072,1,0,0:0:0:0:
192,192,144072,1,0,0:0:0:0:
64,192,144214,1,0,0:0:0:0:
448,192,144214,1,0,0:0:0:0:
192,192,144357,1,0,0:0:0:0:
64,192,144500,1,0,0:0:0:0:
320,192,144500,1,0,0:0:0:0:
448,192,144643,1,0,0:0:0:0:
192,192,144786,1,0,0:0:0:0:
320,192,144786,1,0,0:0:0:0:
64,192,144929,1,0,0:0:0:0:
192,192,145072,1,0,0:0:0:0:
448,192,145072,1,0,0:0:0:0:
