osu file format v14

[General]
AudioFilename: audio.mp3
AudioLeadIn: 0
PreviewTime: 46547
Countdown: 0
SampleSet: None
StackLeniency: 0.7
Mode: 0
LetterboxInBreaks: 0
WidescreenStoryboard: 0

[Editor]
Bookmarks: 47358
DistanceSpacing: 1
BeatDivisor: 4
GridSize: 8
TimelineZoom: 2.799999

[Metadata]
Title:Reimei
TitleUnicode:レイメイ
Artist:Sayuri x MY FIRST STORY
ArtistUnicode:さユり×MY FIRST STORY
Creator:chucentry
Version:Inmortal
Source:ゴールデンカムイ
Tags:Golden kamui op 2 kamuy tv size
BeatmapID:1858377
BeatmapSetID:889132

[Difficulty]
HPDrainRate:5
CircleSize:4.2
OverallDifficulty:8.9
ApproachRate:9.5
SliderMultiplier:1.9
SliderTickRate:1

[Events]
//Background and Video events
0,0,"cover1.jpg",0,0
//Break Periods
//Storyboard Layer 0 (Background)
//Storyboard Layer 1 (Fail)
//Storyboard Layer 2 (Pass)
//Storyboard Layer 3 (Foreground)
//Storyboard Sound Samples

[TimingPoints]
-155,324.324324324324,4,2,1,60,1,0
493,-100,4,2,1,60,0,0
1628,-133.333333333333,4,2,1,60,0,0
2439,-100,4,2,1,60,0,0
10223,-83.3333333333333,4,2,1,60,0,0
11520,-133.333333333333,4,2,1,60,0,0
21412,-100,4,2,1,60,0,0
29844,-133.333333333333,4,2,1,60,0,0
37466,-83.3333333333333,4,2,1,60,0,0
38115,-133.333333333333,4,2,1,60,0,0
41196,-100,4,2,1,60,0,0
43953,-142.857142857143,4,2,1,60,0,0
45250,-76.9230769230769,4,2,1,60,0,0
46547,-200,4,2,1,60,0,0
46872,-142.857142857143,4,2,1,60,0,0
47196,-166.666666666667,4,2,1,60,0,0
47520,-83.3333333333333,4,2,1,60,0,0
47682,-83.3333333333333,4,2,1,60,0,0
47844,-90.9090909090909,4,2,1,60,0,0
68277,-166.666666666667,4,2,1,60,0,0
68601,-111.111111111111,4,2,1,60,0,0
77682,-90.9090909090909,4,2,1,60,0,0
82872,-100,4,2,1,60,0,0
86763,-133.333333333333,4,2,1,60,0,0
88061,-100,4,2,1,60,0,0

[HitObjects]
96,7,493,5,0,0:0:0:0:
100,30,574,1,0,0:0:0:0:
104,53,655,1,0,0:0:0:0:
108,77,736,1,0,0:0:0:0:
113,100,817,1,0,0:0:0:0:
324,255,980,6,0,P|255:249|176:244,1,142.5
98,269,1304,1,0,0:0:0:0:
199,22,1466,1,0,0:0:0:0:
245,117,1628,1,0,0:0:0:0:
245,117,1790,2,0,P|281:113|323:106,1,71.2500027179719
338,18,2115,2,0,P|374:22|416:29,1,71.2500027179719
458,190,2439,6,0,P|409:183|356:178,1,95
139,158,2763,1,0,0:0:0:0:
139,158,2925,2,0,P|167:155|207:153,1,47.5
281,255,3088,1,0,0:0:0:0:
338,18,3250,1,0,0:0:0:0:
139,158,3574,6,0,P|233:147|366:140,1,190
433,177,4061,1,0,0:0:0:0:
202,40,4223,1,0,0:0:0:0:
370,35,4385,5,0,0:0:0:0:
139,158,4547,1,0,0:0:0:0:
412,292,4709,1,0,0:0:0:0:
110,144,4872,6,0,P|119:246|130:358,1,190
328,181,5358,2,0,P|339:126|352:68,1,95
243,245,5682,1,0,0:0:0:0:
280,273,5763,1,0,0:0:0:0:
327,282,5844,1,0,0:0:0:0:
372,270,5925,1,0,0:0:0:0:
409,241,6006,1,0,0:0:0:0:
411,27,6169,6,0,B|355:6|355:6|224:29,1,190
84,44,6655,1,0,0:0:0:0:
232,204,6817,1,0,0:0:0:0:
232,204,6899,1,0,0:0:0:0:
232,204,6980,2,0,P|220:257|210:306,1,95
63,371,7304,2,0,P|53:324|42:278,1,95
136,131,7628,5,0,0:0:0:0:
333,256,7790,1,0,0:0:0:0:
102,115,7953,1,0,0:0:0:0:
301,62,8115,1,0,0:0:0:0:
190,202,8277,5,0,0:0:0:0:
437,80,8439,1,0,0:0:0:0:
194,21,8601,5,0,0:0:0:0:
398,308,8763,2,0,B|340:302|340:302|279:324|279:324|211:319,1,190
53,340,9250,2,0,P|48:288|45:231,1,95
67,98,9574,5,0,0:0:0:0:
95,61,9655,1,0,0:0:0:0:
138,42,9736,1,0,0:0:0:0:
185,46,9817,1,0,0:0:0:0:
225,71,9899,2,0,L|236:144,1,47.5
346,236,10061,2,0,P|350:212|352:188,1,47.5
147,136,10223,5,0,0:0:0:0:
151,185,10304,1,0,0:0:0:0:
155,235,10385,1,0,0:0:0:0:
161,285,10466,1,0,0:0:0:0:
165,335,10547,2,0,P|194:341|232:345,1,56.9999982604981
408,179,10709,2,0,P|379:185|341:189,1,56.9999982604981
52,218,10872,5,0,0:0:0:0:
52,218,10953,1,0,0:0:0:0:
52,218,11034,2,0,L|37:288,1,56.9999982604981
147,136,11196,2,0,L|132:69,1,56.9999982604981
164,246,11358,2,0,L|228:270,1,56.9999982604981
353,356,11520,6,0,P|366:291|389:191,1,142.500005435944
466,182,12007,1,0,0:0:0:0:
466,182,12169,2,0,P|442:152|406:129,1,71.2500027179719
428,44,12493,2,0,P|390:49|352:69,1,71.2500027179719
256,73,12817,6,0,P|275:135|289:231,1,142.500005435944
173,201,13304,1,0,0:0:0:0:
246,284,13466,2,0,P|284:294|338:286,1,71.2500027179719
173,201,13790,2,0,P|137:199|103:209,1,71.2500027179719
15,209,14034,1,0,0:0:0:0:
15,209,14115,6,0,P|25:283|27:309,1,71.2500027179719
142,276,14439,2,0,P|132:350|130:376,1,71.2500027179719
303,324,14763,2,0,P|268:317|218:307,1,71.2500027179719
173,201,15088,2,0,P|208:194|258:184,1,71.2500027179719
332,140,15412,5,0,0:0:0:0:
421,84,15574,1,0,0:0:0:0:
412,185,15736,5,0,0:0:0:0:
495,142,15899,1,0,0:0:0:0:
274,35,16061,2,0,B|242:31|242:31|192:30,1,71.2500027179719
129,146,16385,2,0,B|167:145|167:145|199:141,1,71.2500027179719
294,121,16628,1,0,0:0:0:0:
294,121,16709,6,0,P|280:190|268:276,1,142.500005435944
368,260,17196,2,0,P|375:298|384:351,1,71.2500027179719
451,204,17520,1,0,0:0:0:0:
364,133,17682,2,0,P|328:126|293:120,1,71.2500027179719
174,56,18007,6,0,P|209:49|261:31,1,71.2500027179719
96,124,18331,2,0,P|61:117|9:99,1,71.2500027179719
214,163,18655,2,0,P|249:156|301:138,1,71.2500027179719
136,231,18979,2,0,P|101:224|49:206,1,71.2500027179719
84,335,19304,6,0,P|141:326|217:327,1,106.875004076958
214,344,19628,2,0,P|252:346|305:342,1,71.2500027179719
444,242,19953,2,0,P|428:284|417:322,1,71.2500027179719
295,203,20277,2,0,P|284:169|271:135,1,71.2500027179719
18,138,20601,6,0,P|81:145|123:144,1,71.2500027179719
221,40,20926,1,0,0:0:0:0:
203,217,21088,1,0,0:0:0:0:
183,213,21169,1,0,0:0:0:0:
163,210,21250,1,0,0:0:0:0:
327,123,21412,6,0,L|318:198,1,47.5
364,273,21574,1,0,0:0:0:0:
458,210,21736,6,0,L|468:274,1,47.5
309,353,21899,1,0,0:0:0:0:
180,222,22061,1,0,0:0:0:0:
288,99,22223,6,0,P|206:98|92:82,1,190
28,193,22709,1,0,0:0:0:0:
180,222,22872,2,0,P|167:267|155:321,1,95
209,134,23196,5,0,0:0:0:0:
257,311,23358,1,0,0:0:0:0:
28,193,23520,2,0,P|38:146|51:101,1,95
64,275,23844,5,0,0:0:0:0:
209,134,24007,1,0,0:0:0:0:
257,311,24169,2,0,P|209:314|162:320,1,95
377,221,24493,6,0,P|350:210|327:204,1,47.5
209,134,24655,2,0,P|236:123|259:117,1,47.5
405,237,24817,6,0,P|357:233|310:227,1,95
110,138,25142,2,0,P|128:157|153:199,1,47.5
205,302,25304,2,0,P|218:282|235:265,1,47.5
90,123,25466,6,0,P|102:168|113:215,1,95
205,302,25790,1,0,0:0:0:0:
86,360,25953,1,0,0:0:0:0:
308,203,26115,5,0,0:0:0:0:
280,354,26278,1,0,0:0:0:0:
278,219,26439,5,0,0:0:0:0:
304,338,26602,1,0,0:0:0:0:
248,235,26763,6,0,P|230:189|213:138,1,95
383,376,27088,6,0,P|388:353|393:329,1,47.5
492,279,27250,2,0,P|496:302|501:326,1,47.5
382,233,27412,2,0,P|392:184|401:131,1,95
260,41,27736,6,0,L|246:94,1,47.5
136,101,27899,2,0,L|150:154,1,47.5
275,243,28061,2,0,P|233:226|179:226,1,95
57,255,28385,5,0,0:0:0:0:
149,368,28547,1,0,0:0:0:0:
275,243,28709,2,0,P|325:232|376:244,1,95
405,263,28953,1,0,0:0:0:0:
405,263,29034,5,0,0:0:0:0:
457,108,29196,1,0,0:0:0:0:
482,300,29358,1,0,0:0:0:0:
376,91,29520,1,0,0:0:0:0:
194,314,29682,5,0,0:0:0:0:
346,333,29844,6,0,P|275:334|214:300,1,142.500005435944
27,269,30331,2,0,P|97:270|158:236,1,142.500005435944
242,221,30817,1,0,0:0:0:0:
27,269,30980,6,0,P|25:233|19:175,1,71.2500027179719
145,67,31304,2,0,P|138:102|133:137,1,71.2500027179719
145,271,31628,5,0,0:0:0:0:
261,361,31790,1,0,0:0:0:0:
27,269,31953,1,0,0:0:0:0:
231,195,32115,1,0,0:0:0:0:
57,59,32277,5,0,0:0:0:0:
173,41,32439,1,0,0:0:0:0:
173,41,32601,2,0,P|151:94|142:132,1,71.2500027179719
231,195,32926,1,0,0:0:0:0:
231,195,33088,2,0,P|252:248|261:286,1,71.2500027179719
38,278,33412,6,0,P|89:251|175:261,1,142.500005435944
225,333,33899,1,0,0:0:0:0:
308,370,34061,1,0,0:0:0:0:
396,347,34223,2,0,P|410:311|415:271,1,71.2500027179719
297,254,34547,2,0,P|283:218|277:178,1,71.2500027179719
414,51,34872,5,0,0:0:0:0:
398,135,35034,2,0,L|383:221,1,71.2500027179719
249,31,35358,1,0,0:0:0:0:
265,115,35520,2,0,L|280:201,1,71.2500027179719
313,288,35844,1,0,0:0:0:0:
381,348,36007,6,0,B|331:329|331:329|241:350,1,142.500005435944
179,253,36493,1,0,0:0:0:0:
125,342,36655,1,0,0:0:0:0:
312,287,36817,2,0,P|304:252|297:218,1,71.2500027179719
296,180,37061,1,0,0:0:0:0:
296,180,37142,1,0,0:0:0:0:
211,50,37304,1,0,0:0:0:0:
13,188,37466,6,0,P|48:176|84:166,1,56.9999982604981
133,264,37628,2,0,P|163:269|199:277,1,56.9999982604981
296,180,37790,1,0,0:0:0:0:
296,180,38115,5,0,0:0:0:0:
233,28,38277,2,0,P|243:64|271:109,1,71.2500027179719
499,86,38601,6,0,B|444:80|444:80|417:97|417:97|352:92,1,142.500005435944
404,202,39088,1,0,0:0:0:0:
265,166,39250,1,0,0:0:0:0:
404,202,39412,2,0,P|412:236|422:270,1,71.2500027179719
270,345,39736,2,0,P|280:310|288:276,1,71.2500027179719
78,217,40061,6,0,P|147:217|238:199,1,142.500005435944
404,202,40547,1,0,0:0:0:0:
288,276,40709,1,0,0:0:0:0:
281,138,40872,1,0,0:0:0:0:
419,221,41034,1,0,0:0:0:0:
219,204,41196,6,0,P|190:134|254:49,1,190
308,262,41682,1,0,0:0:0:0:
211,357,41844,1,0,0:0:0:0:
51,238,42007,6,0,L|114:249,1,63.3333333333333
147,159,42223,6,0,L|208:141,1,63.3333333333333
246,247,42439,6,0,L|308:262,1,63.3333333333333
378,175,42655,5,0,0:0:0:0:
315,78,42980,5,0,0:0:0:0:
158,48,43304,5,0,0:0:0:0:
14,213,43628,5,0,0:0:0:0:
243,286,43953,6,0,L|256:146,2,132.999995941162
308,362,44926,5,0,0:0:0:0:
21,279,45250,6,0,L|90:273,1,61.7499971733095
174,161,45412,2,0,L|236:169,1,61.7499971733095
308,362,45574,1,0,0:0:0:0:
366,364,45655,1,0,0:0:0:0:
413,329,45736,1,0,0:0:0:0:
426,272,45817,1,0,0:0:0:0:
400,220,45898,5,0,0:0:0:0:
69,116,46061,5,0,0:0:0:0:
455,25,46223,5,0,0:0:0:0:
71,295,46385,5,0,0:0:0:0:
341,288,46547,6,0,L|266:273,1,71.25
274,194,46872,6,0,L|199:221,1,66.4999979705811
143,161,47196,6,0,L|125:249,1,85.4999973907472
116,253,47520,6,0,L|104:197,1,56.9999982604981
71,51,47682,6,0,B|123:59|156:40|156:40|200:53|200:53|236:34|292:45,1,227.999993041992
457,211,48169,2,0,P|407:221|346:202,1,104.500003189087
252,173,48412,1,0,0:0:0:0:
252,173,48493,2,0,L|258:301,1,104.500003189087
123,179,48817,1,0,0:0:0:0:
274,26,48980,5,0,0:0:0:0:
270,53,49061,1,0,0:0:0:0:
267,82,49142,1,0,0:0:0:0:
162,47,49304,1,0,0:0:0:0:
335,212,49466,1,0,0:0:0:0:
456,29,49628,2,0,P|403:31|351:33,1,104.500003189087
118,150,49953,1,0,0:0:0:0:
335,212,50115,2,0,P|364:207|403:199,1,52.2500015945435
267,82,50277,6,0,B|279:145|279:145|251:207|251:207|271:284,1,209.000006378174
163,298,50763,1,0,0:0:0:0:
356,343,50926,2,0,P|362:290|370:240,1,104.500003189087
443,172,51250,1,0,0:0:0:0:
271,281,51412,1,0,0:0:0:0:
467,352,51574,6,0,P|496:293|465:206,1,156.750004783631
443,172,51899,1,0,0:0:0:0:
271,281,52061,1,0,0:0:0:0:
162,134,52223,6,0,P|241:139|319:145,1,156.750004783631
353,148,52547,1,0,0:0:0:0:
221,247,52709,2,0,L|276:236,1,52.2500015945435
91,93,52872,6,0,B|70:139|87:172|87:172|73:208|73:208|93:244|85:295,1,209.000006378174
43,24,53358,2,0,P|96:11|150:30,1,104.500003189087
321,110,53682,1,0,0:0:0:0:
221,247,53844,1,0,0:0:0:0:
433,106,54007,6,0,L|420:193,1,52.2500015945435
479,352,54169,2,0,B|395:296|373:384|271:336,1,209.000006378174
80,282,54655,6,0,P|87:251|94:212,1,52.2500015945435
134,31,54817,2,0,P|174:122|273:135,1,209.000006378174
433,106,55304,6,0,P|439:80|444:55,1,52.2500015945435
274,135,55466,2,0,B|266:219|266:219|285:251|285:251|278:339,1,209.000006378174
276,365,55872,1,0,0:0:0:0:
276,365,55953,5,0,0:0:0:0:
52,234,56115,1,0,0:0:0:0:
304,206,56277,5,0,0:0:0:0:
14,350,56439,1,0,0:0:0:0:
80,44,56601,1,0,0:0:0:0:
391,116,56763,6,0,B|349:119|314:103|314:103|274:124|274:124|236:108|188:123,1,209.000006378174
126,162,57169,1,0,0:0:0:0:
126,162,57250,2,0,L|134:239,1,52.2500015945435
290,36,57412,2,0,L|279:114,1,52.2500015945435
247,216,57574,1,0,0:0:0:0:
300,245,57655,1,0,0:0:0:0:
360,237,57736,1,0,0:0:0:0:
403,194,57817,1,0,0:0:0:0:
411,133,57899,2,0,P|404:101|401:65,1,52.2500015945435
482,327,58061,6,0,B|437:331|408:317|408:317|368:337|368:337|332:320|281:328,1,209.000006378174
43,352,58547,2,0,P|8:295|40:212,1,156.750004783631
64,188,58872,1,0,0:0:0:0:
150,318,59034,1,0,0:0:0:0:
236,221,59196,2,0,P|291:226|346:217,1,104.500003189087
374,196,59439,1,0,0:0:0:0:
374,196,59520,5,0,0:0:0:0:
400,37,59682,1,0,0:0:0:0:
237,90,59844,1,0,0:0:0:0:
409,173,60007,1,0,0:0:0:0:
307,37,60169,1,0,0:0:0:0:
253,226,60331,1,0,0:0:0:0:
392,341,60493,6,0,L|327:340,1,52.2500015945435
171,363,60655,2,0,B|178:294|178:294|158:232|158:232|171:153,1,209.000006378174
112,57,61142,1,0,0:0:0:0:
307,37,61304,2,0,P|282:80|269:139,1,104.500003189087
438,165,61628,1,0,0:0:0:0:
346,344,61790,1,0,0:0:0:0:
130,347,61953,6,0,B|90:302|95:249|130:201|130:201|142:233|170:269,1,209.000006378174
286,157,62439,1,0,0:0:0:0:
224,321,62601,1,0,0:0:0:0:
307,140,62763,2,0,P|364:136|420:132,1,104.500003189087
201,39,63088,1,0,0:0:0:0:
152,244,63250,6,0,B|200:248|235:233|235:233|277:248|277:248|310:237|362:247,1,209.000006378174
496,193,63736,1,0,0:0:0:0:
457,359,63899,2,0,P|406:355|341:353,1,104.500003189087
222,315,64223,1,0,0:0:0:0:
98,127,64385,1,0,0:0:0:0:
353,8,64547,6,0,B|369:72|369:72|334:133|334:133|350:207,1,209.000006378174
457,359,65034,1,0,0:0:0:0:
274,303,65196,1,0,0:0:0:0:
488,185,65358,1,0,0:0:0:0:
393,278,65520,1,0,0:0:0:0:
314,79,65682,1,0,0:0:0:0:
214,355,65844,6,0,P|287:380|347:280,1,209.000006378174
40,197,66331,2,0,B|139:128|139:226|248:176,1,209.000006378174
314,79,66817,1,0,0:0:0:0:
274,303,66980,1,0,0:0:0:0:
471,264,67142,6,0,B|507:207|504:158|477:123|477:123|459:146|419:176,1,209.000006378174
270,208,67628,1,0,0:0:0:0:
221,224,67709,1,0,0:0:0:0:
171,209,67790,1,0,0:0:0:0:
140,168,67871,1,0,0:0:0:0:
137,117,67953,2,0,L|128:50,1,52.2500015945435
307,4,68115,2,0,L|300:55,1,52.2500015945435
270,208,68277,6,0,L|283:306,1,85.4999973907472
298,336,68601,6,0,L|202:325,1,85.4999973907472
398,252,68926,1,0,0:0:0:0:
272,371,69088,2,0,L|187:361,1,85.4999973907472
157,180,69412,1,0,0:0:0:0:
43,301,69574,2,0,L|127:291,1,85.4999973907472
394,190,69899,6,0,L|303:176,1,85.4999973907472
171,67,70223,2,0,P|151:123|151:168,1,85.4999973907472
157,180,70466,1,0,0:0:0:0:
157,180,70547,1,0,0:0:0:0:
228,263,70709,1,0,0:0:0:0:
309,98,70872,1,0,0:0:0:0:
388,204,71034,1,0,0:0:0:0:
388,204,71115,1,0,0:0:0:0:
388,204,71196,6,0,P|438:197|476:191,1,85.4999973907472
307,306,71520,2,0,P|349:312|391:318,1,85.4999973907472
183,340,71844,1,0,0:0:0:0:
268,221,72007,1,0,0:0:0:0:
268,221,72169,2,0,P|273:178|279:126,1,85.4999973907472
96,44,72493,6,0,P|103:96|108:148,1,85.4999973907472
47,292,72817,2,0,P|51:249|57:207,1,85.4999973907472
41,184,73061,1,0,0:0:0:0:
41,184,73142,1,0,0:0:0:0:
188,154,73304,1,0,0:0:0:0:
140,294,73466,2,0,P|188:289|239:283,1,85.4999973907472
465,190,73790,5,0,0:0:0:0:
381,235,73953,1,0,0:0:0:0:
360,328,74115,1,0,0:0:0:0:
276,220,74277,1,0,0:0:0:0:
139,294,74439,2,0,P|144:337|154:409,1,85.4999973907472
276,220,74763,2,0,P|281:177|286:135,1,85.4999973907472
49,92,75088,6,0,L|142:105,1,85.4999973907472
215,24,75412,1,0,0:0:0:0:
285,135,75574,1,0,0:0:0:0:
157,206,75736,2,0,L|73:195,1,85.4999973907472
144,315,76061,1,0,0:0:0:0:
276,220,76223,1,0,0:0:0:0:
278,233,76304,1,0,0:0:0:0:
281,247,76385,6,0,P|367:249|478:254,1,170.999994781494
503,161,76872,1,0,0:0:0:0:
503,161,77034,2,0,P|461:152|418:135,1,85.4999973907472
332,45,77358,2,0,P|292:60|250:69,1,85.4999973907472
52,105,77682,5,0,0:0:0:0:
204,179,77844,1,0,0:0:0:0:
204,179,77926,1,0,0:0:0:0:
204,179,78007,2,0,L|195:248,1,52.2500015945435
56,340,78169,2,0,L|49:288,1,52.2500015945435
122,142,78331,1,0,0:0:0:0:
156,103,78412,1,0,0:0:0:0:
206,90,78493,1,0,0:0:0:0:
254,108,78574,1,0,0:0:0:0:
284,151,78655,5,0,0:0:0:0:
316,205,78736,1,0,0:0:0:0:
376,226,78817,1,0,0:0:0:0:
436,202,78898,1,0,0:0:0:0:
465,146,78979,5,0,0:0:0:0:
204,179,79142,1,0,0:0:0:0:
346,28,79304,1,0,0:0:0:0:
316,205,79466,1,0,0:0:0:0:
316,205,79547,1,0,0:0:0:0:
316,205,79628,5,0,0:0:0:0:
211,19,79790,1,0,0:0:0:0:
141,259,79953,1,0,0:0:0:0:
235,110,80115,2,0,L|228:178,1,52.2500015945435
280,320,80277,5,0,0:0:0:0:
125,172,80439,1,0,0:0:0:0:
88,345,80601,1,0,0:0:0:0:
235,110,80763,1,0,0:0:0:0:
235,110,80844,1,0,0:0:0:0:
235,110,80926,5,0,0:0:0:0:
335,225,81088,1,0,0:0:0:0:
413,23,81250,1,0,0:0:0:0:
484,160,81412,2,0,P|450:158|428:156,1,52.2500015945435
141,169,81574,5,0,0:0:0:0:
256,299,81736,1,0,0:0:0:0:
324,64,81899,1,0,0:0:0:0:
154,18,82061,1,0,0:0:0:0:
154,32,82142,1,0,0:0:0:0:
156,47,82223,5,0,0:0:0:0:
71,222,82385,1,0,0:0:0:0:
238,139,82547,1,0,0:0:0:0:
20,46,82709,1,0,0:0:0:0:
85,329,82872,6,0,P|133:324|194:318,1,95
379,245,83196,2,0,P|331:235|271:222,1,95
38,167,83520,6,0,P|85:167|148:152,1,95
401,60,83844,2,0,P|353:63|308:77,1,95
330,327,84169,5,0,0:0:0:0:
159,239,84331,1,0,0:0:0:0:
398,178,84493,5,0,0:0:0:0:
125,235,84655,1,0,0:0:0:0:
350,351,84817,5,0,0:0:0:0:
255,103,84980,1,0,0:0:0:0:
184,346,85142,5,0,0:0:0:0:
348,41,85304,1,0,0:0:0:0:
78,104,85466,5,0,0:0:0:0:
401,251,85628,1,0,0:0:0:0:
37,285,85790,5,0,0:0:0:0:
464,124,85953,1,0,0:0:0:0:
91,202,86115,6,0,L|28:189,2,63.3333333333333
191,247,86439,2,0,L|254:234,2,63.3333333333333
91,202,86763,6,0,B|89:151|89:151|108:113|108:113|103:55,1,142.500005435944
103,64,87250,1,0,0:0:0:0:
304,178,87412,5,0,0:0:0:0:
200,9,87574,1,0,0:0:0:0:
298,84,87736,5,0,0:0:0:0:
173,269,87899,1,0,0:0:0:0:
407,255,88061,5,0,0:0:0:0:
407,255,88142,1,0,0:0:0:0:
407,255,88223,1,0,0:0:0:0:
196,161,88385,2,0,L|254:171,1,47.5
393,92,88547,2,0,L|370:144,1,47.5
284,306,88709,5,0,0:0:0:0:
1,150,88872,1,0,0:0:0:0:
313,22,89034,1,0,0:0:0:0:
15,334,89196,5,0,0:0:0:0:
