osu file format v14

[General]
AudioFilename: audio.mp3
AudioLeadIn: 0
PreviewTime: 46566
Countdown: 0
SampleSet: Soft
StackLeniency: 0.7
Mode: 3
LetterboxInBreaks: 0
SpecialStyle: 0
WidescreenStoryboard: 0

[Editor]
DistanceSpacing: 1.2
BeatDivisor: 4
GridSize: 8
TimelineZoom: 2.1

[Metadata]
Title:Reimei (TV Size)
TitleUnicode:レイメイ (TV Size)
Artist:Sayuri x MY FIRST STORY
ArtistUnicode:さユり×MY FIRST STORY
Creator:Sadatsuka-Chan
Version:Easy
Source:ゴールデンカムイ
Tags:golden kamui s2 opening
BeatmapID:2034206
BeatmapSetID:971564

[Difficulty]
HPDrainRate:7
CircleSize:4
OverallDifficulty:7
ApproachRate:5
SliderMultiplier:1.4
SliderTickRate:1

[Events]
//Background and Video events
0,0,"BG.jpg",0,0
//Break Periods
//Storyboard Layer 0 (Background)
//Storyboard Layer 1 (Fail)
//Storyboard Layer 2 (Pass)
//Storyboard Layer 3 (Foreground)
//Storyboard Sound Samples

[TimingPoints]
-207,324.324324324324,4,2,0,20,1,0
47783,-100,4,2,0,20,0,1
57188,-100,4,2,0,20,0,0
58161,-100,4,2,0,20,0,1
68377,-100,4,2,0,20,0,0

[HitObjects]
64,192,603,128,0,928:0:0:0:0:
320,192,928,1,0,0:0:0:0:
192,192,1090,1,0,0:0:0:0:
448,192,1090,128,0,1414:0:0:0:0:
320,192,1414,1,0,0:0:0:0:
64,192,1576,1,0,0:0:0:0:
192,192,1901,128,0,2225:0:0:0:0:
320,192,2225,128,0,2549:0:0:0:0:
64,192,2549,128,0,2874:0:0:0:0:
448,192,2874,128,0,3198:0:0:0:0:
192,192,3198,1,0,0:0:0:0:
64,192,3360,1,0,0:0:0:0:
192,192,3684,1,0,0:0:0:0:
320,192,3684,1,0,0:0:0:0:
64,192,4171,1,0,0:0:0:0:
448,192,4171,1,0,0:0:0:0:
320,192,4495,1,0,0:0:0:0:
192,192,4820,1,0,0:0:0:0:
64,192,4982,1,0,0:0:0:0:
448,192,4982,1,0,0:0:0:0:
192,192,5468,1,0,0:0:0:0:
320,192,5468,1,0,0:0:0:0:
64,192,5792,128,0,6279:0:0:0:0:
320,192,6279,1,0,0:0:0:0:
448,192,6279,1,0,0:0:0:0:
64,192,6765,1,0,0:0:0:0:
448,192,6765,1,0,0:0:0:0:
192,192,7090,1,0,0:0:0:0:
320,192,7414,1,0,0:0:0:0:
448,192,7738,1,0,0:0:0:0:
64,192,8063,1,0,0:0:0:0:
320,192,8387,128,0,8874:0:0:0:0:
64,192,8874,1,0,0:0:0:0:
448,192,8874,1,0,0:0:0:0:
192,192,9360,128,0,10333:0:0:0:0:
320,192,10333,1,0,0:0:0:0:
64,192,10333,128,0,10982:0:0:0:0:
448,192,10982,128,0,11630:0:0:0:0:
192,192,11630,1,0,0:0:0:0:
64,192,11630,1,0,0:0:0:0:
448,192,11955,1,0,0:0:0:0:
320,192,12279,1,0,0:0:0:0:
192,192,12603,1,0,0:0:0:0:
64,192,12928,1,0,0:0:0:0:
192,192,13252,1,0,0:0:0:0:
320,192,13576,1,0,0:0:0:0:
448,192,13901,1,0,0:0:0:0:
64,192,14225,1,0,0:0:0:0:
192,192,14549,1,0,0:0:0:0:
320,192,14874,1,0,0:0:0:0:
448,192,15198,1,0,0:0:0:0:
320,192,15522,1,0,0:0:0:0:
192,192,15847,1,0,0:0:0:0:
64,192,16171,1,0,0:0:0:0:
448,192,16495,1,0,0:0:0:0:
320,192,16820,1,0,0:0:0:0:
64,192,17144,1,0,0:0:0:0:
192,192,17468,1,0,0:0:0:0:
448,192,17792,1,0,0:0:0:0:
64,192,18117,1,0,0:0:0:0:
448,192,18441,1,0,0:0:0:0:
64,192,18765,1,0,0:0:0:0:
320,192,19090,1,0,0:0:0:0:
448,192,19414,1,0,0:0:0:0:
192,192,19738,1,0,0:0:0:0:
64,192,20063,1,0,0:0:0:0:
448,192,20387,1,0,0:0:0:0:
320,192,20711,1,0,0:0:0:0:
64,192,21036,1,0,0:0:0:0:
192,192,21360,1,0,0:0:0:0:
320,192,21522,1,0,0:0:0:0:
448,192,21522,1,0,0:0:0:0:
192,192,21847,1,0,0:0:0:0:
64,192,21847,1,0,0:0:0:0:
64,192,22333,1,0,0:0:0:0:
448,192,22333,1,0,0:0:0:0:
320,192,22982,1,0,0:0:0:0:
192,192,22982,1,0,0:0:0:0:
64,192,23630,1,0,0:0:0:0:
192,192,23630,1,0,0:0:0:0:
320,192,24279,1,0,0:0:0:0:
448,192,24279,1,0,0:0:0:0:
64,192,24928,1,0,0:0:0:0:
320,192,24928,1,0,0:0:0:0:
64,192,25576,1,0,0:0:0:0:
448,192,25576,1,0,0:0:0:0:
192,192,26225,1,0,0:0:0:0:
448,192,26225,1,0,0:0:0:0:
320,192,26874,1,0,0:0:0:0:
192,192,26874,1,0,0:0:0:0:
64,192,27522,1,0,0:0:0:0:
192,192,27522,1,0,0:0:0:0:
448,192,28171,1,0,0:0:0:0:
320,192,28171,1,0,0:0:0:0:
320,192,28820,1,0,0:0:0:0:
192,192,28820,1,0,0:0:0:0:
64,192,29144,1,0,0:0:0:0:
448,192,29144,1,0,0:0:0:0:
192,192,29468,1,0,0:0:0:0:
320,192,29792,1,0,0:0:0:0:
448,192,29792,1,0,0:0:0:0:
64,192,30441,1,0,0:0:0:0:
192,192,30441,1,0,0:0:0:0:
320,192,30928,1,0,0:0:0:0:
64,192,31414,1,0,0:0:0:0:
448,192,31414,1,0,0:0:0:0:
192,192,31738,128,0,32387:0:0:0:0:
320,192,32387,1,0,0:0:0:0:
448,192,32387,1,0,0:0:0:0:
192,192,33036,1,0,0:0:0:0:
64,192,33036,1,0,0:0:0:0:
448,192,33522,128,0,34333:0:0:0:0:
64,192,33522,128,0,34333:0:0:0:0:
320,192,34333,1,0,0:0:0:0:
192,192,34657,128,0,34982:0:0:0:0:
320,192,34982,128,0,35630:0:0:0:0:
64,192,35630,1,0,0:0:0:0:
448,192,35955,128,0,36441:0:0:0:0:
320,192,36441,1,0,0:0:0:0:
64,192,36928,1,0,0:0:0:0:
448,192,36928,1,0,0:0:0:0:
192,192,37252,128,0,37576:0:0:0:0:
320,192,37576,1,0,0:0:0:0:
64,192,37901,1,0,0:0:0:0:
320,192,38225,1,0,0:0:0:0:
192,192,38225,1,0,0:0:0:0:
448,192,38711,128,0,39522:0:0:0:0:
192,192,39522,1,0,0:0:0:0:
64,192,40171,128,0,40820:0:0:0:0:
320,192,40820,1,0,0:0:0:0:
192,192,41306,128,0,42117:0:0:0:0:
64,192,42117,1,0,0:0:0:0:
448,192,42117,128,0,42765:0:0:0:0:
320,192,42765,128,0,43090:0:0:0:0:
192,192,43090,128,0,43414:0:0:0:0:
64,192,43414,128,0,43738:0:0:0:0:
320,192,43738,128,0,44063:0:0:0:0:
448,192,44063,128,0,44387:0:0:0:0:
64,192,44387,128,0,44711:0:0:0:0:
192,192,44711,128,0,45036:0:0:0:0:
320,192,45036,128,0,45360:0:0:0:0:
448,192,45360,128,0,46495:0:0:0:0:
64,192,46495,1,0,0:0:0:0:
192,192,46495,1,0,0:0:0:0:
64,192,47792,128,0,50387:0:0:0:0:
320,192,48279,1,0,0:0:0:0:
192,192,48928,1,0,0:0:0:0:
448,192,49576,1,0,0:0:0:0:
320,192,50225,1,0,0:0:0:0:
448,192,50387,128,0,52982:0:0:0:0:
192,192,50874,1,0,0:0:0:0:
64,192,51522,1,0,0:0:0:0:
320,192,52171,1,0,0:0:0:0:
192,192,52820,1,0,0:0:0:0:
320,192,52982,128,0,54279:0:0:0:0:
64,192,53468,1,0,0:0:0:0:
448,192,54117,1,0,0:0:0:0:
192,192,54279,128,0,54928:0:0:0:0:
320,192,54765,1,0,0:0:0:0:
64,192,54928,128,0,55576:0:0:0:0:
320,192,55414,1,0,0:0:0:0:
448,192,55576,1,0,0:0:0:0:
320,192,55901,1,0,0:0:0:0:
192,192,56063,1,0,0:0:0:0:
192,192,56387,1,0,0:0:0:0:
448,192,56711,1,0,0:0:0:0:
320,192,56874,1,0,0:0:0:0:
64,192,56874,128,0,57360:0:0:0:0:
192,192,57360,128,0,57684:0:0:0:0:
320,192,57684,128,0,58009:0:0:0:0:
64,192,58009,1,0,0:0:0:0:
448,192,58171,128,0,60765:0:0:0:0:
192,192,58171,1,0,0:0:0:0:
320,192,58657,1,0,0:0:0:0:
192,192,59306,1,0,0:0:0:0:
64,192,59955,1,0,0:0:0:0:
320,192,60603,1,0,0:0:0:0:
64,192,60765,128,0,62063:0:0:0:0:
192,192,61252,1,0,0:0:0:0:
320,192,61901,1,0,0:0:0:0:
192,192,62063,128,0,63360:0:0:0:0:
448,192,62549,1,0,0:0:0:0:
64,192,63198,1,0,0:0:0:0:
320,192,63360,128,0,64657:0:0:0:0:
448,192,63847,1,0,0:0:0:0:
192,192,64495,1,0,0:0:0:0:
448,192,64657,128,0,65955:0:0:0:0:
64,192,65144,1,0,0:0:0:0:
320,192,65792,1,0,0:0:0:0:
64,192,65955,128,0,67252:0:0:0:0:
192,192,66441,1,0,0:0:0:0:
448,192,67252,1,0,0:0:0:0:
192,192,67576,1,0,0:0:0:0:
320,192,67738,128,0,68387:0:0:0:0:
64,192,68387,1,0,0:0:0:0:
192,192,68711,1,0,0:0:0:0:
448,192,68711,1,0,0:0:0:0:
64,192,69360,1,0,0:0:0:0:
448,192,69360,1,0,0:0:0:0:
64,192,70009,1,0,0:0:0:0:
320,192,70009,1,0,0:0:0:0:
320,192,70657,1,0,0:0:0:0:
448,192,70657,1,0,0:0:0:0:
192,192,71306,1,0,0:0:0:0:
64,192,71306,1,0,0:0:0:0:
192,192,71955,1,0,0:0:0:0:
320,192,71955,1,0,0:0:0:0:
320,192,72603,1,0,0:0:0:0:
64,192,72603,1,0,0:0:0:0:
192,192,73252,1,0,0:0:0:0:
448,192,73252,1,0,0:0:0:0:
64,192,73576,1,0,0:0:0:0:
320,192,73901,1,0,0:0:0:0:
64,192,74549,1,0,0:0:0:0:
448,192,74549,1,0,0:0:0:0:
320,192,75198,1,0,0:0:0:0:
192,192,75198,1,0,0:0:0:0:
320,192,75847,1,0,0:0:0:0:
448,192,75847,1,0,0:0:0:0:
192,192,76495,1,0,0:0:0:0:
64,192,76495,1,0,0:0:0:0:
192,192,77144,1,0,0:0:0:0:
448,192,77144,1,0,0:0:0:0:
320,192,77468,1,0,0:0:0:0:
64,192,77792,128,0,79090:0:0:0:0:
320,192,79090,1,0,0:0:0:0:
448,192,79090,1,0,0:0:0:0:
192,192,79414,1,0,0:0:0:0:
64,192,79414,1,0,0:0:0:0:
192,192,80063,1,0,0:0:0:0:
320,192,80063,1,0,0:0:0:0:
320,192,80711,1,0,0:0:0:0:
448,192,80711,1,0,0:0:0:0:
448,192,81360,1,0,0:0:0:0:
192,192,81360,1,0,0:0:0:0:
320,192,82009,1,0,0:0:0:0:
64,192,82009,1,0,0:0:0:0:
64,192,82657,1,0,0:0:0:0:
448,192,82657,1,0,0:0:0:0:
320,192,83306,1,0,0:0:0:0:
192,192,83306,1,0,0:0:0:0:
192,192,83955,1,0,0:0:0:0:
64,192,83955,1,0,0:0:0:0:
320,192,84603,1,0,0:0:0:0:
448,192,84603,1,0,0:0:0:0:
192,192,84928,1,0,0:0:0:0:
64,192,85252,1,0,0:0:0:0:
192,192,85576,1,0,0:0:0:0:
320,192,85901,1,0,0:0:0:0:
64,192,86225,1,0,0:0:0:0:
448,192,86225,128,0,86874:0:0:0:0:
192,192,86874,128,0,88820:0:0:0:0:
448,192,88820,1,0,0:0:0:0:
64,192,88982,1,0,0:0:0:0:
448,192,89144,1,0,0:0:0:0:
64,192,89306,1,0,0:0:0:0:
