osu file format v14

[General]
AudioFilename: audio2.mp3
AudioLeadIn: 0
PreviewTime: 46457
Countdown: 1
SampleSet: Soft
StackLeniency: 0.4
Mode: 0
LetterboxInBreaks: 0
WidescreenStoryboard: 0

[Editor]
DistanceSpacing: 0.9
BeatDivisor: 4
GridSize: 16
TimelineZoom: 1

[Metadata]
Title:Reimei (TV Size)
TitleUnicode:レイメイ (TV Size)
Artist:Sayuri x MY FIRST STORY
ArtistUnicode:さユり x MY FIRST STORY
Creator:NotEnough
Version:Extra
Source:ゴールデンカムイ 第二期
Tags:golden kamuy opening season 2
BeatmapID:1808698
BeatmapSetID:864923

[Difficulty]
HPDrainRate:6
CircleSize:4
OverallDifficulty:8
ApproachRate:9.2
SliderMultiplier:1.7
SliderTickRate:1

[Events]
//Background and Video events
0,0,"reimei.jpg",0,0
//Break Periods
//Storyboard Layer 0 (Background)
//Storyboard Layer 1 (Fail)
//Storyboard Layer 2 (Pass)
//Storyboard Layer 3 (Foreground)
//Storyboard Sound Samples

[TimingPoints]
-53,324.324324324324,4,2,1,65,1,0
1730,-100,4,2,1,5,0,0
1811,-100,4,2,1,65,0,0
3676,-100,4,2,1,75,0,0
5784,-100,4,2,1,75,0,0
6271,-100,4,2,1,75,0,0
9352,-100,4,2,1,80,0,0
11622,-133.333333333333,4,2,1,55,0,0
22000,-111.111111111111,4,2,1,65,0,0
29622,-133.333333333333,4,2,1,70,0,0
42757,-181.818181818181,4,2,1,40,0,0
45514,-79.9999999999999,4,2,1,80,0,0
46487,-222.222222222223,4,2,1,70,0,0
47784,-80.0000000000001,4,2,1,85,0,1
57190,-80.0000000000001,4,2,1,85,0,1
58163,-80.0000000000001,4,2,1,85,0,1
67730,-80.0000000000001,4,2,1,85,0,1
68217,-80.0000000000001,4,2,1,85,0,1
68541,-90.9090909090909,4,2,1,75,0,0
77946,-90.9090909090909,4,2,1,75,0,0
79082,-90.9090909090909,4,2,1,80,0,0
86379,-90.9090909090909,4,2,1,80,0,0
86865,-90.9090909090909,4,2,1,80,0,0

[Colours]
Combo1 : 226,45,124
Combo2 : 164,32,240
Combo3 : 37,185,239
Combo4 : 23,209,116

[HitObjects]
97,79,595,5,8,0:3:0:0:
97,79,676,1,8,0:3:0:0:
97,79,757,2,0,L|92:149,1,42.5,4|4,0:3|0:3,0:3:0:0:
81,277,919,1,8,0:2:0:0:
189,136,1082,6,0,P|259:108|356:167,1,170,0|0,1:2|1:2,0:2:0:0:
261,281,1568,2,0,L|264:166,1,85,0|0,1:2|0:2,0:2:0:0:
263,196,3027,6,0,L|266:126,1,42.5,0|0,1:2|1:2,0:2:0:0:
268,2,3190,1,8,0:2:0:0:
149,112,3352,1,8,0:2:0:0:
149,112,3676,6,0,B|146:218|146:218|180:274,1,170,12|0,0:2|0:2,0:2:0:0:
198,298,4081,1,0,1:2:0:0:
198,298,4163,5,8,0:2:0:0:
260,89,4325,1,0,1:2:0:0:
305,316,4487,5,8,0:2:0:0:
149,112,4649,1,0,1:2:0:0:
112,355,4811,1,8,0:2:0:0:
60,76,4974,6,0,P|100:34|207:41,1,170,0|0,1:2|1:2,0:2:0:0:
384,307,5460,5,8,0:2:0:0:
100,261,5622,1,0,1:2:0:0:
331,108,5784,1,0,1:2:0:0:
370,94,5865,1,0,1:2:0:0:
412,101,5946,1,8,0:3:0:0:
446,125,6027,1,8,0:3:0:0:
465,163,6109,2,0,L|461:220,1,42.5,4|4,0:3|0:3,0:2:0:0:
243,186,6271,6,0,B|244:79|244:79|301:21,1,170,4|0,1:2|1:2,0:2:0:0:
378,184,6757,1,8,0:2:0:0:
159,120,6919,1,0,0:2:0:0:
159,120,7000,1,0,1:2:0:0:
159,120,7082,2,0,L|61:125,1,85,0|0,1:2|1:2,0:2:0:0:
225,268,7406,6,0,P|241:221|241:169,1,85,8|0,0:2|0:2,0:2:0:0:
117,34,7730,1,0,1:2:0:0:
63,226,7892,1,0,1:2:0:0:
282,104,8054,1,8,0:2:0:0:
326,320,8217,5,0,0:2:0:0:
326,320,8298,1,0,1:2:0:0:
326,320,8379,1,8,0:2:0:0:
133,190,8541,1,8,0:2:0:0:
355,72,8703,1,8,0:2:0:0:
225,343,8866,6,0,L|231:165,1,170,12|0,0:2|1:2,0:2:0:0:
74,0,9352,1,8,0:2:0:0:
74,0,9433,1,0,1:2:0:0:
74,0,9514,2,0,L|79:68,1,42.5,0|0,1:2|1:2,1:2:0:0:
233,130,9676,1,10,0:2:0:0:
233,130,9757,1,0,1:2:0:0:
233,130,9838,2,0,L|228:198,1,42.5,0|0,1:2|1:2,1:2:0:0:
227,4,10000,2,0,L|159:6,1,42.5,8|0,0:2|1:2,1:2:0:0:
75,152,10163,2,0,L|143:150,1,42.5,8|0,1:2|1:2,1:2:0:0:
315,61,10325,5,10,0:2:0:0:
356,54,10406,1,0,1:2:0:0:
397,65,10487,1,0,1:2:0:0:
427,94,10568,5,0,1:2:0:0:
404,127,10649,1,0,1:2:0:0:
398,169,10730,1,0,1:2:0:0:
418,206,10811,1,0,1:2:0:0:
459,215,10892,5,0,1:2:0:0:
480,250,10973,1,2,1:2:0:0:
469,290,11054,1,0,1:2:0:0:
433,310,11137,1,0,1:2:0:0:
394,297,11217,1,0,1:2:0:0:
363,267,11298,5,2,1:2:0:0:
332,289,11379,1,0,1:2:0:0:
298,293,11460,1,0,1:2:0:0:
267,289,11541,1,0,1:2:0:0:
244,277,11623,6,0,P|235:237|247:189,1,63.7500024318696,0|0,1:2|0:2,0:2:0:0:
263,118,11946,1,2,1:2:0:0:
322,185,12109,1,0,0:2:0:0:
375,106,12271,2,0,L|442:113,1,63.7500024318696,0|0,1:2|0:2,0:2:0:0:
338,25,12595,6,0,L|271:32,1,63.7500024318696,0|0,1:2|0:2,0:2:0:0:
199,111,12919,2,0,L|266:118,1,63.7500024318696,0|0,1:2|0:2,0:2:0:0:
186,24,13244,2,0,L|123:31,1,63.7500024318696,0|0,1:2|0:2,0:2:0:0:
55,75,13568,2,0,P|42:38|49:6,1,63.7500024318696,2|0,1:2|0:2,0:2:0:0:
121,118,13892,6,0,P|92:148|67:156,1,63.7500024318696,2|0,1:2|0:2,0:2:0:0:
48,175,14136,1,0,0:2:0:0:
48,175,14217,2,0,P|30:208|49:297,1,127.500004863739,2|0,1:2|1:2,0:2:0:0:
122,235,14703,2,0,B|165:216|165:216|266:229,1,127.500004863739,2|0,0:2|0:2,0:2:0:0:
305,294,15190,6,0,P|332:255|332:219,1,63.7500024318696,2|0,1:2|0:2,0:2:0:0:
339,211,15433,1,0,0:2:0:0:
339,211,15514,2,0,P|376:205|414:217,1,63.7500024318696,2|0,1:2|0:2,0:2:0:0:
446,290,15838,2,0,P|480:258|490:217,1,63.7500024318696,0|0,1:2|0:2,0:2:0:0:
502,128,16163,2,0,L|428:133,1,63.7500024318696,2|0,1:2|0:2,0:2:0:0:
333,39,16487,6,0,L|407:44,1,63.7500024318696,2|0,1:2|0:2,0:2:0:0:
282,101,16811,2,0,P|259:75|254:37,1,63.7500024318696,2|0,1:2|0:2,0:2:0:0:
359,125,17136,1,2,1:2:0:0:
289,183,17298,1,0,0:2:0:0:
218,104,17460,2,0,L|290:100,1,63.7500024318696,2|0,1:2|0:2,0:2:0:0:
200,188,17784,6,0,B|152:200|152:200|67:183,1,127.500004863739,2|0,1:2|1:2,0:2:0:0:
22,128,18271,1,0,0:2:0:0:
22,128,18433,2,0,P|-1:178|5:204,1,63.7500024318696,2|0,1:2|0:2,0:2:0:0:
102,238,18757,2,0,P|76:184|54:176,1,63.7500024318696,0|0,1:2|0:2,0:2:0:0:
90,327,19082,6,0,L|171:329,1,63.7500024318696,2|0,1:2|0:2,0:2:0:0:
253,247,19406,2,0,L|172:249,1,63.7500024318696,2|0,1:2|0:2,0:2:0:0:
241,331,19730,1,8,0:2:0:0:
325,294,19892,1,2,0:2:0:0:
325,294,20055,2,0,P|342:255|334:219,1,63.7500024318696,2|0,1:2|0:2,0:2:0:0:
209,204,20379,6,0,P|234:238|269:249,1,63.7500024318696,10|0,0:2|0:2,0:2:0:0:
346,152,20703,2,0,P|303:156|276:181,1,63.7500024318696,2|0,1:2|0:2,0:2:0:0:
413,200,21027,1,8,0:2:0:0:
380,78,21190,1,0,0:2:0:0:
380,78,21271,1,0,1:2:0:0:
380,78,21352,2,0,L|453:82,1,63.7500024318696,2|8,1:2|0:2,0:2:0:0:
437,257,21676,2,0,P|413:208|413:179,1,63.7500024318696,2|8,1:2|0:2,0:2:0:0:
282,316,22001,6,0,B|201:369|122:305,1,152.999995330811,6|8,1:2|0:2,0:2:0:0:
194,172,22487,1,2,0:2:0:0:
194,172,22649,2,0,P|209:223|207:257,1,76.4999976654053,0|0,1:2|1:2,0:2:0:0:
105,113,22974,6,0,B|193:81|193:81|254:108,1,152.999995330811,10|0,0:2|1:2,0:2:0:0:
318,173,23460,1,0,1:2:0:0:
377,42,23622,2,0,P|388:80|378:134,1,76.4999976654053,10|0,0:2|0:2,0:2:0:0:
360,256,23947,2,0,B|309:271|309:271|204:229,1,152.999995330811,2|8,1:2|0:2,0:2:0:0:
426,204,24433,5,2,0:2:0:0:
426,204,24595,2,0,P|441:248|424:303,1,76.4999976654053,0|0,1:2|1:2,0:2:0:0:
292,369,24919,2,0,P|289:311|298:281,1,76.4999976654053,8|0,0:2|0:2,0:2:0:0:
337,201,25244,1,0,1:2:0:0:
379,331,25406,1,0,1:2:0:0:
206,315,25568,6,0,P|156:324|121:314,1,76.4999976654053,10|0,0:2|0:2,0:2:0:0:
78,205,25892,1,2,1:2:0:0:
165,242,26054,1,0,1:2:0:0:
55,281,26217,2,0,P|14:251|3:213,1,76.4999976654053,10|0,0:2|0:2,0:2:0:0:
98,135,26541,2,0,P|92:185|65:214,1,76.4999976654053,2|0,1:2|1:2,0:2:0:0:
53,67,26865,6,0,P|93:56|136:64,1,76.4999976654053,10|0,0:2|0:2,0:2:0:0:
264,137,27190,2,0,P|224:148|181:140,1,76.4999976654053,2|0,1:2|1:2,0:2:0:0:
341,92,27514,2,0,P|348:137|338:170,1,76.4999976654053,10|0,0:2|0:2,0:2:0:0:
270,272,27838,1,2,1:2:0:0:
264,137,28000,1,0,1:2:0:0:
304,343,28163,6,0,P|260:350|224:337,1,76.4999976654053,10|0,0:2|0:2,0:2:0:0:
148,254,28487,1,0,1:2:0:0:
270,272,28649,1,0,1:2:0:0:
79,302,28811,2,0,P|65:256|70:225,1,76.4999976654053,10|0,0:2|0:2,0:2:0:0:
79,196,29054,1,0,1:2:0:0:
79,196,29136,1,10,0:2:0:0:
179,64,29298,1,8,0:2:0:0:
214,222,29460,1,10,0:2:0:0:
62,102,29622,5,8,0:2:0:0:
256,137,29784,1,2,1:2:0:0:
179,64,29946,1,0,1:2:0:0:
179,64,30271,5,2,1:2:0:0:
214,222,30433,1,8,0:2:0:0:
214,222,30919,5,0,1:2:0:0:
170,307,31081,1,2,0:2:0:0:
319,259,31244,1,0,1:2:0:0:
207,142,31406,2,0,P|160:159|144:178,1,63.7500024318696,10|0,0:2|0:2,0:2:0:0:
84,288,31730,1,10,0:2:0:0:
214,222,31892,1,8,0:2:0:0:
55,199,32054,1,10,0:2:0:0:
170,307,32217,1,8,0:2:0:0:
248,138,32379,5,2,1:2:0:0:
309,252,32541,1,0,1:2:0:0:
360,134,32703,1,2,1:2:0:0:
360,134,33027,5,8,0:2:0:0:
276,329,33190,1,0,1:2:0:0:
276,329,33514,6,0,P|322:333|362:321,1,63.7500024318696,2|0,1:2|0:2,0:2:0:0:
219,256,33838,2,0,P|195:285|187:344,1,95.6250036478044,0|0,1:2|0:2,0:2:0:0:
186,375,34163,1,2,1:2:0:0:
299,251,34325,1,10,0:2:0:0:
138,219,34487,2,0,L|65:227,1,63.7500024318696,0|0,1:2|0:2,0:2:0:0:
169,136,34811,5,2,1:2:0:0:
219,256,34973,1,2,0:2:0:0:
283,141,35136,1,0,1:2:0:0:
283,141,35460,5,2,1:2:0:0:
111,66,35622,1,10,0:2:0:0:
260,15,35784,1,0,1:2:0:0:
260,15,36109,6,0,L|342:19,1,63.7500024318696,2|0,1:2|0:2,0:2:0:0:
434,102,36433,1,10,0:2:0:0:
434,102,36757,5,0,1:2:0:0:
339,240,36919,1,8,0:2:0:0:
315,104,37081,1,0,0:2:0:0:
315,104,37163,1,0,1:2:0:0:
315,104,37244,1,10,0:2:0:0:
431,230,37406,1,8,0:2:0:0:
509,65,37568,5,2,1:2:0:0:
378,32,37730,1,0,1:2:0:0:
380,163,37892,1,0,1:2:0:0:
380,163,38217,5,10,0:2:0:0:
233,62,38379,1,0,1:2:0:0:
232,61,38703,6,0,L|234:189,1,127.500004863739,2|0,1:2|0:2,0:2:0:0:
234,189,39352,5,2,1:2:0:0:
141,92,39514,2,0,P|131:142|144:177,1,63.7500024318696,8|0,0:2|0:2,0:2:0:0:
207,39,39838,2,0,P|168:5|130:0,1,63.7500024318696,2|2,0:2|0:2,0:2:0:0:
58,104,40163,1,2,1:2:0:0:
58,104,40487,5,0,1:2:0:0:
217,115,40649,1,2,1:2:0:0:
61,193,40811,1,8,0:2:0:0:
139,95,40973,1,0,1:2:0:0:
139,95,41298,6,0,L|142:229,1,127.500004863739,2|0,1:2|1:2,0:2:0:0:
279,125,41784,2,0,P|229:114|196:117,1,63.7500024318696,10|0,0:2|0:2,0:2:0:0:
316,211,42109,2,0,L|372:207,2,42.5000016212464,10|8|4,0:3|0:3|0:3,0:3:0:0:
225,275,42433,2,0,L|169:271,2,42.5000016212464,4|4|4,0:3|0:3|0:3,0:3:0:0:
311,346,42758,6,0,L|414:336,1,93.5000028533936,2|2,0:2|0:2,0:2:0:0:
440,218,43406,2,0,P|435:170|393:129,1,93.5000028533936,2|0,0:2|0:2,0:2:0:0:
271,195,44055,2,0,P|315:214|371:198,1,93.5000028533936,2|2,0:2|0:2,0:2:0:0:
432,65,44703,1,2,0:2:0:0:
327,129,45027,1,2,0:2:0:0:
130,17,45352,5,10,0:2:0:0:
200,166,45514,1,0,1:2:0:0:
200,166,45595,1,0,1:2:0:0:
200,166,45677,2,0,L|203:70,1,53.125,8|0,0:2|1:2,1:2:0:0:
23,4,45838,1,0,1:2:0:0:
23,4,45919,1,0,1:2:0:0:
23,4,46000,2,0,L|20:100,1,53.125,8|0,0:2|1:2,1:2:0:0:
65,307,46163,5,8,0:2:0:0:
122,76,46325,1,8,0:2:0:0:
177,239,46487,6,0,P|258:215|332:237,1,152.999995330811,14|2,0:2|0:2,0:2:0:0:
319,32,47622,5,2,0:2:0:0:
319,32,47785,2,0,B|306:79|327:113|327:113|308:136|308:136|333:179|321:248,1,212.5,6|0,1:2|1:2,0:2:0:0:
166,330,48271,2,0,P|156:277|169:219,1,106.25,8|0,0:2|0:2,0:2:0:0:
286,111,48595,1,2,1:2:0:0:
276,291,48757,1,0,1:2:0:0:
167,76,48919,1,10,0:2:0:0:
374,190,49082,6,0,L|261:196,1,106.25,0|2,0:2|1:2,0:2:0:0:
50,166,49406,1,2,1:2:0:0:
240,40,49568,1,10,0:2:0:0:
167,293,49730,2,0,P|140:238|141:193,1,106.25,2|0,2:2|1:2,0:2:0:0:
296,101,50054,1,0,1:2:0:0:
34,47,50217,5,10,0:2:0:0:
34,47,50379,2,0,B|167:17|167:17|260:46,1,212.5,6|2,1:2|1:2,0:2:0:0:
372,183,50865,1,10,0:2:0:0:
177,233,51028,2,0,P|165:176|172:123,1,106.25,2|0,0:2|1:2,0:2:0:0:
273,276,51352,1,2,1:2:0:0:
71,235,51514,1,8,0:2:0:0:
265,114,51676,6,0,B|384:85|352:167|489:130,1,212.5,2|0,1:2|1:2,0:2:0:0:
245,34,52163,2,0,P|200:59|180:126,1,106.25,10|2,0:2|0:2,0:2:0:0:
213,308,52487,1,0,1:2:0:0:
314,184,52649,1,0,1:2:0:0:
89,108,52811,1,10,0:2:0:0:
163,384,52974,6,0,B|195:312|195:312|185:161,1,212.5,6|0,1:2|1:2,0:2:0:0:
40,27,53460,1,10,0:2:0:0:
3,227,53622,2,0,P|60:238|118:213,1,106.25,2|0,0:2|1:2,0:2:0:0:
258,127,53946,1,0,1:2:0:0:
40,27,54109,1,10,0:2:0:0:
334,53,54271,6,0,B|258:91|258:91|109:70,1,212.5,6|0,1:2|1:2,0:2:0:0:
367,37,54757,5,2,1:2:0:0:
318,195,54920,2,0,B|291:275|291:275|170:366,1,212.5,14|0,0:2|1:2,0:2:0:0:
330,162,55406,5,2,1:2:0:0:
68,268,55568,2,0,B|30:192|30:192|51:43,1,212.5,14|2,0:2|1:2,0:2:0:0:
57,26,55973,1,0,1:2:0:0:
57,26,56054,5,10,0:2:0:0:
200,262,56217,1,0,1:2:0:0:
214,63,56379,5,8,0:2:0:0:
123,330,56541,1,0,1:2:0:0:
47,65,56703,5,8,0:2:0:0:
214,345,56865,2,0,P|258:358|324:336,1,106.25,0|0,1:2|0:2,0:2:0:0:
436,150,57190,1,8,0:2:0:0:
396,154,57271,1,0,1:2:0:0:
356,158,57352,1,2,1:2:0:0:
317,162,57433,1,0,1:2:0:0:
277,166,57514,2,0,L|214:171,1,53.125,0|0,1:2|1:2,0:2:0:0:
446,68,57676,5,10,0:2:0:0:
483,82,57757,1,0,1:2:0:0:
509,112,57838,1,0,1:2:0:0:
512,151,57919,1,0,1:2:0:0:
508,189,58000,1,10,0:2:0:0:
190,308,58163,6,0,B|168:160|168:160|213:86,1,212.5,6|0,1:2|1:2,0:2:0:0:
364,232,58649,2,0,P|324:263|259:270,1,106.25,8|0,0:2|0:2,0:2:0:0:
122,154,58973,1,2,1:2:0:0:
319,117,59136,1,0,1:2:0:0:
191,309,59298,1,10,0:2:0:0:
88,85,59460,6,0,B|63:154|63:154|92:307,1,212.5,2|2,1:2|1:2,0:2:0:0:
271,379,59946,1,10,0:2:0:0:
251,151,60109,2,0,P|180:145|143:156,1,106.25,2|0,0:2|1:2,0:2:0:0:
306,248,60433,1,0,1:2:0:0:
295,68,60595,1,10,0:2:0:0:
399,286,60757,6,0,P|312:339|222:294,1,212.5,2|2,1:2|1:2,0:2:0:0:
448,215,61244,2,0,P|481:267|477:315,1,106.25,10|2,0:2|0:2,0:2:0:0:
306,248,61568,1,0,1:2:0:0:
471,132,61730,1,2,1:2:0:0:
422,368,61892,1,8,0:2:0:0:
276,117,62055,6,0,B|254:249|254:249|289:354,1,212.5,6|2,1:2|1:2,0:2:0:0:
446,222,62541,1,10,0:2:0:0:
222,185,62703,2,0,B|110:196|112:196,1,106.25,2|0,0:2|1:2,0:2:0:0:
278,323,63027,1,0,1:2:0:0:
370,125,63190,1,10,0:2:0:0:
83,282,63352,6,0,P|26:203|97:108,1,212.5,2|2,1:2|1:2,0:2:0:0:
270,69,63838,1,10,0:2:0:0:
223,254,64001,2,0,P|189:189|189:137,1,106.25,2|0,0:2|1:2,0:2:0:0:
322,255,64325,1,0,1:2:0:0:
165,327,64487,1,10,0:2:0:0:
390,126,64649,6,0,B|410:260|410:260|376:344,1,212.5,2|2,1:2|1:2,0:2:0:0:
190,247,65136,1,8,0:2:0:0:
275,74,65298,2,0,P|281:144|249:201,1,106.25,2|0,0:2|1:2,0:2:0:0:
194,8,65622,1,2,1:2:0:0:
374,56,65784,1,10,0:2:0:0:
167,330,65947,6,0,B|142:248|142:248|170:105,1,212.5,6|0,1:2|1:2,0:2:0:0:
347,273,66433,2,0,P|299:293|235:280,1,106.25,8|0,0:2|0:2,0:2:0:0:
75,180,66757,1,0,1:2:0:0:
301,137,66919,1,2,1:2:0:0:
173,249,67081,1,10,0:2:0:0:
278,45,67244,6,0,P|352:59|372:202,1,212.5,2|0,1:2|1:2,0:2:0:0:
141,134,67730,1,8,0:2:0:0:
180,134,67811,1,0,1:2:0:0:
220,135,67892,1,0,1:2:0:0:
260,135,67973,1,0,1:2:0:0:
300,136,68054,1,8,0:2:0:0:
94,66,68217,1,0,1:2:0:0:
277,225,68379,1,8,0:2:0:0:
277,225,68703,6,0,B|373:189|373:260|470:221,1,187.000005706787,6|2,1:2|0:2,0:2:0:0:
489,213,69190,1,2,1:2:0:0:
329,291,69352,1,8,0:2:0:0:
417,61,69514,2,0,P|422:127|413:162,1,93.5000028533936,2|0,1:2|0:2,0:2:0:0:
409,182,69838,5,2,1:2:0:0:
327,36,70000,1,8,0:2:0:0:
185,112,70163,2,0,P|240:120|290:107,1,93.5000028533936,2|0,1:2|0:2,0:2:0:0:
134,32,70487,1,2,0:2:0:0:
134,32,70568,1,0,1:2:0:0:
134,32,70649,1,8,0:2:0:0:
68,197,70811,2,0,L|72:92,1,93.5000028533936,2|0,1:2|0:2,0:2:0:0:
153,268,71136,5,0,0:2:0:0:
153,268,71217,1,0,1:2:0:0:
153,268,71298,1,10,0:2:0:0:
20,366,71460,2,0,L|120:357,1,93.5000028533936,0|2,1:2|0:2,0:2:0:0:
145,352,71784,1,0,1:2:0:0:
156,161,71946,1,8,0:2:0:0:
67,287,72109,1,2,1:2:0:0:
232,211,72271,6,0,L|331:215,1,93.5000028533936,2|0,0:2|1:2,0:2:0:0:
485,163,72595,1,10,0:2:0:0:
323,109,72757,1,0,1:2:0:0:
405,271,72919,2,0,L|404:160,1,93.5000028533936,2|0,0:2|1:2,0:2:0:0:
408,143,73163,1,0,1:2:0:0:
408,143,73244,5,10,0:2:0:0:
288,327,73406,1,0,1:2:0:0:
323,109,73568,5,8,0:2:0:0:
377,358,73730,1,0,1:2:0:0:
200,148,73892,5,10,0:2:0:0:
130,339,74055,2,0,L|132:227,1,93.5000028533936,2|2,1:2|0:2,0:2:0:0:
132,212,74379,1,2,1:2:0:0:
45,364,74541,1,8,0:2:0:0:
211,265,74703,2,0,P|258:258|320:266,1,93.5000028533936,2|0,1:2|0:2,0:2:0:0:
263,345,75027,5,2,1:2:0:0:
239,178,75190,1,8,0:2:0:0:
360,198,75352,2,0,P|383:249|377:291,1,93.5000028533936,2|0,1:2|0:2,0:2:0:0:
365,326,75676,1,2,1:2:0:0:
305,129,75838,1,8,0:2:0:0:
453,197,76001,2,0,B|344:197|347:198,1,93.5000028533936,2|0,1:2|0:2,0:2:0:0:
144,116,76325,5,2,0:2:0:0:
144,116,76406,1,0,1:2:0:0:
144,116,76487,2,0,B|136:227|136:227|170:303,1,187.000005706787,10|0,0:2|0:2,0:2:0:0:
181,330,76973,1,2,1:2:0:0:
255,131,77136,1,10,0:2:0:0:
60,197,77298,1,0,0:2:0:0:
60,197,77379,1,0,1:2:0:0:
60,197,77460,1,8,0:2:0:0:
211,217,77622,5,2,0:2:0:0:
283,32,77784,1,10,1:2:0:0:
399,254,77946,1,10,0:2:0:0:
399,254,78027,1,0,1:2:0:0:
399,254,78109,2,0,L|336:260,1,46.7500014266968,0|0,1:2|1:2,1:2:0:0:
154,100,78271,2,0,L|217:106,1,46.7500014266968,10|0,0:2|1:2,1:2:0:0:
449,184,78433,5,10,0:2:0:0:
474,222,78514,1,0,1:2:0:0:
480,268,78595,1,0,1:2:0:0:
466,312,78676,1,0,1:2:0:0:
433,346,78757,5,10,0:2:0:0:
387,333,78838,1,0,1:2:0:0:
342,341,78919,2,0,P|315:346|287:341,1,46.7500014266968,8|0,0:2|1:2,1:2:0:0:
253,176,79081,5,2,1:2:0:0:
399,254,79244,1,0,1:2:0:0:
187,231,79406,2,0,P|170:184|181:137,1,93.5000028533936,8|2,0:2|0:2,0:2:0:0:
196,115,79649,1,0,1:2:0:0:
196,115,79730,1,2,1:2:0:0:
337,22,79892,1,0,1:2:0:0:
346,177,80055,6,0,L|251:175,1,93.5000028533936,8|0,0:2|0:2,0:2:0:0:
421,137,80379,1,2,1:2:0:0:
346,268,80541,1,0,1:2:0:0:
178,142,80703,2,0,P|213:104|253:94,1,93.5000028533936,8|2,0:2|0:2,0:2:0:0:
289,97,80946,1,0,1:2:0:0:
289,97,81027,1,2,1:2:0:0:
421,220,81190,1,0,1:2:0:0:
249,268,81352,6,0,L|253:139,1,93.5000028533936,8|0,0:2|0:2,0:2:0:0:
174,324,81676,1,2,1:2:0:0:
323,330,81838,1,0,1:2:0:0:
153,228,82001,2,0,L|55:233,1,93.5000028533936,8|2,0:2|0:2,0:2:0:0:
23,241,82244,1,0,1:2:0:0:
23,241,82325,1,2,1:2:0:0:
174,324,82487,1,0,1:2:0:0:
251,174,82649,6,0,P|256:121|246:82,1,93.5000028533936,8|2,0:2|0:2,0:2:0:0:
174,324,82973,1,2,1:2:0:0:
370,235,83136,1,0,1:2:0:0:
160,126,83298,2,0,L|57:133,1,93.5000028533936,10|0,0:2|0:2,0:2:0:0:
21,137,83541,1,0,1:2:0:0:
21,137,83622,1,2,1:2:0:0:
240,246,83784,1,0,1:2:0:0:
162,32,83946,6,0,L|159:136,1,93.5000028533936,10|0,0:2|0:2,0:2:0:0:
153,290,84271,1,2,1:2:0:0:
264,160,84433,1,0,1:2:0:0:
94,223,84595,2,0,B|-1:216,1,93.5000028533936,8|0,0:2|1:2,0:2:0:0:
159,125,84919,5,8,0:2:0:0:
246,264,85081,1,0,1:2:0:0:
281,80,85244,5,8,0:2:0:0:
165,262,85406,1,2,1:2:0:0:
206,50,85568,5,10,0:2:0:0:
327,268,85730,1,0,1:2:0:0:
341,22,85892,5,8,0:2:0:0:
244,290,86054,1,0,1:2:0:0:
122,11,86217,5,10,0:2:0:0:
328,221,86379,2,0,L|326:285,1,46.7500014266968,0|0,1:2|1:2,0:2:0:0:
87,162,86541,1,8,0:2:0:0:
122,162,86622,1,0,1:2:0:0:
157,163,86703,2,0,L|205:163,1,46.7500014266968,0|0,1:2|1:2,1:2:0:0:
14,58,86866,6,0,B|-6:166|-6:166|27:262,1,187.000005706787,6|0,1:2|0:2,0:2:0:0:
30,274,87352,1,0,1:2:0:0:
123,71,87514,5,8,0:2:0:0:
214,332,87676,1,0,1:2:0:0:
231,25,87838,5,10,0:2:0:0:
121,306,88000,1,0,1:2:0:0:
388,158,88163,1,10,0:2:0:0:
400,202,88244,1,0,1:2:0:0:
389,246,88325,1,0,1:2:0:0:
45,163,88487,5,8,0:2:0:0:
321,42,88650,1,0,1:2:0:0:
306,352,88811,5,8,0:2:0:0:
123,71,88973,1,8,0:2:0:0:
51,361,89136,1,8,0:2:0:0:
301,130,89298,1,12,0:2:0:0:
