osu file format v14

[General]
AudioFilename: audio.mp3
AudioLeadIn: 0
PreviewTime: 46492
Countdown: 0
SampleSet: Soft
StackLeniency: 0.7
Mode: 0
LetterboxInBreaks: 0
WidescreenStoryboard: 1

[Editor]
Bookmarks: 11627,22006,32384,45357
DistanceSpacing: 1.5
BeatDivisor: 4
GridSize: 32
TimelineZoom: 1.950004

[Metadata]
Title:Reimei (TV Size)
TitleUnicode:レイメイ (TV Size)
Artist:Sayuri x MY FIRST STORY
ArtistUnicode:さユり × MY FIRST STORY
Creator:Leann
Version:Insane
Source:ゴールデンカムイ 第二期
Tags:golden kamuy season 2 pawlyk here djulus mustacciosan op opening
BeatmapID:1809641
BeatmapSetID:861865

[Difficulty]
HPDrainRate:6
CircleSize:3.8
OverallDifficulty:7
ApproachRate:9
SliderMultiplier:2
SliderTickRate:1

[Events]
//Background and Video events
Video,0,"Golden Kamuy OP 2.mp4"
0,0,"topdiffbg.jpg",0,0
//Break Periods
2,42983,44777
//Storyboard Layer 0 (Background)
//Storyboard Layer 1 (Fail)
//Storyboard Layer 2 (Pass)
//Storyboard Layer 3 (Foreground)
//Storyboard Sound Samples

[TimingPoints]
-48,324.324324324324,4,2,1,50,1,0
600,-133.333333333333,4,2,1,60,0,0
1087,-125,4,2,1,60,0,0
1897,-125,4,2,1,60,0,0
2708,-100,4,2,1,60,0,0
3033,-100,4,2,1,60,0,0
4168,-111.111111111111,4,2,1,60,0,0
5487,324.324324324324,4,2,1,50,1,0
6459,324.324324324324,4,2,1,100,1,0
9215,-111.111111111111,4,2,1,40,0,0
9702,-111.111111111111,4,2,1,45,0,0
10350,-166.666666666667,4,2,1,50,0,0
10999,-166.666666666667,4,2,1,60,0,0
11648,-181.818181818181,4,2,1,40,0,0
11972,-125,4,2,1,40,0,0
15540,-200,4,2,1,40,0,0
16188,-200,4,2,1,40,0,0
16837,-125,4,2,1,40,0,0
18783,-200,4,2,1,40,0,0
19431,-142.857142857143,4,2,1,40,0,0
20404,-133.333333333333,4,2,1,40,0,0
21377,-133.333333333333,4,2,1,50,0,0
30134,-111.111111111111,4,2,1,50,0,0
30945,-100,4,2,1,50,0,0
32404,-125,4,2,1,60,0,0
34999,-142.857142857143,4,2,1,60,0,0
37594,-125,4,2,1,60,0,0
39377,-125,4,2,1,60,0,0
41486,-117.647058823529,4,2,1,60,0,0
45377,-117.647058823529,4,2,1,40,0,0
45702,-200,4,2,1,50,0,0
46675,-125,4,2,1,60,0,0
47161,-250,4,2,1,60,0,0
47810,-111.111111111111,4,2,1,70,0,1
47972,-111.111111111111,4,2,1,70,0,1
48945,-111.111111111111,4,2,1,70,0,1
49918,-111.111111111111,4,2,1,70,0,1
57215,-100,4,2,1,50,0,1
57458,-100,4,2,1,60,0,1
57702,-125,4,2,1,70,0,1
58999,-111.111111111111,4,2,1,70,0,1
67918,-166.666666666666,4,2,1,70,0,1
68729,-111.111111111111,4,2,1,70,0,1
71810,-111.111111111111,4,2,1,70,0,1
76513,-111.111111111111,4,2,1,70,0,1
79107,-111.111111111111,4,2,1,70,0,1
82026,-111.111111111111,4,2,1,70,0,1
82999,-111.111111111111,4,2,1,70,0,1
86242,-111.111111111111,4,2,1,50,0,0
89323,-111.111111111111,4,2,1,50,0,0
89486,-100,4,2,1,50,0,0

[Colours]
Combo1 : 65,0,130
Combo2 : 0,0,234
Combo3 : 255,141,28
Combo4 : 166,9,32

[HitObjects]
138,28,600,6,8,L|129:80,1,37.5000014305115,8|8,3:0|3:0,3:0:0:0:
124,101,762,1,4,3:0:0:0:
118,138,843,1,4,3:0:0:0:
113,175,924,1,8,2:0:0:0:
186,253,1087,6,0,B|238:253|238:253|291:212|291:212|355:213,1,160,6|2,0:0|0:0,0:0:0:0:
495,151,1573,2,0,P|463:129|399:121,1,80,2|0,0:0|0:0,0:0:0:0:
307,71,1897,2,0,P|328:39|364:17,1,80
318,198,2222,2,0,P|298:231|265:257,1,80,2|0,0:0|0:0,0:0:0:0:
135,310,2546,1,0,0:0:0:0:
171,156,2708,1,0,0:0:0:0:
318,198,2870,1,2,0:0:0:0:
313,357,3033,5,2,0:0:0:0:
313,357,3114,1,0,0:0:0:0:
313,357,3195,2,0,B|255:357|255:357|197:340,1,100,10|8,0:0|0:0,0:0:0:0:
9,288,3681,6,0,B|90:262|90:262|157:287|202:217,1,200,6|0,0:0|0:0,0:0:0:0:
208,67,4168,2,0,P|202:120|230:175,1,89.9999972534181,8|0,0:0|0:0,0:0:0:0:
295,325,4492,2,0,P|314:282|313:215,1,89.9999972534181,8|0,0:0|0:0,0:0:0:0:
301,145,4816,1,0,0:0:0:0:
141,15,4979,6,0,B|108:70|108:70|148:115|146:195,1,179.999994506836,6|0,0:0|0:0,0:0:0:0:
170,328,5487,1,8,0:0:0:0:
271,207,5649,1,0,0:0:0:0:
116,211,5811,1,8,0:0:0:0:
131,176,5892,1,8,0:0:0:0:
154,147,5973,1,8,0:0:0:0:
183,123,6054,1,8,0:0:0:0:
216,107,6135,1,8,0:0:0:0:
320,84,6297,6,0,B|310:188|437:242,1,200,6|0,0:0|0:0,0:0:0:0:
328,314,6783,2,0,B|220:310,1,100,8|0,0:0|0:0,0:0:0:0:
201,306,7026,1,0,0:0:0:0:
175,305,7107,1,2,0:0:0:0:
274,182,7269,1,0,0:0:0:0:
89,256,7431,1,8,0:0:0:0:
58,142,7594,1,0,0:0:0:0:
58,142,7756,6,0,B|70:92|70:92|115:46,1,100,6|0,0:0|0:0,0:0:0:0:
198,140,8080,2,0,B|243:156|243:156|297:150,1,100,8|0,2:0|2:0,0:0:0:0:
318,145,8323,1,0,0:0:0:0:
340,140,8404,1,8,0:0:0:0:
244,16,8567,1,8,0:0:0:0:
86,114,8729,1,8,0:0:0:0:
155,287,8891,6,0,B|203:281|203:281|252:236,1,100,6|0,0:0|0:0,0:0:0:0:
347,121,9215,5,8,0:0:0:0:
355,153,9377,1,8,0:0:0:0:
318,215,9540,1,8,0:0:0:0:
272,102,9702,1,8,0:0:0:0:
280,279,9864,1,8,0:0:0:0:
196,73,10026,1,8,0:0:0:0:
189,263,10188,1,8,2:3:0:0:
164,249,10269,1,8,2:3:0:0:
143,236,10350,1,14,2:3:0:0:
87,102,10512,5,8,0:0:0:0:
105,86,10593,1,8,0:0:0:0:
127,74,10674,1,8,0:0:0:0:
151,67,10755,1,8,0:0:0:0:
176,69,10836,1,8,0:0:0:0:
196,73,10917,1,0,0:0:0:0:
377,130,10999,6,0,L|390:95,2,29.9999990844727,10|0|0,0:0|0:0|0:0,0:0:0:0:
308,200,11242,6,0,L|302:239,2,29.9999990844727,10|0|0,0:0|0:0|0:0,0:0:0:0:
231,131,11485,2,0,L|223:98,1,29.9999990844727,8|0,0:0|0:0,0:0:0:0:
170,301,11647,5,2,0:0:0:0:
233,301,11971,1,2,0:0:0:0:
310,211,12296,1,2,0:0:0:0:
311,147,12620,1,2,0:0:0:0:
442,304,12945,1,2,0:0:0:0:
378,304,13269,1,2,0:0:0:0:
489,221,13594,2,0,B|446:220|410:190,1,80,2|0,0:0|0:0,0:0:0:0:
363,85,13918,2,0,B|350:126|285:162,1,80,2|0,0:0|0:0,0:0:0:0:
209,157,14242,5,2,0:0:0:0:
209,157,14567,1,0,0:0:0:0:
116,208,14891,1,2,0:0:0:0:
102,101,15215,1,2,0:0:0:0:
52,285,15377,1,2,0:0:0:0:
125,311,15540,1,2,0:0:0:0:
203,290,15702,2,0,L|180:236,2,50
283,375,16188,6,0,L|340:285,1,100
229,148,16837,2,0,P|201:176|188:214,1,80,6|0,0:0|0:0,0:0:0:0:
317,205,17161,2,0,P|335:170|330:131,1,80,2|0,0:0|0:0,0:0:0:0:
383,23,17485,2,0,P|343:10|283:23,1,80,2|0,0:0|0:0,0:0:0:0:
185,92,17728,1,0,0:0:0:0:
185,92,17809,6,0,L|298:117,1,80,2|0,0:0|0:0,0:0:0:0:
364,152,18134,1,2,0:0:0:0:
488,134,18296,1,0,0:0:0:0:
438,246,18458,2,0,P|419:265|366:281,1,80,2|0,0:0|0:0,0:0:0:0:
225,367,18783,2,0,B|245:266,1,100,2|2,0:0|2:0,0:0:0:0:
262,179,19269,1,0,0:0:0:0:
136,173,19431,6,0,B|133:82|227:59,1,139.999995727539,6|8,0:0|0:0,0:0:0:0:
370,31,19918,2,0,B|391:93|391:93|378:171,1,139.999995727539
354,322,20405,2,0,B|305:308|253:338,1,75.0000028610231,10|0,0:0|0:0,0:0:0:0:
233,339,20729,2,0,B|197:304|197:244,1,75.0000028610231,2|0,0:0|0:0,0:0:0:0:
196,236,20972,1,0,0:0:0:0:
199,198,21054,1,8,0:0:0:0:
205,54,21215,1,0,0:0:0:0:
76,127,21378,5,6,0:0:0:0:
286,164,21540,1,0,0:0:0:0:
122,59,21702,1,8,0:0:0:0:
133,234,21864,1,0,0:0:0:0:
236,166,22025,5,2,0:0:0:0:
272,309,22187,1,2,0:0:0:0:
398,226,22350,2,0,P|391:186|369:155,1,75.0000028610231,8|0,0:0|0:0,0:0:0:0:
260,41,22674,5,2,0:0:0:0:
415,40,22836,1,2,0:0:0:0:
291,139,22999,2,0,B|256:160|256:160|194:162,1,75.0000028610231,8|0,0:0|0:0,0:0:0:0:
86,166,23323,2,0,L|87:267,1,75.0000028610231,2|2,0:0|0:0,0:0:0:0:
197,59,23648,2,0,L|200:157,1,75.0000028610231
208,245,23972,1,0,0:0:0:0:
208,245,24133,1,0,0:0:0:0:
188,359,24296,1,8,0:0:0:0:
188,359,24458,1,0,0:0:0:0:
100,282,24620,6,0,P|87:242|106:183,1,75.0000028610231,2|2,0:0|0:0,0:0:0:0:
158,95,24944,2,0,P|181:128|188:188,1,75.0000028610231,8|0,0:0|0:0,0:0:0:0:
261,256,25269,1,2,0:0:0:0:
386,241,25431,1,2,0:0:0:0:
419,119,25594,5,8,0:0:0:0:
419,119,25756,1,0,0:0:0:0:
303,84,25918,2,0,P|312:124|296:162,1,75.0000028610231,2|2,0:0|0:0,0:0:0:0:
216,250,26242,2,0,P|189:210|190:166,1,75.0000028610231,8|0,0:0|0:0,0:0:0:0:
128,71,26567,2,8,P|70:124|77:221,1,150.000005722046,2|8,0:0|0:0,0:0:0:0:
233,329,27215,6,0,B|270:326|270:326|314:301,1,75.0000028610231,6|2,0:0|0:0,0:0:0:0:
121,304,27540,2,0,B|90:324|90:324|48:329,1,75.0000028610231,8|2,0:3|0:3,0:3:0:0:
59,156,27864,2,8,B|91:136|91:136|144:126,1,75.0000028610231,10|10,2:0|2:0,2:0:0:0:
291,202,28189,2,2,B|259:222|259:222|215:227,1,75.0000028610231,10|2,0:0|0:0,0:0:0:0:
245,67,28513,2,0,B|281:60|281:60|321:65,1,75.0000028610231,2|2,0:0|0:0,0:0:0:0:
216,140,28838,2,0,B|179:131|179:131|128:146,1,75.0000028610231,8|0,0:0|0:0,0:0:0:0:
68,239,29161,5,8,0:0:0:0:
45,90,29324,1,2,0:0:0:0:
279,240,29487,1,2,0:0:0:0:
279,240,29568,1,0,0:0:0:0:
279,240,29648,1,2,0:0:0:0:
400,171,29810,6,0,L|495:197,1,75.0000028610231,6|0,0:0|0:0,0:0:0:0:
443,342,30134,2,0,B|384:340|384:340|339:311|339:311|254:309,1,179.999994506836,0|0,2:0|2:0,2:0:0:0:
119,314,30621,1,0,0:0:0:0:
0,217,30782,2,0,P|3:164|31:131,1,89.9999972534181,0|2,2:0|2:0,2:0:0:0:
159,73,31107,5,8,0:0:0:0:
249,174,31269,1,2,0:0:0:0:
109,200,31431,1,8,0:0:0:0:
284,41,31593,1,8,0:0:0:0:
429,30,31755,1,8,0:0:0:0:
437,186,31917,1,8,0:0:0:0:
270,89,32080,2,0,B|271:140|271:140|314:201,1,100,8|0,0:0|0:0,3:0:0:0:
378,341,32404,6,0,B|327:341|327:341|283:361|283:361|197:363,1,160,14|0,0:0|0:0,0:0:0:0:
74,312,32891,1,0,0:0:0:0:
74,312,32972,1,0,0:0:0:0:
73,312,33054,2,0,L|73:229,1,80,8|0,0:0|0:0,0:0:0:0:
76,104,33377,1,0,0:0:0:0:
85,29,33539,6,0,P|98:92|200:142,1,160,6|0,0:0|0:0,0:0:0:0:
319,96,34027,2,0,P|297:134|306:185,1,80
294,322,34351,2,0,P|239:296|154:323,1,120,8|0,0:0|0:0,0:0:0:0:
29,316,34675,2,0,P|34:277|80:223,1,80
191,72,35000,5,8,0:0:0:0:
278,198,35162,1,6,0:0:0:0:
373,61,35324,2,0,P|336:86|324:119,1,69.9999978637696,0|2,0:0|0:0,0:0:0:0:
445,220,35648,2,0,P|437:253|414:280,1,69.9999978637696,10|0,0:0|0:0,0:0:0:0:
307,340,35972,1,0,0:0:0:0:
307,340,36054,1,0,0:0:0:0:
307,340,36135,6,0,P|225:333|180:280,1,139.999995727539,6|8,0:0|0:0,0:0:0:0:
135,141,36621,1,0,0:0:0:0:
52,286,36783,1,2,0:0:0:0:
240,224,36945,1,8,0:0:0:0:
240,224,37027,1,0,0:0:0:0:
240,224,37108,2,0,P|257:191|264:152,1,69.9999978637696,2|0,0:0|0:0,0:0:0:0:
288,67,37432,1,8,0:0:0:0:
407,236,37594,6,0,P|394:274|372:307,1,80,6|8,0:0|0:0,0:0:0:0:
178,323,37918,2,0,P|203:293|250:271,1,80
407,236,38242,2,0,P|367:237|327:222,1,80,8|0,0:0|0:0,0:0:0:0:
236,139,38567,1,0,0:0:0:0:
164,28,38729,2,0,B|168:72|137:99|137:99|153:143|126:192,1,160,6|2,0:0|0:0,0:0:0:0:
91,297,39215,2,0,B|129:305|129:305|183:285,1,80
289,195,39540,1,8,0:0:0:0:
450,136,39864,5,0,0:0:0:0:
452,281,40188,2,0,P|392:321|294:309,1,160,14|0,0:0|0:0,0:0:0:0:
140,215,40675,2,0,P|221:239|296:207,1,160,10|2,0:0|0:0,0:0:0:0:
318,194,41161,1,8,0:0:0:0:
391,97,41323,1,6,0:0:0:0:
391,97,41486,2,0,P|310:68|203:91,1,170.000003242493,8|0,0:0|0:0,0:0:0:0:
142,115,41972,1,0,0:0:0:0:
120,235,42134,5,8,0:0:0:0:
169,243,42242,5,8,0:0:0:0:
208,275,42350,5,8,0:0:0:0:
243,311,42458,5,8,0:0:0:0:
288,330,42567,5,8,0:0:0:0:
339,338,42675,5,8,0:0:0:0:
387,333,42783,5,12,0:0:0:0:
327,352,45377,6,0,P|366:336|401:280,1,85.0000016212464
411,255,45621,1,8,0:0:0:0:
413,225,45702,2,0,B|410:185,3,25,8|8|8|8,0:0|0:0|0:0|0:0,0:0:0:0:
269,244,46026,5,8,0:0:0:0:
452,94,46188,1,8,0:0:0:0:
266,56,46350,2,0,L|200:41,1,50,10|8,0:0|0:0,0:0:0:0:
194,186,46675,1,0,0:0:0:0:
290,218,46999,5,2,0:0:0:0:
290,218,47161,2,0,L|183:183,1,100,2|0,0:0|0:0,0:0:0:0:
61,89,47648,1,2,0:0:0:0:
61,89,47810,6,0,P|153:163|133:305,1,269.999991760254,6|8,0:0|0:0,0:0:0:0:
78,375,48458,1,0,0:0:0:0:
226,285,48621,6,0,B|290:256|323:346|402:294,1,179.999994506836,2|8,0:0|0:0,0:0:0:0:
501,147,49107,2,0,P|448:148|408:131,1,89.9999972534181,2|0,0:0|0:0,0:0:0:0:
225,66,49431,1,6,0:0:0:0:
408,40,49594,1,8,0:0:0:0:
294,187,49756,1,0,0:0:0:0:
294,187,49837,1,0,0:0:0:0:
294,187,49918,2,0,P|257:221|192:248,1,89.9999972534181,2|2,0:0|0:0,0:0:0:0:
46,280,50243,1,8,0:0:0:0:
18,98,50405,6,0,B|67:88|116:131,1,89.9999972534181,6|0,0:0|0:0,0:0:0:0:
224,243,50729,1,2,0:0:0:0:
367,158,50891,1,8,0:0:0:0:
271,35,51054,2,0,L|273:128,1,89.9999972534181
279,302,51378,1,2,0:0:0:0:
424,247,51540,1,0,0:3:0:0:
243,205,51702,6,0,B|232:163|273:123,1,89.9999972534181,8|0,2:0|2:0,2:0:0:0:
392,113,52027,1,2,0:0:0:0:
180,275,52189,1,8,0:0:0:0:
180,275,52350,2,0,P|107:257|175:233,1,179.999994506836,0|2,0:0|0:0,0:0:0:0:
426,253,52837,1,8,0:0:0:0:
505,147,52999,6,0,B|455:103|394:124|394:124|327:106,1,179.999994506836,6|0,0:0|0:0,0:0:0:0:
281,167,53486,1,8,0:0:0:0:
187,83,53648,2,0,B|208:121|179:167|179:167|200:194|198:291,1,179.999994506836
142,372,54134,1,8,0:0:0:0:
15,199,54296,6,0,B|65:155|65:155|199:150,1,179.999994506836,6|2,0:0|0:0,0:0:0:0:
309,147,54783,1,8,0:0:0:0:
489,177,54945,6,0,P|469:106|371:41,1,179.999994506836,6|0,0:0|0:0,0:0:0:0:
257,35,55431,1,8,0:0:0:0:
110,74,55593,6,0,B|109:166|109:166|96:173|96:173|94:282,1,179.999994506836,4|2,0:0|0:0,0:0:0:0:
317,125,56081,5,10,0:0:0:0:
274,296,56243,1,2,0:0:0:0:
436,104,56405,5,8,0:0:0:0:
469,276,56567,1,2,0:0:0:0:
263,88,56729,5,8,0:0:0:0:
321,253,56891,1,6,0:0:0:0:
436,104,57053,1,8,0:0:0:0:
233,85,57215,5,8,2:0:0:0:
212,98,57296,1,8,2:0:0:0:
191,113,57377,1,8,2:0:0:0:
173,131,57458,1,8,2:0:0:0:
158,151,57539,1,8,2:0:0:0:
144,171,57620,1,8,0:0:0:0:
137,191,57702,2,0,L|157:291,2,80,8|2|10,0:0|0:0|0:0,0:0:0:0:
454,187,58189,6,0,P|380:221|290:204,1,160,6|0,0:0|0:0,0:0:0:0:
141,123,58675,1,8,0:0:0:0:
63,22,58837,1,0,0:0:0:0:
252,57,59000,2,0,P|272:123|198:227,1,179.999994506836,2|8,0:0|0:0,0:0:0:0:
81,275,59486,5,0,0:0:0:0:
261,366,59648,2,0,P|280:321|272:269,1,89.9999972534181,2|0,0:0|0:0,0:0:0:0:
206,170,59971,1,8,0:0:0:0:
90,272,60134,1,2,0:0:0:0:
114,115,60297,2,8,P|145:77|188:62,1,89.9999972534181,8|0,2:0|2:0,2:0:0:0:
269,208,60621,1,8,0:0:0:0:
229,310,60783,6,0,P|328:298|374:205,1,179.999994506836,6|0,0:0|0:0,0:0:0:0:
269,208,61270,1,8,0:0:0:0:
85,222,61432,2,0,P|113:180|157:161,1,89.9999972534181
346,142,61756,2,0,P|385:100|386:47,1,89.9999972534181,2|8,0:0|0:0,0:0:0:0:
279,0,62080,1,4,0:0:0:0:
256,188,62242,1,0,0:0:0:0:
442,144,62405,2,0,P|471:191|472:235,1,89.9999972534181,2|8,0:0|0:0,0:0:0:0:
321,226,62728,2,8,B|272:197|269:148,1,89.9999972534181,0|8,0:0|0:0,0:0:0:0:
243,22,63054,5,2,0:0:0:0:
197,201,63216,1,8,0:0:0:0:
353,307,63378,2,0,P|340:234|381:133,1,179.999994506836,6|0,0:0|0:0,0:0:0:0:
466,11,63864,1,8,0:0:0:0:
302,114,64027,2,0,P|214:142|113:96,1,179.999994506836
215,14,64512,5,8,0:0:0:0:
405,57,64675,2,0,P|388:135|280:177,1,179.999994506836
112,169,65162,1,8,0:0:0:0:
304,179,65323,2,0,P|375:237|390:343,1,179.999994506836
217,374,65809,1,0,0:0:0:0:
238,183,65972,6,4,B|166:191|157:224|146:257|75:264,1,179.999994506836,4|0,0:0|0:0,0:0:0:0:
0,137,66459,2,0,P|33:117|97:109,1,89.9999972534181,8|0,0:0|0:0,0:0:0:0:
268,119,66783,1,10,0:0:0:0:
161,0,66945,1,2,0:0:0:0:
375,73,67108,1,8,0:0:0:0:
375,73,67270,2,4,P|411:140|377:240,1,179.999994506836,6|4,0:0|0:0,0:0:0:0:
264,285,67756,5,8,0:0:0:0:
264,285,67837,1,8,0:0:0:0:
264,285,67918,2,0,L|201:242,2,59.9999981689454,0|8|0,0:0|0:0|0:0,0:0:0:0:
253,174,68405,2,0,L|185:131,1,59.9999981689454,8|0,0:0|0:0,0:0:0:0:
87,40,68729,6,0,P|94:106|59:193,1,134.999995880127,6|0,0:0|0:0,0:0:0:0:
58,213,69054,2,0,P|86:248|156:239,1,89.9999972534181
215,122,69378,2,0,P|279:93|359:105,1,134.999995880127,8|0,0:0|0:0,0:0:0:0:
371,131,69702,2,0,P|334:166|321:204,1,89.9999972534181
295,351,70027,5,8,0:0:0:0:
459,267,70189,2,0,P|409:264|357:283,1,89.9999972534181,2|0,0:0|0:0,0:0:0:0:
182,322,70513,1,0,0:0:0:0:
108,169,70675,1,10,0:0:0:0:
295,194,70837,1,2,0:0:0:0:
200,53,71000,2,0,P|274:53|341:20,1,134.999995880127
366,3,71324,6,0,P|400:37|415:98,1,89.9999972534181,14|2,0:0|0:0,0:0:0:0:
428,238,71648,1,0,0:0:0:0:
308,216,71810,2,0,P|235:221|150:281,1,179.999994506836
78,346,72297,5,8,0:0:0:0:
47,246,72459,1,0,0:0:0:0:
72,145,72621,2,0,P|123:96|164:90,1,89.9999972534181,8|0,0:0|0:0,0:0:0:0:
193,97,72945,2,0,P|237:105|288:78,1,89.9999972534181,0|2,0:0|0:0,0:0:0:0:
402,0,73269,1,8,0:3:0:0:
412,21,73350,1,0,0:3:0:0:
419,44,73431,1,0,0:3:0:0:
423,67,73512,1,0,0:3:0:0:
424,90,73593,2,0,P|417:136|379:181,1,89.9999972534181,6|0,0:3|0:3,0:3:0:0:
173,210,73918,5,6,0:0:0:0:
238,353,74081,1,2,0:0:0:0:
277,167,74243,1,0,0:0:0:0:
138,88,74405,2,0,P|68:99|50:211,1,179.999994506836,10|2,0:0|0:0,0:0:0:0:
107,300,74891,5,0,0:0:0:0:
210,176,75054,2,0,B|249:133|249:133|318:143|375:84,1,179.999994506836,10|2,0:0|0:0,0:0:0:0:
486,6,75540,1,0,0:0:0:0:
482,169,75702,2,0,P|466:211|337:270,1,179.999994506836,8|0,0:0|0:0,0:0:0:0:
336,118,76188,1,0,0:0:0:0:
234,273,76351,5,0,0:0:0:0:
234,273,76513,2,0,B|194:162|194:162|205:97,1,179.999994506836,8|0,0:0|0:0,0:0:0:0:
70,168,77000,1,2,0:0:0:0:
70,168,77081,1,0,0:0:0:0:
70,168,77162,2,0,B|103:49|103:49|151:-1,1,179.999994506836,8|0,0:0|0:0,0:0:0:0:
277,95,77648,1,2,0:0:0:0:
188,262,77809,1,14,0:0:0:0:
283,352,77971,5,8,0:0:0:0:
313,324,78052,1,8,0:0:0:0:
339,295,78133,1,8,0:0:0:0:
361,261,78214,1,8,0:0:0:0:
377,227,78296,1,0,0:0:0:0:
395,72,78458,1,8,0:3:0:0:
354,76,78539,1,8,0:3:0:0:
316,87,78620,1,8,0:3:0:0:
279,104,78701,1,8,0:3:0:0:
251,121,78783,2,0,L|203:180,1,44.999998626709,8|8,0:3|0:3,0:3:0:0:
165,246,78944,1,0,0:0:0:0:
313,340,79107,6,0,B|307:296|307:296|269:244,1,89.9999972534181,6|0,0:0|0:0,0:0:0:0:
131,139,79432,2,0,B|94:169|94:169|74:212,1,89.9999972534181,8|0,0:0|0:0,0:0:0:0:
257,173,79755,2,0,B|301:148|301:148|324:104,1,89.9999972534181,2|2,0:0|0:0,0:0:0:0:
145,25,80081,2,0,P|137:70|157:124,1,89.9999972534181,8|0,0:0|0:0,0:0:0:0:
258,267,80405,6,0,P|215:282|157:266,1,89.9999972534181,6|2,0:0|0:0,0:0:0:0:
79,154,80728,1,8,0:0:0:0:
252,105,80890,1,0,0:0:0:0:
349,263,81053,1,2,0:0:0:0:
153,161,81215,1,2,0:0:0:0:
309,176,81378,1,8,0:0:0:0:
443,261,81540,5,0,0:0:0:0:
304,332,81701,2,0,P|256:347|192:314,1,89.9999972534181,6|2,0:0|0:0,0:0:0:0:
102,189,82027,2,0,P|102:152|173:67,1,134.999995880127,8|0,0:0|0:0,0:0:0:0:
200,50,82350,2,0,B|264:71|264:71|305:57|305:57|404:84,1,179.999994506836,2|8,0:0|0:0,0:0:0:0:
472,196,82837,1,0,0:0:0:0:
351,306,83000,6,0,P|320:340|274:358,1,89.9999972534181,2|2,0:0|0:0,0:0:0:0:
363,188,83323,2,0,P|319:204|270:199,1,89.9999972534181,2|2,0:0|0:0,0:0:0:0:
444,88,83647,2,0,P|398:85|355:60,1,89.9999972534181,2|2,0:0|0:0,0:0:0:0:
207,9,83972,2,0,L|230:105,1,89.9999972534181,8|0,0:0|0:0,0:0:0:0:
278,281,84297,5,14,0:0:0:0:
339,178,84459,1,0,0:0:0:0:
191,200,84621,2,0,P|146:170|132:128,1,89.9999972534181,8|0,0:0|0:0,0:0:0:0:
249,43,84945,1,8,0:0:0:0:
369,89,85108,1,0,0:0:0:0:
254,165,85270,2,0,P|232:207|224:260,1,89.9999972534181,8|0,0:0|0:0,0:0:0:0:
497,213,85594,6,0,P|446:284|325:302,1,179.999994506836,8|8,0:0|0:0,0:0:0:0:
251,293,86081,1,0,0:0:0:0:
392,190,86243,5,8,0:0:0:0:
374,165,86350,5,8,0:0:0:0:
356,141,86458,5,8,0:0:0:0:
339,113,86566,6,0,P|305:77|261:51,1,89.9999972534181,8|0,0:0|0:0,0:0:0:0:
127,77,86891,5,14,0:0:0:0:
217,192,87054,1,0,0:0:0:0:
64,206,87216,1,10,0:0:0:0:
271,54,87378,1,2,0:0:0:0:
348,210,87540,2,0,P|364:262|349:302,1,89.9999972534181,8|0,0:0|0:0,0:0:0:0:
163,191,87864,1,8,0:0:0:0:
70,63,88026,5,0,0:0:0:0:
70,63,88188,2,0,P|66:10|119:69,1,179.999994506836,8|14,0:0|0:0,0:0:0:0:
109,263,88674,5,0,0:0:0:0:
244,85,88836,1,10,0:0:0:0:
358,311,88999,5,2,0:0:0:0:
354,96,89161,1,14,0:0:0:0:
248,207,89323,5,14,0:0:0:0:
