osu file format v14

[General]
AudioFilename: audio.mp3
AudioLeadIn: 0
PreviewTime: 107898
Countdown: 0
SampleSet: Soft
StackLeniency: 0.7
Mode: 0
LetterboxInBreaks: 0
WidescreenStoryboard: 0

[Editor]
Bookmarks: 13093,13950,179869,277350,277639
DistanceSpacing: 1.2
BeatDivisor: 4
GridSize: 4
TimelineZoom: 1.5

[Metadata]
Title:knot
TitleUnicode:knot
Artist:Sayuri
ArtistUnicode:さユり
Creator:Kin
Version:Extra
Source:
Tags:ミカヅキの航海 Mikazuki no Koukai
BeatmapID:1500923
BeatmapSetID:710034

[Difficulty]
HPDrainRate:6
CircleSize:4.4
OverallDifficulty:8.8
ApproachRate:9.4
SliderMultiplier:1.8
SliderTickRate:1

[Events]
//Background and Video events
0,0,"19.jpg",0,0
//Break Periods
//Storyboard Layer 0 (Background)
//Storyboard Layer 1 (Fail)
//Storyboard Layer 2 (Pass)
//Storyboard Layer 3 (Foreground)
//Storyboard Sound Samples

[TimingPoints]
230,857.142857142857,4,2,1,20,1,0
61944,-100,4,2,1,30,0,0
63658,-100,4,2,1,40,0,0
64515,-100,4,2,1,50,0,0
65331,845.070422535211,4,2,1,60,1,0
66190,784.313725490196,4,2,1,60,1,0
69327,784.313725490196,4,2,1,40,1,0
70268,681.818181818182,4,2,1,40,1,0
71106,288.461538461538,4,2,1,100,1,0
71106,-62.5,4,2,1,100,0,0
71394,288.461538461538,4,2,1,100,1,0
80336,-400,4,2,1,100,0,0
80480,-400,4,2,1,5,0,0
80624,-100,4,2,1,100,0,0
97643,-100,4,2,1,95,0,0
97932,-100,4,2,1,90,0,0
98220,-100,4,2,1,85,0,0
98509,-100,4,2,1,80,0,0
98797,-100,4,2,1,75,0,0
99086,-100,4,2,1,100,0,0
103124,-100,4,2,1,50,0,0
103268,-100,4,2,1,100,0,0
103341,-100,4,2,1,50,0,0
103413,-100,4,2,1,100,0,0
104134,-100,4,2,1,50,0,0
104278,-100,4,2,1,100,0,0
106297,-100,4,2,1,70,0,0
106586,-100,4,2,1,80,0,0
106874,-100,4,2,1,90,0,0
107163,-100,4,2,1,100,0,0
108028,-400,4,2,1,100,0,0
108317,-100,4,2,1,100,0,1
116393,-100,4,2,1,100,0,0
116826,-100,4,2,1,50,0,0
116970,-100,4,2,1,100,0,0
117043,-100,4,2,1,50,0,0
117115,-100,4,2,1,100,0,0
117187,-100,4,2,1,50,0,0
117259,-100,4,2,1,75,0,0
117403,-100,4,2,1,100,0,0
117547,-100,4,2,1,100,0,1
121586,-100,4,2,1,75,0,1
121658,-100,4,2,1,67,0,1
121730,-100,4,2,1,50,0,1
121874,-100,4,2,1,100,0,1
121946,-100,4,2,1,50,0,1
122018,-100,4,2,1,100,0,1
122091,-100,4,2,1,50,0,1
122163,-100,4,2,1,100,0,1
125624,-100,4,2,1,100,0,0
126490,-62.5,4,2,1,100,0,0
126778,-100,4,2,1,100,0,1
126850,-100,4,2,1,100,0,0
135720,-400,4,2,1,100,0,0
136009,-100,4,2,1,100,0,0
158653,-100,4,2,1,75,0,0
158797,-100,4,2,1,100,0,0
158869,-100,4,2,1,75,0,0
158942,-100,4,2,1,100,0,0
159014,-100,4,2,1,75,0,0
159086,-100,4,2,1,100,0,0
161970,-100,4,2,1,80,0,0
162259,-100,4,2,1,90,0,0
162547,-100,4,2,1,100,0,0
162980,-100,4,2,1,75,0,0
163124,-100,4,2,1,100,0,0
164350,-100,4,2,1,60,0,0
164855,-100,4,2,1,100,0,0
166658,-100,4,2,1,60,0,0
167163,-100,4,2,1,100,0,0
168966,-100,4,2,1,60,0,0
169470,-100,4,2,1,100,0,0
170768,-100,4,2,1,60,0,0
170841,-100,4,2,1,80,0,0
170913,-100,4,2,1,100,0,0
171345,-100,4,2,1,60,0,0
171490,-100,4,2,1,100,0,0
171850,-100,4,2,1,60,0,0
171922,-100,4,2,1,100,0,0
172211,-100,4,2,1,60,0,0
172355,-100,4,2,1,100,0,0
172499,-100,4,2,1,60,0,0
172643,-100,4,2,1,100,0,0
179855,857.142857142857,4,2,1,100,1,0
179962,-100,4,2,1,40,0,0
231283,-100,4,2,1,60,0,0
234697,389.61038961039,4,2,1,80,1,0
238982,384.615384615385,4,2,1,80,1,0
240423,288.461538461538,4,2,1,100,1,0
240423,-400,4,2,1,100,0,0
240711,288.461538461538,4,2,1,100,1,1
248787,-100,4,2,1,100,0,0
248932,-100,4,2,1,70,0,0
249076,-100,4,2,1,100,0,0
249509,-100,4,2,1,70,0,0
249653,-100,4,2,1,100,0,0
249941,-100,4,2,1,100,0,1
257009,-100,4,2,1,70,0,1
257153,-100,4,2,1,100,0,1
257225,-100,4,2,1,70,0,1
257297,-100,4,2,1,100,0,1
257585,-100,4,2,1,80,0,1
257730,-100,4,2,1,100,0,1
257874,-100,4,2,1,80,0,1
258018,-100,4,2,1,100,0,1
259172,-100,4,2,1,100,0,0
267826,-62.5,4,2,1,100,0,0
268042,-100,4,2,1,100,0,0
268259,-45.4545454545455,4,2,1,100,0,0
268403,-100,4,2,1,100,0,0
277057,-166.666666666667,4,2,1,100,0,0
277345,-62.5,4,2,1,100,0,0
277634,-62.5,4,2,1,5,0,0

[Colours]
Combo1 : 255,244,168
Combo2 : 44,61,177
Combo3 : 132,215,255
Combo4 : 151,255,177

[HitObjects]
208,108,13087,6,0,P|240:96|204:76,1,90,2|0,0:0|0:0,0:0:0:0:
112,180,13944,2,0,P|124:228|116:284,1,90,2|0,0:0|0:0,0:0:0:0:
192,352,14801,1,2,0:0:0:0:
292,308,15229,2,0,L|396:316,1,90,2|0,0:0|0:0,0:0:0:0:
504,204,16087,2,0,B|498:202|498:202|492:205|492:205|485:203|485:203|478:205|478:205|470:204|470:204|463:207|463:207|457:206|457:206|450:208|450:208|442:207|442:207|434:209|434:209|425:208|425:208|416:210|416:210|408:209,1,90,2|0,0:0|0:0,0:0:0:0:
312,40,16944,1,0,0:0:0:0:
312,40,17372,6,0,P|328:92|312:136,1,90,2|2,0:0|0:0,0:0:0:0:
256,212,18229,1,0,0:0:0:0:
194,124,18658,2,0,P|150:132|100:128,1,90,2|0,0:0|0:0,0:0:0:0:
223,44,19515,2,0,P|267:36|317:40,2,90,2|0|0,0:0|0:0|0:0,0:0:0:0:
156,132,20801,6,0,B|140:180|148:224|164:216|172:260|156:308,1,180,2|0,0:0|0:0,0:0:0:0:
224,180,22087,2,0,P|232:144|276:108,1,90,2|0,0:0|0:0,0:0:0:0:
88,260,22944,2,0,P|80:296|36:332,1,90,2|0,0:0|0:0,0:0:0:0:
224,180,23801,1,2,0:0:0:0:
240,192,24229,6,0,B|268:196|304:192|328:176|328:176|348:172|388:176|420:208,1,180
488,276,25515,1,0,0:0:0:0:
488,276,25944,2,0,P|505:229|504:188,1,90
416,128,26801,2,0,P|398:81|400:40,1,90,0|2,0:0|0:0,0:0:0:0:
328,188,27658,5,2,0:0:0:0:
256,108,28087,1,0,0:0:0:0:
416,128,28515,1,2,0:0:0:0:
232,204,28944,2,0,B|208:220|172:220|144:212|144:212|124:236|96:252|52:252,1,180,2|2,0:0|0:0,0:0:0:0:
76,276,30015,2,0,P|112:268|144:252,1,45,2|0,0:0|0:0,0:0:0:0:
200,120,30658,2,0,P|208:76|200:24,1,90,2|0,0:0|0:0,0:0:0:0:
280,12,31301,5,2,0:0:0:0:
304,24,31515,1,0,0:0:0:0:
200,120,31944,2,0,P|148:128|84:116,1,90,2|0,0:0|0:0,0:0:0:0:
268,172,32801,2,0,B|272:174|272:174|273:178|273:178|276:181|276:181|276:187|276:187|280:190|280:190|278:194|278:194|291:214|291:236|284:264|284:264|272:272|272:272|284:300|284:324|276:352,1,180,2|2,0:0|0:0,0:0:0:0:
172,316,34087,1,0,0:0:0:0:
336,208,34515,6,0,B|340:210|340:210|345:210|345:210|349:212|349:212|353:212|353:212|359:215|359:215|364:215|364:215|369:216|369:216|375:216|375:216|381:218|381:218|387:218|387:218|393:216|393:216|399:217|399:217|405:215|405:215|410:214|410:214|416:213|416:213|419:210|419:210|424:208|424:208|448:216|448:216|480:204|520:212,1,180,2|0,0:0|0:0,0:0:0:0:
388,132,35801,2,0,P|336:124|284:80,1,90,2|0,0:0|0:0,0:0:0:0:
256,8,36658,1,0,0:0:0:0:
168,72,37087,2,0,L|180:168,1,90,2|0,0:0|0:0,0:0:0:0:
104,192,37729,1,0,0:0:0:0:
76,200,37944,6,0,B|81:197|81:197|87:198|87:198|93:195|93:195|101:197|101:197|108:194|108:194|116:195|116:195|123:192|123:192|130:193|130:193|136:190|136:190|143:191|143:191|150:188|150:188|157:190|157:190|165:188|165:188|262:176,1,180,2|0,0:0|0:0,0:0:0:0:
344,240,39229,1,0,0:0:0:0:
344,240,39658,2,0,P|368:196|360:128,1,90
280,96,40515,2,0,P|256:140|264:208,1,90
344,240,41372,6,0,B|336:236|336:236|327:237|327:237|320:231|320:231|311:231|311:231|305:226|305:226|298:227|298:227|292:222|292:222|284:223|284:223|278:220|278:220|270:220|270:220|264:216|264:216|257:217|257:217|225:212|190:214|152:224,1,180,2|0,0:0|0:0,0:0:0:0:
216,316,42658,1,2,0:0:0:0:
256,216,43087,2,0,P|268:160|260:116,1,90,2|0,0:0|0:0,0:0:0:0:
76,60,43944,1,2,0:0:0:0:
176,96,44372,1,0,0:0:0:0:
256,24,44801,6,0,P|288:32|352:32,1,90,2|0,0:0|0:0,0:0:0:0:
488,8,45658,1,2,0:0:0:0:
488,8,46087,2,0,B|464:28|452:56|452:88|452:88|416:116|416:168,1,180,2|2,0:0|0:0,0:0:0:0:
432,272,47372,2,0,L|448:364,1,90,2|0,0:0|0:0,0:0:0:0:
336,228,48229,6,0,L|320:320,1,90,2|0,0:0|0:0,0:0:0:0:
184,172,49087,1,2,0:0:0:0:
220,184,49515,2,0,P|264:184|336:168,1,90,2|0,0:0|0:0,0:0:0:0:
176,268,50372,2,0,P|132:268|60:252,1,90,2|0,0:0|0:0,0:0:0:0:
309,176,51229,1,2,0:0:0:0:
336,200,51658,6,0,P|368:268|308:348,1,180
220,292,52944,1,0,0:0:0:0:
120,328,53372,2,0,L|12:320,1,90
64,220,54229,2,0,L|172:212,1,90
312,256,55087,6,0,B|360:272|404:264|396:248|440:240|488:256,1,180,2|2,0:0|0:0,0:0:0:0:
444,356,56372,1,0,0:0:0:0:
344,184,56801,2,0,B|340:178|340:178|340:171|340:171|338:166|338:166|338:160|338:160|336:154|336:154|337:149|337:149|335:143|335:143|336:137|336:137|335:131|335:131|337:126|337:126|336:120|336:120|339:116|339:116|339:111|339:111|341:105|341:105|340:99,1,90,2|0,0:0|0:0,0:0:0:0:
168,280,57658,2,0,P|176:236|160:160,1,90,2|0,0:0|0:0,0:0:0:0:
344,376,58515,6,0,P|336:332|352:256,1,90,2|0,0:0|0:0,0:0:0:0:
464,184,59372,2,0,P|416:192|360:184,1,90,2|0,0:0|0:0,0:0:0:0:
288,124,60229,2,0,B|283:122|283:122|279:124|279:124|273:122|273:122|269:125|269:125|263:123|263:123|257:125|257:125|251:123|251:123|247:126|247:126|241:124|241:124|235:127|235:127|231:125|231:125|226:126|226:126|220:125|220:125|214:127|214:127|209:126|209:126|204:127,1,90,2|0,0:0|0:0,0:0:0:0:
32,24,61087,1,2,0:0:0:0:
88,116,61515,1,2,0:0:0:0:
40,212,61944,6,0,B|38:219|38:219|40:227|40:227|37:235|37:235|40:243|40:243|38:250|38:250|40:257|40:257|38:264|38:264|40:271|40:271|37:278|37:278|39:285|39:285|36:291|36:291|39:298|39:298,1,90,2|0,0:0|0:0,0:0:0:0:
192,120,62801,2,0,P|172:72|120:40,1,90,2|0,0:0|0:0,0:0:0:0:
320,204,63658,2,0,P|340:156|392:124,1,90,2|0,0:0|0:0,0:0:0:0:
192,288,64515,2,0,P|185:236|143:192,1,90,2|0,0:0|0:0,0:0:0:0:
8,68,65331,6,0,P|56:76|104:68,1,90,2|0,0:0|0:0,0:0:0:0:
272,16,66190,2,0,P|248:68|256:120,1,90,2|0,0:0|0:0,0:0:0:0:
284,172,66778,2,0,L|276:220,1,45,2|0,0:0|0:0,0:0:0:0:
348,276,67170,1,2,0:0:0:0:
344,252,67366,2,0,L|357:330,1,45,2|0,0:0|0:0,0:0:0:0:
256,364,67758,2,0,P|224:368|200:364,1,45,2|0,0:0|0:0,0:0:0:0:
144,320,68150,1,2,0:0:0:0:
144,320,68346,1,2,0:0:0:0:
144,320,68542,6,0,P|152:280|144:220,1,90,2|0,0:0|0:0,0:0:0:0:
36,112,69327,2,0,L|144:120,1,90,2|0,0:0|0:0,0:0:0:0:
184,64,69915,2,0,L|268:57,1,45,2|0,0:0|0:0,0:0:0:0:
336,12,70268,1,2,0:0:0:0:
352,32,70438,2,0,L|348:104,1,45,2|0,0:0|0:0,0:0:0:0:
288,128,70779,2,0,L|292:200,1,45,2|0,0:0|0:0,0:0:0:0:
340,336,71106,6,0,P|416:316|340:304,1,216,8|0,0:0|0:0,0:0:0:0:
340,284,71394,6,0,P|344:248|336:180,1,90,4|2,1:0|0:0,0:0:0:0:
144,148,71682,2,0,P|140:184|148:252,1,90,10|0,0:0|0:0,0:0:0:0:
412,92,71970,1,10,0:0:0:0:
272,132,72115,1,0,1:0:0:0:
320,36,72259,1,0,1:0:0:0:
392,332,72403,6,0,P|404:268|408:204,1,90,6|0,1:2|0:0,0:0:0:0:
192,344,72692,1,0,1:0:0:0:
484,204,72836,2,0,P|479:139|466:76,1,90,12|0,0:0|0:0,0:0:0:0:
244,152,73124,1,0,1:0:0:0:
348,184,73269,1,0,1:0:0:0:
204,24,73413,2,0,P|160:28|104:40,1,90,8|0,0:0|0:0,0:0:0:0:
272,256,73701,5,4,1:0:0:0:
244,152,73845,1,2,0:0:0:0:
124,352,73990,2,0,P|80:348|24:336,1,90,10|0,0:0|0:0,0:0:0:0:
128,124,74278,1,8,0:0:0:0:
192,212,74422,1,0,1:0:0:0:
84,224,74567,1,0,1:0:0:0:
336,52,74711,6,0,P|384:44|440:48,1,90,14|0,0:0|0:0,0:0:0:0:
128,124,74999,1,0,1:0:0:0:
431,154,75143,2,0,P|472:178|513:217,1,90,14|0,0:0|0:0,0:0:0:0:
256,272,75432,1,0,1:0:0:0:
304,176,75576,1,0,1:0:0:0:
364,368,75720,2,0,P|412:376|472:368,1,90,8|0,0:0|0:0,0:0:0:0:
196,184,76009,5,4,1:0:0:0:
148,280,76153,1,2,0:0:0:0:
372,128,76297,2,0,P|384:80|376:28,1,90,10|0,0:0|0:0,0:0:0:0:
196,184,76586,1,10,0:0:0:0:
256,272,76730,1,2,1:2:0:0:
304,176,76874,1,0,1:2:0:0:
52,348,77018,6,0,P|64:304|56:232,1,90,14|0,0:0|0:0,0:0:0:0:
272,372,77307,1,0,1:0:0:0:
28,160,77451,2,0,P|16:116|24:44,1,90,14|0,0:0|0:0,0:0:0:0:
248,28,77740,1,0,1:0:0:0:
160,88,77884,1,0,1:0:0:0:
388,40,78028,2,0,P|400:96|388:156,1,90,8|0,0:0|0:0,0:0:0:0:
144,268,78317,5,4,1:0:0:0:
248,288,78461,1,2,0:0:0:0:
112,56,78605,2,0,P|100:112|112:172,1,90,10|0,0:0|0:0,0:0:0:0:
368,88,78893,1,10,0:0:0:0:
208,124,79038,1,2,1:2:0:0:
272,36,79182,1,0,1:2:0:0:
324,336,79326,6,0,P|344:288|352:228,1,90,14|0,0:0|0:0,0:0:0:0:
124,316,79615,1,0,1:0:0:0:
436,228,79759,2,0,P|429:176|406:120,1,90,14|0,0:0|0:0,0:0:0:0:
76,228,80047,2,0,P|82:176|105:120,1,90,8|0,0:0|0:0,0:0:0:0:
261,242,80336,6,0,L|282:244,1,22.5,4|0,0:3|0:0,0:0:0:0:
261,242,80624,6,0,L|377:253,1,90,4|0,1:0|0:0,0:0:0:0:
183,132,80913,2,0,L|66:143,1,90,10|0,0:0|0:0,0:0:0:0:
260,21,81201,2,0,L|377:32,1,90,2|0,0:0|1:0,0:0:0:0:
184,132,81490,2,0,P|148:168|132:220,1,90,2|8,1:2|0:0,0:0:0:0:
324,248,81778,6,0,P|360:284|376:336,1,90,2|0,0:0|1:0,0:0:0:0:
172,324,82067,2,0,P|124:320|68:296,1,90,10|0,0:0|0:0,0:0:0:0:
324,248,82355,2,0,P|372:244|428:220,1,90,2|0,1:2|1:0,0:0:0:0:
268,20,82643,2,0,L|252:120,1,90,10|2,0:0|0:3,0:0:0:0:
183,208,82860,1,8,0:0:0:0:
180,196,82932,6,0,L|164:96,1,90,2|0,1:2|0:0,0:0:0:0:
324,248,83220,2,0,P|372:244|428:220,1,90,10|0,0:0|0:0,0:0:0:0:
177,183,83509,2,0,P|129:179|73:155,1,90,2|0,1:2|1:0,0:0:0:0:
296,16,83797,2,0,P|344:20|400:44,1,90,2|8,0:0|0:0,0:0:0:0:
177,183,84086,6,0,P|149:223|136:276,1,90,2|0,0:0|1:0,0:0:0:0:
356,348,84374,2,0,P|412:360|472:352,1,90,10|0,0:0|0:0,0:0:0:0:
292,228,84663,1,4,3:0:0:0:
252,328,84807,1,4,3:0:0:0:
456,212,84951,1,10,0:0:0:0:
188,236,85095,1,8,0:3:0:0:
500,208,85240,6,0,L|373:219,1,90,4|0,1:0|0:0,0:0:0:0:
284,40,85528,2,0,P|304:88|296:148,1,90,10|0,0:0|0:0,0:0:0:0:
168,296,85817,2,0,P|188:248|180:188,1,90,2|0,1:2|1:0,0:0:0:0:
56,40,86105,1,2,0:0:0:0:
28,144,86249,1,8,0:0:0:0:
216,8,86393,6,0,L|312:24,1,90,2|0,0:0|1:0,0:0:0:0:
117,135,86682,2,0,P|77:143|21:143,1,90,10|0,0:0|0:0,0:0:0:0:
240,184,86970,2,0,L|336:200,1,90,2|0,1:2|1:0,0:0:0:0:
124,272,87259,2,0,P|108:316|112:368,1,90,10|0,0:0|0:0,0:0:0:0:
240,184,87547,6,0,P|256:140|252:88,1,90,2|0,1:2|0:0,0:0:0:0:
124,272,87836,1,10,0:0:0:0:
228,292,87980,1,0,0:0:0:0:
104,92,88124,2,0,P|60:84|8:84,1,90,10|0,0:0|1:0,0:0:0:0:
224,28,88413,2,0,P|268:20|320:20,1,90,2|10,1:2|0:0,0:0:0:0:
104,92,88701,6,0,P|92:148|100:200,1,90,2|0,0:0|1:0,0:0:0:0:
288,284,88990,2,0,P|240:280|160:284,1,90,8|8,0:0|0:0,0:0:0:0:
356,108,89278,1,0,1:0:0:0:
372,216,89422,1,0,1:0:0:0:
204,52,89567,2,0,P|156:44|108:48,1,90,10|8,0:0|0:0,0:0:0:0:
356,108,89855,6,0,P|308:116|260:112,1,90,4|0,1:0|0:0,0:0:0:0:
452,224,90143,2,0,P|464:276|460:328,1,90,10|0,0:0|0:0,0:0:0:0:
288,184,90432,2,0,P|242:178|192:184,1,90,10|0,0:0|0:0,0:0:0:0:
388,280,90720,2,0,P|381:332|359:380,1,90,2|0,1:2|1:2,0:2:0:0:
376,132,91009,6,0,P|336:107|288:91,1,90,2|8,0:0|0:0,0:0:0:0:
308,310,91297,2,0,P|283:357|247:394,1,90,2|0,0:0|1:0,0:0:0:0:
400,196,91586,2,0,P|444:188|492:192,1,90,2|0,1:2|0:0,0:0:0:0:
224,248,91874,2,0,P|180:256|132:252,1,90,10|0,0:0|0:0,0:0:0:0:
400,108,92163,6,0,B|420:152|412:200|388:192|380:240|400:284,1,180,2|8,1:2|0:0,0:0:0:0:
496,240,92595,1,0,1:0:0:0:
296,152,92740,6,0,B|252:132|204:140|212:164|164:172|120:152,1,180,10|0,0:0|1:0,0:0:0:0:
164,56,93172,1,10,0:0:0:0:
252,256,93317,2,0,P|256:292|248:344,1,90,2|0,1:2|0:0,0:0:0:0:
117,241,93605,2,0,P|113:205|121:153,1,90,10|0,0:0|0:0,0:0:0:0:
356,24,93893,2,0,P|304:32|252:24,1,90,2|0,0:0|1:0,0:0:0:0:
460,128,94182,2,0,P|468:180|460:232,1,90,10|0,0:0|0:0,0:0:0:0:
228,88,94470,6,0,P|172:116|244:164,1,180,2|8,1:2|0:0,0:0:0:0:
267,28,94903,1,0,0:0:0:0:
96,128,95047,2,0,P|48:136|0:132,1,90,2|0,1:2|1:0,0:0:0:0:
228,88,95336,2,0,L|352:100,1,90,0|8,0:0|0:0,0:0:0:0:
56,216,95624,6,0,P|40:256|40:316,1,90,2|0,1:2|1:0,0:0:0:0:
264,192,95913,2,0,B|289:182|317:182|340:192|340:192|368:180|368:180|400:196|439:192,1,180,10|0,0:0|1:0,0:0:0:0:
420,84,96345,1,0,1:0:0:0:
302,286,96490,2,0,P|290:338|298:378,1,90,10|0,0:0|0:0,0:0:0:0:
224,56,96778,6,0,P|196:16|160:96,1,180,4|8,1:0|0:0,0:0:0:0:
240,164,97211,1,4,0:3:0:0:
296,12,97355,5,8,0:3:0:0:
80,136,97499,1,8,0:3:0:0:
320,19,97643,5,8,0:3:0:0:
89,112,97787,1,8,0:3:0:0:
344,29,97932,5,8,0:3:0:0:
102,89,98076,1,8,0:3:0:0:
365,43,98220,5,8,0:3:0:0:
117,69,98364,1,8,0:3:0:0:
385,60,98509,5,8,0:3:0:0:
136,51,98653,1,8,0:3:0:0:
402,79,98797,5,8,0:3:0:0:
157,35,98941,1,8,0:3:0:0:
448,184,99086,6,0,B|460:212|456:252|440:244|436:284|448:312|448:312|464:288|460:264,1,180,4|2,0:1|0:0,0:0:0:0:
364,216,99518,1,0,1:0:0:0:
180,292,99663,2,0,P|128:288|80:272,1,90,10|0,0:0|0:0,0:0:0:0:
312,356,99951,2,0,P|364:352|412:336,1,90,2|0,0:0|0:0,0:0:0:0:
216,196,100240,6,0,P|204:152|208:84,1,90,2|0,1:2|0:0,0:0:0:0:
387,253,100528,2,0,P|399:297|395:365,1,90,2|0,1:2|0:0,0:0:0:0:
328,144,100817,2,0,P|372:132|440:136,1,90,10|0,0:0|0:0,0:0:0:0:
271,315,101105,2,0,P|227:327|159:323,1,90,2|0,0:0|0:0,0:0:0:0:
380,204,101393,6,0,P|425:203|490:225,1,90,2|0,1:2|0:0,0:0:0:0:
219,255,101682,2,0,P|173:255|108:233,1,90,2|0,0:0|0:0,0:0:0:0:
379,27,101970,1,8,0:0:0:0:
379,27,102115,2,0,B|395:75|387:119|371:111|363:155|379:203,1,180,2|0,0:0|0:0,0:0:0:0:
264,224,102547,6,0,P|212:228|160:220,1,90,4|0,1:0|1:0,0:0:0:0:
379,116,102836,2,0,P|431:120|483:112,1,90,8|0,0:0|0:0,0:0:0:0:
180,12,103124,1,8,0:0:0:0:
172,36,103196,1,8,0:0:0:0:
164,60,103268,1,8,0:0:0:0:
156,88,103341,1,8,0:0:0:0:
136,156,103413,1,8,0:0:0:0:
20,44,103557,1,8,0:3:0:0:
300,112,103701,6,0,L|396:104,1,90,4|0,1:0|0:0,0:0:0:0:
116,224,103990,1,8,0:0:0:0:
348,260,104134,1,8,0:0:0:0:
374,264,104206,1,8,0:0:0:0:
401,268,104278,1,8,0:0:0:0:
196,152,104422,1,8,3:0:0:0:
180,312,104567,1,4,3:0:0:0:
376,100,104711,6,0,P|384:60|380:8,1,90,8|4,0:0|0:0,0:0:0:0:
196,152,104999,1,8,0:0:0:0:
444,188,105143,2,0,P|465:153|479:102,1,90,8|4,0:0|0:3,0:0:0:0:
292,32,105432,1,4,1:3:0:0:
376,100,105576,1,8,1:3:0:0:
140,12,105720,2,0,P|92:12|40:28,1,90,12|0,0:0|0:0,0:0:0:0:
224,184,106009,6,0,P|224:232|208:284,1,90,4|0,1:0|0:0,0:0:0:0:
116,144,106297,5,8,0:0:0:0:
388,248,106442,1,8,0:0:0:0:
128,124,106586,5,8,0:0:0:0:
408,203,106730,1,8,0:0:0:0:
140,104,106874,5,8,0:0:0:0:
425,158,107018,1,8,0:0:0:0:
152,84,107163,5,8,0:0:0:0:
440,112,107307,1,8,0:0:0:0:
32,160,107451,5,2,0:0:0:0:
32,160,108028,6,0,P|44:161|58:161,1,22.5,2|2,0:0|0:0,0:0:0:0:
32,160,108317,6,0,P|62:162|136:199,1,90,4|0,1:0|0:0,0:0:0:0:
284,76,108605,1,10,0:0:0:0:
296,276,108749,2,0,P|308:240|316:180,1,90,2|8,0:0|0:0,0:0:0:0:
156,68,109038,1,2,0:0:0:0:
384,240,109182,2,0,P|428:248|484:240,1,90,2|0,1:2|1:0,0:0:0:0:
244,71,109470,6,0,P|200:63|144:71,1,90,2|0,0:0|1:0,0:0:0:0:
432,136,109759,2,0,P|474:120|518:86,1,90,10|0,0:0|0:0,0:0:0:0:
196,175,110047,2,0,P|153:190|109:225,1,90,2|0,1:2|1:0,0:0:0:0:
352,76,110336,2,0,B|367:63|387:39|391:23|391:23|375:23|363:35,1,90,10|0,0:0|0:0,0:0:0:0:
188,276,110624,6,0,P|160:312|248:312,1,180,6|8,1:2|0:0,0:0:0:0:
196,175,111057,1,0,0:0:0:0:
88,364,111201,2,0,P|40:368|0:360,2,90,2|0|0,1:2|1:0|0:0,0:0:0:0:
340,308,111634,1,8,0:0:0:0:
196,175,111778,6,0,L|96:183,1,90,2|0,0:0|1:0,0:0:0:0:
324,180,112067,1,8,0:0:0:0:
88,364,112211,2,0,P|72:312|72:252,1,90,2|0,0:0|0:0,0:0:0:0:
196,175,112499,1,0,1:0:0:0:
248,368,112643,1,10,0:0:0:0:
60,144,112788,1,8,0:0:0:0:
340,308,112932,6,0,B|360:316|384:320|412:308|412:308|440:316|440:316|476:296|520:312,1,180,4|8,1:0|0:0,0:0:0:0:
376,224,113365,1,0,0:0:0:0:
512,32,113509,2,0,P|500:84|504:136,2,90,2|0|0,1:2|1:0|0:0,0:0:0:0:
232,192,113942,1,8,0:0:0:0:
228,196,114086,6,0,P|172:204|112:184,1,90,2|0,0:0|1:0,0:0:0:0:
312,40,114374,2,0,P|368:32|428:52,1,90,8|0,0:0|1:0,0:0:0:0:
180,256,114663,2,0,P|172:300|184:352,1,90,2|0,1:2|1:0,0:0:0:0:
372,180,114951,1,2,0:0:0:0:
240,124,115095,1,8,0:0:0:0:
416,332,115240,6,0,P|444:280|444:232,1,90,2|0,1:2|1:0,0:0:0:0:
270,41,115528,2,0,P|246:79|240:124,1,90,10|0,0:0|0:0,0:0:0:0:
416,332,115817,2,0,P|372:316|328:312,1,90,2|0,1:2|1:0,0:0:0:0:
96,328,116105,1,8,0:0:0:0:
196,364,116249,1,8,0:3:0:0:
173,58,116393,6,0,L|180:148,1,90,6|0,1:2|1:0,0:0:0:0:
196,364,116682,1,8,0:0:0:0:
92,264,116826,1,8,0:0:0:0:
80,252,116898,1,8,0:0:0:0:
68,240,116970,2,0,P|52:224|24:212,1,45,8|8,0:0|0:0,0:0:0:0:
180,148,117115,2,0,P|196:132|224:120,1,45,8|8,0:0|0:0,0:0:0:0:
204,292,117259,1,8,0:0:0:0:
216,336,117331,1,8,0:0:0:0:
252,364,117403,1,8,0:0:0:0:
296,372,117475,1,8,0:0:0:0:
360,336,117547,6,0,B|400:352|436:336|436:336|456:348|456:348|488:328|540:344,1,180,4|10,1:0|0:0,0:0:0:0:
266,194,117980,2,0,P|235:164|214:114,1,90,2|0,1:2|0:0,0:0:0:0:
472,76,118268,1,0,1:2:0:0:
472,76,118341,1,2,0:0:0:0:
472,76,118413,1,10,0:0:0:0:
326,1,118557,1,2,0:0:0:0:
404,296,118701,6,0,P|416:256|416:196,1,90,2|0,1:2|1:0,0:0:0:0:
164,184,118990,2,0,P|152:144|152:84,1,90,10|0,0:0|0:0,0:0:0:0:
432,260,119278,2,0,P|433:218|417:160,1,90,2|0,1:2|0:0,0:0:0:0:
140,144,119567,2,0,P|152:187|175:225,1,90,10|8,0:0|0:0,0:0:0:0:
456,344,119855,6,0,P|392:332|328:336,1,90,6|0,1:2|0:0,0:0:0:0:
100,292,120143,2,0,P|164:304|228:300,1,90,10|0,0:2|1:0,0:0:0:0:
392,72,120432,2,0,P|356:124|388:236,1,180,10|0,0:0|0:0,0:0:0:0:
460,156,120865,1,0,1:0:0:0:
144,136,121009,6,0,L|36:144,1,90,10|0,0:0|0:0,0:0:0:0:
276,32,121297,2,0,L|384:40,1,90,8|0,0:0|0:0,0:0:0:0:
123,165,121586,1,8,0:0:0:0:
112,199,121658,1,8,0:0:0:0:
113,235,121730,1,8,0:0:0:0:
124,269,121802,1,8,0:0:0:0:
168,328,121874,2,0,L|212:332,1,45,8|8,0:0|0:0,0:0:0:0:
328,292,122018,2,0,L|372:288,1,45,8|8,0:0|0:0,0:0:0:0:
213,173,122163,6,0,L|109:163,1,90,4|0,1:0|0:0,0:0:0:0:
332,24,122451,2,0,P|348:64|336:124,1,90,8|0,0:0|1:0,0:0:0:0:
212,332,122740,2,0,P|196:292|208:232,1,90,2|0,1:2|1:0,0:0:0:0:
300,208,123028,1,0,0:0:0:0:
100,288,123172,1,8,0:0:0:0:
156,136,123317,6,0,P|196:144|248:144,1,90,2|0,0:0|1:0,0:0:0:0:
80,32,123605,1,8,0:0:0:0:
0,252,123749,2,0,L|8:344,1,90,2|0,1:2|1:0,0:0:0:0:
80,196,124038,1,0,1:0:0:0:
284,344,124182,2,0,P|336:348|392:336,1,90,10|8,0:0|0:0,0:0:0:0:
101,111,124470,6,0,P|81:151|85:215,1,90,6|0,1:2|0:0,0:0:0:0:
404,80,124759,5,8,0:0:0:0:
176,24,124903,1,4,1:3:0:0:
386,60,125047,5,4,1:3:0:0:
153,36,125191,1,8,0:0:0:0:
367,43,125336,5,4,1:3:0:0:
132,52,125480,1,8,1:3:0:0:
436,168,125624,5,2,0:0:0:0:
436,168,126490,6,0,P|509:162|436:152,1,216,12|0,0:0|0:0,0:0:0:0:
436,188,126778,6,0,P|432:240|404:280,1,90,4|2,1:0|0:0,0:0:0:0:
164,120,127067,1,8,0:0:0:0:
220,312,127211,1,2,0:0:0:0:
284,124,127355,1,8,0:0:0:0:
121,239,127499,1,0,0:0:0:0:
320,240,127643,1,8,0:0:0:0:
76,52,127788,6,0,P|52:104|56:144,1,90,14|0,0:0|0:0,0:0:0:0:
284,124,128076,1,0,1:0:0:0:
0,208,128220,2,0,P|15:263|43:291,1,90,14|0,0:0|0:0,0:0:0:0:
252,192,128509,1,0,1:0:0:0:
120,96,128653,1,0,1:0:0:0:
248,352,128797,2,0,P|268:304|268:236,1,90,8|8,0:0|0:0,0:0:0:0:
52,140,129086,5,4,1:0:0:0:
252,192,129230,1,2,0:0:0:0:
52,68,129374,1,10,0:0:0:0:
186,226,129518,1,0,0:0:0:0:
93,9,129663,1,8,0:0:0:0:
112,215,129807,2,0,L|120:312,1,90,14|0,0:0|0:0,0:0:0:0:
264,84,130095,6,0,P|312:76|372:88,1,90,14|0,0:0|0:0,0:0:0:0:
186,226,130384,1,0,1:0:0:0:
412,32,130528,2,0,P|458:45|508:81,1,90,14|0,0:0|0:0,0:0:0:0:
281,127,130817,1,0,1:0:0:0:
388,144,130961,1,0,1:0:0:0:
184,28,131105,2,0,L|73:45,1,90,8|0,0:0|0:0,0:0:0:0:
388,144,131393,6,0,P|405:184|405:229,1,90,4|2,1:0|0:0,0:0:0:0:
188,320,131682,1,10,0:0:0:0:
292,352,131826,1,0,0:0:0:0:
200,116,131970,1,10,0:0:0:0:
132,200,132115,1,2,1:2:0:0:
240,216,132259,1,0,1:0:0:0:
36,68,132403,6,0,P|24:112|36:168,1,90,14|0,0:0|0:0,0:0:0:0:
216,8,132692,1,0,1:0:0:0:
4,228,132836,2,0,P|23:269|68:304,1,90,14|0,0:0|0:0,0:0:0:0:
240,216,133124,1,0,1:0:0:0:
132,200,133268,1,0,1:0:0:0:
336,48,133413,2,0,P|380:40|448:40,1,90,8|0,0:0|0:0,0:0:0:0:
132,200,133701,6,0,P|88:192|20:192,1,90,4|2,1:0|0:0,0:0:0:0:
212,84,133990,1,8,0:0:0:0:
176,280,134134,1,0,1:0:0:0:
104,92,134278,1,2,1:2:0:0:
340,280,134422,2,0,P|388:288|452:280,1,90,14|0,0:0|0:0,0:0:0:0:
212,84,134711,6,0,P|192:128|192:176,1,90,14|0,0:0|0:0,0:0:0:0:
396,56,134999,1,0,1:0:0:0:
112,212,135143,2,0,P|124:258|155:295,1,90,14|0,0:0|0:0,0:0:0:0:
212,84,135432,1,4,1:3:0:0:
220,52,135720,6,0,L|250:54,1,22.5,2|2,0:0|0:0,0:0:0:0:
220,52,136009,6,0,L|309:57,1,90,4|0,1:0|0:0,0:0:0:0:
128,140,136297,2,0,P|84:160|44:200,1,90,10|0,0:0|0:0,0:0:0:0:
252,216,136586,2,0,P|296:236|336:276,1,90,10|0,0:0|1:0,0:0:0:0:
128,292,136874,2,0,L|24:304,1,90,2|8,0:0|0:0,0:0:0:0:
162,205,137091,1,0,0:0:0:0:
162,205,137163,6,0,L|266:217,1,90,2|0,1:2|1:0,0:0:0:0:
344,40,137451,2,0,L|409:122,1,90,10|0,0:0|0:0,0:0:0:0:
176,40,137740,2,0,P|140:32|76:32,1,90,2|0,0:0|1:0,0:0:0:0:
292,100,138028,2,0,P|300:136|300:200,1,90,10|0,0:0|0:0,0:0:0:0:
100,104,138317,6,0,P|63:105|1:122,1,90,2|0,1:2|0:0,0:0:0:0:
224,164,138605,2,0,P|222:200|205:262,1,90,10|0,0:0|0:0,0:0:0:0:
56,100,138893,2,0,P|57:63|74:1,1,90,2|0,1:2|1:0,0:0:0:0:
140,216,139182,2,0,P|125:250|89:302,1,90,2|8,0:0|0:0,0:0:0:0:
144,24,139470,6,0,B|180:12|232:12|276:28|276:28|236:64,1,180,2|8,0:0|0:0,0:0:0:0:
100,136,139903,1,0,0:0:0:0:
96,140,140047,2,0,P|84:188|92:236,1,90,0|0,1:0|1:0,0:0:0:0:
312,144,140336,1,8,0:0:0:0:
242,58,140480,1,8,0:0:0:0:
252,348,140624,6,0,L|248:240,1,90,4|0,1:0|0:0,0:0:0:0:
160,60,140913,2,0,L|156:168,1,90,10|0,0:0|0:0,0:0:0:0:
68,348,141201,2,0,L|64:240,1,90,2|0,1:2|1:0,0:0:0:0:
160,60,141490,2,0,P|112:72|32:64,1,90,2|8,0:0|0:0,0:0:0:0:
288,96,141778,6,0,P|336:84|416:92,1,90,2|0,0:0|1:0,0:0:0:0:
188,188,142067,2,0,P|180:232|188:284,1,90,10|0,0:0|0:0,0:0:0:0:
364,152,142355,2,0,P|411:165|476:212,1,90,2|0,1:2|1:0,0:0:0:0:
312,16,142643,2,0,P|264:29|199:76,1,90,10|0,0:0|0:0,0:0:0:0:
376,236,142932,6,0,P|396:288|388:360,1,90,2|0,1:2|0:0,0:0:0:0:
164,228,143220,1,10,0:0:0:0:
276,132,143365,1,10,0:0:0:0:
188,368,143509,2,0,P|196:320|228:276,1,90,2|0,1:2|1:0,0:0:0:0:
420,208,143797,2,0,P|376:212|328:208,1,90,2|8,0:0|0:0,0:0:0:0:
128,28,144086,6,0,P|172:84|140:200,1,180,2|8,0:0|0:0,0:0:0:0:
68,120,144518,1,8,3:0:0:0:
264,84,144663,1,4,1:3:0:0:
32,126,144807,1,4,1:3:0:0:
288,260,144951,2,0,P|336:268|388:264,1,90,10|0,0:0|0:0,0:0:0:0:
168,332,145240,6,0,P|120:340|68:336,1,90,4|0,1:0|0:0,0:0:0:0:
76,124,145528,2,0,L|92:32,1,90,10|0,0:0|0:0,0:0:0:0:
152,243,145817,2,0,L|168:335,1,90,2|0,1:2|1:0,0:0:0:0:
228,124,146105,2,0,L|244:32,1,90,2|8,0:0|0:0,0:0:0:0:
304,243,146393,6,0,P|280:276|232:308,1,90,2|0,0:0|1:0,0:0:0:0:
324,104,146682,2,0,P|368:104|424:120,1,90,10|0,0:0|0:0,0:0:0:0:
216,24,146970,2,0,P|172:24|116:40,1,90,2|0,1:2|1:0,0:0:0:0:
324,104,147259,2,0,P|344:156|344:212,1,90,10|8,0:0|0:0,0:0:0:0:
127,35,147547,6,0,B|111:83|119:127|135:119|143:163|127:211,1,180,2|8,1:2|0:0,0:0:0:0:
251,79,147980,1,2,1:2:0:0:
68,276,148124,2,0,P|60:312|65:381,2,90,10|0|0,0:0|1:0|0:0,0:0:0:0:
248,256,148557,1,10,0:0:0:0:
127,35,148701,6,0,P|119:71|132:136,1,90,2|0,1:2|1:0,0:0:0:0:
248,256,148990,2,0,P|192:244|132:248,1,90,8|0,0:0|0:0,0:0:0:0:
380,164,149278,2,0,P|436:152|496:156,1,90,2|0,1:2|1:0,0:0:0:0:
248,72,149567,2,0,P|192:60|132:64,1,90,10|0,0:0|0:0,0:0:0:0:
384,268,149855,6,0,P|384:336|272:364,1,180,2|8,1:2|0:0,0:0:0:0:
216,292,150288,1,0,1:0:0:0:
420,180,150432,2,0,L|512:188,1,90,10|0,0:0|0:0,0:0:0:0:
408,68,150720,1,0,1:0:0:0:
384,268,150865,1,8,0:0:0:0:
320,24,151009,6,0,P|308:68|312:128,1,90,2|0,1:2|0:0,0:0:0:0:
496,48,151297,1,8,0:0:0:0:
228,8,151442,1,2,0:0:0:0:
308,112,151586,2,0,P|316:156|306:216,1,90,0|0,1:0|1:0,0:0:0:0:
52,284,151874,2,0,P|100:272|160:276,1,90,10|0,0:0|0:0,0:0:0:0:
280,360,152163,5,2,1:2:0:0:
168,96,152307,1,8,0:0:0:0:
140,272,152451,1,0,0:0:0:0:
308,112,152595,1,0,1:0:0:0:
60,84,152740,1,4,1:3:0:0:
48,108,152812,1,4,1:3:0:0:
37,133,152884,1,4,1:3:0:0:
26,157,152956,1,4,1:3:0:0:
15,182,153028,6,0,L|27:243,1,45,8|0,1:3|0:0,0:0:0:0:
148,272,153172,2,0,L|194:230,1,45,4|0,1:3|0:0,0:0:0:0:
160,108,153317,2,0,L|100:88,1,45,8|0,1:2|0:0,0:0:0:0:
24,226,153461,6,0,L|62:274,1,45,4|0,1:3|0:0,0:0:0:0:
181,242,153605,2,0,L|203:183,1,45,8|0,1:3|0:0,0:0:0:0:
117,93,153750,2,0,L|55:102,1,45,8|0,1:3|0:0,0:0:0:0:
120,312,153893,5,4,1:3:0:0:
208,112,154038,1,4,1:3:0:0:
168,320,154182,5,4,1:3:0:0:
163,101,154327,1,4,1:3:0:0:
312,344,154470,6,0,P|356:352|408:344,1,90,4|0,1:0|0:0,0:0:0:0:
296,244,154759,2,0,P|268:208|260:152,1,90,2|0,1:2|0:0,0:0:0:0:
444,124,155047,2,0,P|440:172|344:140,1,180,10|2,0:0|0:0,0:0:0:0:
404,56,155480,1,0,0:0:0:0:
259,165,155624,6,0,L|155:157,1,90,2|0,1:2|0:0,0:0:0:0:
52,72,155913,2,0,L|156:64,1,90,2|0,1:2|0:0,0:0:0:0:
32,228,156201,2,0,P|16:280|96:360,1,180,10|2,0:0|0:0,0:0:0:0:
188,304,156634,1,0,0:0:0:0:
336,364,156778,6,0,P|400:368|436:364,1,90,2|0,1:2|0:0,0:0:0:0:
328,260,157067,2,0,P|302:201|293:166,1,90,2|0,1:2|0:0,0:0:0:0:
404,56,157355,1,8,0:0:0:0:
436,268,157499,1,2,1:2:0:0:
295,176,157643,1,8,1:3:0:0:
404,168,157788,1,8,1:3:0:0:
156,349,157932,6,0,P|115:359|64:364,1,90,6|0,1:2|0:0,0:0:0:0:
4,124,158220,2,0,B|-4:108|-4:76|8:56|8:56|20:72,1,90,4|0,1:0|0:0,0:0:0:0:
88,220,158509,2,0,P|136:228|184:216,1,90,8|8,1:3|0:0,0:0:0:0:
236,168,158725,1,8,0:0:0:0:
244,164,158797,2,0,L|288:168,1,45,10|8,0:0|0:0,0:0:0:0:
392,232,158942,2,0,L|436:228,1,45,8|8,0:0|0:0,0:0:0:0:
344,20,159086,6,0,P|332:64|348:128,1,90,6|0,1:2|1:0,0:0:0:0:
472,300,159374,2,0,L|376:308,1,90,8|0,0:0|0:0,0:0:0:0:
312,348,159591,1,8,0:0:0:0:
304,347,159663,2,0,L|260:343,1,45,2|0,1:2|0:0,0:0:0:0:
156,272,159807,2,0,L|60:280,1,90,0|0,1:0|0:0,0:0:0:0:
196,184,160095,1,8,0:0:0:0:
312,348,160240,6,0,P|324:300|312:220,1,90,2|0,1:2|1:0,0:0:0:0:
196,184,160528,1,8,0:0:0:0:
400,308,160672,1,2,0:0:0:0:
244,256,160817,2,0,P|208:268|156:260,1,90,0|0,1:0|1:0,0:0:0:0:
332,104,161105,2,0,L|432:116,1,90,10|8,0:0|0:0,0:0:0:0:
92,196,161393,6,0,P|48:188|88:120,1,135,6|0,1:2|0:0,0:0:0:0:
148,132,161682,2,0,P|188:136|240:132,1,90,8|0,0:0|0:0,0:0:0:0:
296,0,161970,5,8,0:0:0:0:
382,238,162115,1,8,0:0:0:0:
228,44,162259,5,8,0:0:0:0:
444,169,162403,1,8,0:0:0:0:
148,132,162547,6,0,P|92:128|32:128,1,90,4|0,1:0|0:0,0:0:0:0:
228,44,162836,1,8,0:0:0:0:
256,276,162980,1,8,0:0:0:0:
260,304,163052,1,8,0:0:0:0:
264,332,163124,1,8,0:0:0:0:
144,224,163268,1,4,1:3:0:0:
392,176,163413,2,0,L|488:184,1,90,8|0,1:3|0:0,0:0:0:0:
228,44,163701,6,0,L|132:52,1,90,4|0,1:0|0:0,0:0:0:0:
284,160,163990,2,0,P|304:212|284:272,1,90,8|0,0:0|0:0,0:0:0:0:
160,328,164278,1,8,1:2:0:0:
151,327,164350,1,8,0:0:0:0:
142,326,164422,1,8,0:0:0:0:
133,325,164494,1,8,0:0:0:0:
124,325,164566,1,8,0:0:0:0:
115,324,164638,1,8,0:0:0:0:
106,323,164711,1,8,0:2:0:0:
97,323,164782,1,8,0:0:0:0:
32,372,164855,6,0,B|16:328|16:328|28:284,1,90,0|2,1:0|0:0,0:0:0:0:
92,64,165143,1,0,0:0:0:0:
200,184,165288,1,0,1:0:0:0:
44,220,165432,1,10,0:0:0:0:
260,28,165576,2,0,P|304:20|352:24,1,90,2|8,0:0|0:0,0:0:0:0:
176,96,165865,1,8,0:0:0:0:
356,184,166009,6,0,P|368:232|364:296,1,90,0|0,1:0|0:0,0:0:0:0:
176,96,166297,2,0,P|164:48|168:-16,1,90,2|0,0:0|0:0,0:0:0:0:
256,148,166586,1,8,1:2:0:0:
254,156,166658,1,8,0:0:0:0:
253,165,166730,1,8,0:0:0:0:
252,174,166802,1,8,0:0:0:0:
251,183,166874,1,8,0:0:0:0:
250,192,166946,1,8,0:0:0:0:
248,201,167018,1,8,0:0:0:0:
247,210,167090,1,8,0:0:0:0:
204,268,167163,6,0,P|156:276|92:260,2,90,0|2|0,1:0|0:0|0:0,0:0:0:0:
56,180,167595,1,0,1:0:0:0:
319,107,167740,1,8,0:0:0:0:
115,269,167884,1,8,0:0:0:0:
160,96,168028,2,0,P|176:144|168:192,1,90,2|0,0:0|0:0,0:0:0:0:
372,28,168317,6,0,P|424:24|464:32,1,90,0|0,1:0|0:0,0:0:0:0:
260,185,168605,2,0,P|208:189|168:181,1,90,8|0,0:0|0:0,0:0:0:0:
396,120,168893,1,8,1:2:0:0:
397,128,168966,1,8,0:0:0:0:
398,137,169038,1,8,0:0:0:0:
399,146,169110,1,8,0:0:0:0:
400,155,169182,1,8,0:0:0:0:
401,164,169254,1,8,0:0:0:0:
402,173,169326,1,8,0:0:0:0:
403,182,169398,1,8,0:0:0:0:
444,240,169470,6,0,L|432:340,1,90,0|2,1:0|0:0,0:0:0:0:
208,376,169759,2,0,P|148:368|100:344,1,90,8|0,0:0|1:0,0:0:0:0:
348,304,170047,1,8,0:0:0:0:
112,284,170192,2,0,P|64:272|12:276,1,90,0|0,1:0|0:0,0:0:0:0:
200,48,170480,1,8,0:0:0:0:
276,228,170624,6,0,L|268:324,1,90,0|8,1:0|0:0,0:0:0:0:
356,188,170841,1,8,0:0:0:0:
356,180,170913,2,0,L|348:84,1,90,8|0,0:0|1:0,0:0:0:0:
160,28,171201,1,8,0:0:0:0:
151,26,171273,1,8,0:0:0:0:
142,25,171345,1,8,0:0:0:0:
133,24,171417,1,8,0:0:0:0:
68,56,171490,2,0,L|60:104,1,45,0|0,1:0|0:0,0:0:0:0:
216,214,171634,1,8,0:0:0:0:
222,218,171706,1,8,0:0:0:0:
228,223,171778,6,0,L|220:175,1,45,0|8,1:0|0:0,0:0:0:0:
44,292,171922,2,0,L|52:337,1,45,0|0,1:0|0:0,0:0:0:0:
104,160,172067,1,8,0:0:0:0:
108,154,172139,1,8,0:0:0:0:
113,148,172211,2,0,L|65:156,1,45,8|8,0:0|0:0,0:0:0:0:
182,331,172355,2,0,L|226:323,1,45,0|0,1:0|0:0,0:0:0:0:
283,156,172499,1,8,0:0:0:0:
289,146,172571,1,8,0:0:0:0:
295,139,172643,2,0,L|343:147,1,45,8|8,0:0|0:0,0:0:0:0:
408,260,172788,1,0,1:0:0:0:
128,204,172932,6,0,P|80:196|20:200,1,90,4|0,1:0|0:0,0:0:0:0:
295,139,173220,2,0,P|343:131|403:135,1,90,8|0,0:0|0:0,0:0:0:0:
128,74,173509,2,0,P|80:66|20:70,1,90,8|0,0:0|1:0,0:0:0:0:
236,32,173797,1,0,1:0:0:0:
200,136,173942,1,8,0:0:0:0:
396,48,174086,6,0,P|440:64|472:112,1,90,4|0,1:3|0:0,0:0:0:0:
236,32,174374,2,0,L|128:40,1,90,8|0,0:0|0:0,0:0:0:0:
264,200,174663,1,0,1:0:0:0:
316,104,174807,1,0,1:0:0:0:
116,120,174951,2,0,L|8:128,1,90,8|0,0:0|0:0,0:0:0:0:
372,192,175240,6,0,P|392:236|392:288,1,90,4|0,1:2|0:0,0:0:0:0:
176,200,175528,2,0,L|68:208,1,90,8|0,0:0|0:0,0:0:0:0:
264,112,175817,2,0,L|372:120,1,90,8|0,0:0|0:0,0:0:0:0:
176,24,176105,1,0,1:0:0:0:
176,200,176249,1,8,0:0:0:0:
116,112,176393,5,2,0:0:0:0:
264,112,176538,1,4,1:3:0:0:
100,276,176682,2,0,P|84:320|96:376,1,90,8|0,0:0|0:0,0:0:0:0:
264,268,176970,1,0,1:0:0:0:
176,200,177115,1,0,1:0:0:0:
312,120,177259,1,8,0:0:0:0:
164,308,177403,1,8,0:0:0:0:
364,52,177547,6,0,L|460:64,1,90,4|0,1:0|0:0,0:0:0:0:
224,112,177836,2,0,L|128:124,1,90,8|0,0:0|0:0,0:0:0:0:
364,172,178124,2,0,L|460:184,1,90,2|0,0:0|1:0,0:0:0:0:
224,232,178413,1,8,0:0:0:0:
256,336,178557,1,2,0:0:0:0:
364,172,178701,6,0,P|376:120|372:76,1,90,4|0,1:2|0:0,0:0:0:0:
184,220,178990,5,8,0:0:0:0:
424,296,179134,1,8,0:0:0:0:
144,208,179278,5,4,1:3:0:0:
394,219,179422,1,4,1:3:0:0:
104,196,179567,5,4,1:3:0:0:
348,141,179711,1,4,1:3:0:0:
24,288,179855,5,4,1:0:0:0:
256,192,179962,12,0,182426,0:0:0:0:
332,96,182855,5,0,0:0:0:0:
332,96,183283,6,0,P|348:160|332:208,1,90,2|0,0:0|0:0,0:0:0:0:
256,244,184140,1,2,0:0:0:0:
169,182,184569,2,0,L|65:190,1,90,2|0,0:0|0:0,0:0:0:0:
256,244,185426,2,0,L|360:252,1,90,2|0,0:0|0:0,0:0:0:0:
160,288,186283,1,2,0:0:0:0:
160,288,186712,6,0,P|152:224|168:188,1,90,2|0,0:0|0:0,0:0:0:0:
256,152,187569,1,2,0:0:0:0:
348,204,187997,2,0,P|432:200|492:120,1,180,2|2,0:0|0:0,0:0:0:0:
384,100,189283,1,2,0:0:0:0:
348,204,189712,1,0,0:0:0:0:
256,152,190140,6,0,B|228:144|204:144|176:156|176:156|152:148|152:148|128:160|100:160|72:152,1,180,2|2,0:0|0:0,0:0:0:0:
104,48,191426,2,0,P|148:36|204:36,1,90,2|0,0:0|0:0,0:0:0:0:
276,104,192283,2,0,P|320:116|376:116,1,90,2|0,0:0|0:0,0:0:0:0:
464,76,193140,6,0,B|480:124|472:168|456:160|448:204|464:252,1,180,2|0,0:0|0:0,0:0:0:0:
388,328,194426,2,0,P|300:344|208:328,1,180
160,236,195712,1,0,0:0:0:0:
160,236,196140,2,0,P|192:227|160:220,1,90,0|2,0:0|0:0,0:0:0:0:
211,329,196997,6,0,P|288:344|308:344,1,90,2|0,0:0|0:0,0:0:0:0:
404,320,197855,1,2,0:0:0:0:
284,212,198283,2,0,P|268:168|268:116,1,90,2|0,0:0|0:0,0:0:0:0:
396,24,199140,2,0,L|464:28,2,45,2|2|0,0:0|0:0|0:0,0:0:0:0:
312,92,199997,6,0,L|222:97,1,90,2|0,0:0|0:0,0:0:0:0:
162,60,200640,1,2,0:0:0:0:
152,52,200855,2,0,L|157:141,1,90,2|0,0:0|0:0,0:0:0:0:
160,248,201712,1,2,0:0:0:0:
252,192,202140,2,0,B|280:184|304:184|332:196|332:196|356:188|356:188|380:200|408:200|436:192,1,180,2|2,0:0|0:0,0:0:0:0:
400,88,203426,1,0,0:0:0:0:
336,176,203855,6,0,B|333:181|333:181|332:187|332:187|329:191|329:191|329:196|329:196|326:201|326:201|326:206|326:206|324:210|324:210|324:215|324:215|323:222|323:222|323:227|323:227|322:232|322:232|323:237|323:237|322:242|322:242|324:246|324:246|325:251|325:251|327:256|327:256|327:261,1,90,2|0,0:0|0:0,0:0:0:0:
404,340,204712,1,2,0:0:0:0:
408,344,205140,2,0,L|504:340,2,90,2|0|2,0:0|0:0|0:0,0:0:0:0:
327,261,206426,2,0,L|219:265,1,90,2|0,0:0|0:0,0:0:0:0:
204,268,207069,1,2,0:0:0:0:
168,270,207283,6,0,B|163:267|163:267|161:261|161:261|160:255|160:255|156:252|156:252|155:247|155:247|151:243|151:243|151:237|151:237|147:233|147:233|147:227|147:227|143:222|143:222|143:216|143:216|140:212|140:212|142:207|142:207|139:203|139:203|141:199|141:199|137:195|137:195|139:190|139:190|137:165|145:125|168:96,1,180,2|0,0:0|0:0,0:0:0:0:
256,44,208569,1,0,0:0:0:0:
348,100,208997,2,0,L|460:92,2,90
256,44,210283,1,0,0:0:0:0:
140,160,210712,6,0,P|156:272|152:348,1,180,2|0,0:0|0:0,0:0:0:0:
56,288,211997,1,2,0:0:0:0:
156,248,212426,2,0,B|160:247|160:247|164:248|164:248|170:248|170:248|176:250|176:250|182:249|182:249|189:250|189:250|195:249|195:249|201:250|201:250|256:252,1,90,2|0,0:0|0:0,0:0:0:0:
368,360,213283,1,2,0:0:0:0:
324,260,213712,1,2,0:0:0:0:
368,160,214140,6,0,B|368:154|368:154|365:149|365:149|367:143|367:143|365:138|365:138|366:132|366:132|364:127|364:127|365:122|365:122|364:116|364:116|360:52,1,90,0|2,0:0|0:0,0:0:0:0:
256,44,214997,1,0,0:0:0:0:
151,70,215426,2,0,P|119:118|172:240,1,180,2|2,0:0|0:0,0:0:0:0:
224,148,216712,1,2,0:0:0:0:
115,149,217140,1,0,0:0:0:0:
276,147,217569,6,0,B|300:147|327:152|354:164|354:164|379:161|379:161|400:177|428:181|457:178,1,180,2|2,0:0|0:0,0:0:0:0:
396,88,218855,2,0,P|344:160|372:248,1,180,2|2,0:0|0:0,0:0:0:0:
428,332,220140,2,0,L|320:320,1,90,2|0,0:0|0:0,0:0:0:0:
268,356,220783,1,2,0:0:0:0:
268,356,220997,6,0,B|259:357|259:357|251:356|251:356|244:359|244:359|236:358|236:358|229:361|229:361|222:360|222:360|216:363|216:363|209:361|209:361|203:363|203:363|197:362|197:362|191:365|191:365|185:364|185:364|180:366|180:366|63:378,1,180,2|0,0:0|0:0,0:0:0:0:
36,284,222283,1,0,0:0:0:0:
36,284,222712,2,0,P|20:236|20:184,1,90
68,100,223569,2,0,P|100:91|68:84,1,90,0|2,0:0|0:0,0:0:0:0:
160,140,224426,6,0,B|166:140|166:140|171:137|171:137|178:138|178:138|186:136|186:136|195:137|195:137|201:134|201:134|208:135|208:135|214:132|214:132|221:133|221:133|229:131|229:131|236:133|236:133|244:131|244:131|252:132,1,90,2|0,0:0|0:0,0:0:0:0:
340,72,225283,2,0,P|360:116|356:168,1,90,2|0,0:0|0:0,0:0:0:0:
160,140,226140,2,0,P|140:184|144:236,1,90,2|0,0:0|0:0,0:0:0:0:
340,260,226997,1,2,0:0:0:0:
204,316,227426,1,2,0:0:0:0:
400,336,227855,6,0,L|492:344,1,90,2|0,0:0|0:0,0:0:0:0:
340,260,228712,2,0,L|248:268,1,90,2|0,0:0|0:0,0:0:0:0:
428,176,229569,2,0,B|430:170|430:170|435:167|435:167|437:160|437:160|440:155|440:155|441:149|441:149|444:143|444:143|443:137|443:137|445:131|445:131|443:125|443:125|444:117|444:117|442:111|442:111|442:103|442:103|440:97|440:97|440:91,1,90,2|0,0:0|0:0,0:0:0:0:
356,20,230426,1,2,0:0:0:0:
256,64,230855,1,0,0:0:0:0:
108,0,231283,6,0,P|120:56|116:112,1,90,2|0,0:0|0:0,0:0:0:0:
100,196,232140,2,0,P|88:239|88:288,1,90,2|0,0:0|0:0,0:0:0:0:
212,128,232997,2,0,P|248:112|320:104,1,90,2|0,0:0|0:0,0:0:0:0:
164,252,233855,1,2,0:0:0:0:
108,160,234283,1,2,0:0:0:0:
332,264,234697,6,0,P|376:268|400:156,1,180,4|0,1:0|0:0,0:0:0:0:
296,160,235281,1,0,1:0:0:0:
376,344,235476,2,0,P|420:332|464:304,2,90,8|0|0,0:0|0:0|0:0,0:0:0:0:
240,292,236060,6,0,L|140:300,1,90,0|0,1:0|0:0,0:0:0:0:
340,248,236450,1,8,0:0:0:0:
296,348,236645,1,0,1:0:0:0:
404,336,236839,1,0,1:0:0:0:
220,256,237034,2,0,L|124:264,2,90,8|0|0,0:0|0:0|0:0,0:0:0:0:
76,180,237619,1,0,1:0:0:0:
312,184,237813,6,0,P|336:244|292:348,1,180,0|0,1:0|0:0,0:0:0:0:
188,360,238398,1,0,1:0:0:0:
76,180,238593,2,0,P|68:128|72:88,1,90,8|0,0:0|0:0,0:0:0:0:
220,220,238982,1,8,0:0:0:0:
128,276,239174,2,0,L|28:268,1,90,0|0,1:0|0:0,0:0:0:0:
224,328,239558,1,0,1:0:0:0:
71,91,239751,6,0,B|56:72|64:52|84:44|104:48|116:64|116:88|100:104|96:128|104:156|124:172,1,180,8|0,0:0|0:0,0:0:0:0:
122,170,240424,6,0,L|144:168,1,22.5,2|2,0:0|0:0,0:0:0:0:
122,170,240711,6,0,L|211:161,1,90,4|0,1:0|0:0,0:0:0:0:
440,204,240999,1,10,0:0:0:0:
236,56,241143,2,0,P|216:104|212:152,1,90,2|8,0:0|0:0,0:0:0:0:
424,40,241432,1,2,1:2:0:0:
148,172,241576,2,0,P|154:223|175:267,1,90,2|8,1:2|0:0,0:0:0:0:
340,100,241864,6,0,P|333:48|312:4,1,90,2|0,1:2|0:0,0:0:0:0:
124,176,242153,2,0,P|76:184|20:180,1,90,10|0,0:0|0:0,0:0:0:0:
296,108,242441,2,0,P|344:100|400:104,1,90,2|0,1:2|1:0,0:0:0:0:
132,64,242730,2,0,B|104:40|104:12|104:12|124:16|136:28,1,90,10|8,0:0|0:0,0:0:0:0:
268,276,243018,6,0,P|256:320|144:376,1,180,2|8,1:2|0:0,0:0:0:0:
160,268,243451,1,0,0:0:0:0:
376,288,243595,2,0,L|472:276,1,90,2|0,1:2|1:0,0:0:0:0:
304,160,243884,2,0,P|292:116|296:68,1,90,0|8,0:0|0:0,0:0:0:0:
120,323,244172,6,0,P|80:344|24:348,2,90,2|0|8,1:2|1:0|0:0,0:0:0:0:
300,240,244605,2,0,L|400:252,1,90,2|0,0:0|1:0,0:0:0:0:
488,212,244893,1,0,1:0:0:0:
216,120,245037,2,0,L|116:132,1,90,10|0,0:0|0:0,0:0:0:0:
390,76,245326,6,0,B|410:120|402:168|378:160|370:208|390:252,1,180,2|8,1:2|0:0,0:0:0:0:
488,212,245759,1,0,0:0:0:0:
296,120,245903,2,0,L|196:132,2,90,2|0|0,1:2|1:0|0:0,0:0:0:0:
148,48,246336,1,8,0:0:0:0:
284,236,246480,6,0,P|296:288|292:332,1,90,2|0,1:2|1:0,0:0:0:0:
136,204,246768,1,8,0:0:0:0:
224,144,246912,1,0,1:0:0:0:
192,380,247057,2,0,P|180:328|184:284,1,90,2|0,1:2|1:0,0:0:0:0:
352,80,247345,2,0,P|340:132|344:176,1,90,10|8,0:0|0:0,0:0:0:0:
512,380,247634,6,0,P|472:368|416:364,1,90,2|0,1:2|0:0,0:0:0:0:
182,291,247922,2,0,L|290:279,1,90,10|0,0:0|1:0,0:0:0:0:
431,178,248211,2,0,L|323:166,1,90,10|0,0:0|1:0,0:0:0:0:
456,256,248499,1,0,1:0:0:0:
476,112,248643,1,8,0:0:0:0:
248,152,248787,6,0,L|140:140,1,90,0|8,1:0|0:0,0:0:0:0:
88,184,249004,1,8,0:0:0:0:
84,200,249076,2,0,L|105:249,1,45,8|0,0:0|0:0,0:0:0:0:
204,308,249220,2,0,L|238:279,1,45,4|4,1:3|1:3,0:0:0:0:
248,152,249364,5,8,1:3:0:0:
212,148,249436,1,8,1:3:0:0:
176,144,249508,1,8,0:0:0:0:
140,140,249580,1,8,0:0:0:0:
84,200,249653,6,0,L|105:249,1,45,8|8,0:0|0:0,0:0:0:0:
204,308,249797,2,0,L|238:279,1,45,8|8,0:0|0:0,0:0:0:0:
244,108,249941,6,0,L|136:96,1,90,4|0,1:0|0:0,0:0:0:0:
344,32,250230,1,10,0:0:0:0:
292,224,250374,2,0,P|284:272|300:320,1,90,2|0,1:2|0:0,0:0:0:0:
484,172,250662,1,2,1:2:0:0:
232,144,250807,1,10,0:0:0:0:
480,196,250951,1,10,0:0:0:0:
236,124,251095,6,0,P|203:127|127:119,1,90,2|0,1:2|0:0,0:0:0:0:
388,44,251384,2,0,P|421:41|497:49,1,90,10|0,0:0|0:0,0:0:0:0:
236,124,251672,2,0,P|208:184|216:236,1,90,2|0,1:2|1:0,0:0:0:0:
448,284,251960,2,0,P|476:224|468:172,1,90,10|0,0:0|0:0,0:0:0:0:
208,48,252249,6,0,L|80:60,1,90,6|0,1:2|0:0,0:0:0:0:
380,116,252537,2,0,L|508:128,1,90,10|0,0:0|0:0,0:0:0:0:
208,184,252826,2,0,P|184:228|184:292,1,90,2|0,1:2|1:0,0:0:0:0:
380,116,253114,2,0,P|404:72|404:8,1,90,2|8,0:0|0:0,0:0:0:0:
136,128,253403,6,0,P|100:192|100:304,1,180,2|8,1:2|0:0,0:0:0:0:
52,200,253835,1,0,0:0:0:0:
300,248,253980,2,0,L|408:244,1,90,2|0,1:2|1:0,0:0:0:0:
216,152,254268,1,12,0:0:0:0:
240,348,254412,1,8,0:0:0:0:
204,60,254557,6,0,P|160:48|92:48,1,90,4|0,1:0|0:0,0:0:0:0:
340,160,254845,2,0,L|448:152,1,90,8|0,0:0|1:0,0:0:0:0:
168,280,255134,2,0,L|60:272,1,90,10|0,0:0|0:0,0:0:0:0:
340,160,255422,2,0,P|360:120|360:68,1,90,2|8,1:2|0:0,0:0:0:0:
78,273,255710,6,0,P|112:352|208:360,1,180,2|8,1:2|0:0,0:0:0:0:
260,276,256143,1,0,0:0:0:0:
24,192,256287,2,0,P|16:152|32:88,1,90,2|0,1:2|1:0,0:0:0:0:
220,72,256576,1,8,0:0:0:0:
128,128,256720,1,0,0:0:0:0:
360,88,256864,6,0,L|460:96,1,90,6|8,1:2|0:0,0:0:0:0:
488,168,257081,1,8,0:0:0:0:
496,184,257153,2,0,L|488:256,1,45,8|8,0:0|0:0,0:0:0:0:
380,292,257297,1,8,0:0:0:0:
372,308,257369,1,8,0:0:0:0:
364,324,257441,2,0,L|372:396,1,45,4|4,1:3|1:3,0:0:0:0:
256,156,257585,2,0,L|264:84,1,45,4|4,1:3|1:3,0:0:0:0:
180,236,257730,5,8,1:3:0:0:
160,254,257802,1,8,1:3:0:0:
149,279,257874,1,8,1:3:0:0:
148,305,257946,1,8,1:3:0:0:
192,372,258018,6,0,P|235:373|288:364,1,90,4|0,1:3|0:0,0:0:0:0:
376,232,258307,1,4,1:3:0:0:
388,340,258451,1,0,0:0:0:0:
212,216,258595,2,0,L|96:224,1,90,14|0,0:0|0:0,0:0:0:0:
260,140,258884,1,0,0:0:0:0:
268,280,259028,1,8,0:0:0:0:
252,24,259172,6,0,L|341:17,1,90,4|0,1:0|0:0,0:0:0:0:
260,140,259460,1,2,0:0:0:0:
164,88,259605,1,0,1:0:0:0:
384,76,259749,2,0,L|473:69,1,90,12|0,0:0|0:0,0:0:0:0:
260,140,260037,1,0,1:0:0:0:
164,88,260182,2,0,P|152:136|168:200,1,90,4|0,1:2|0:0,0:0:0:0:
252,24,260470,5,8,0:0:0:0:
240,248,260614,2,0,P|208:272|160:284,1,90,0|0,1:0|0:0,0:0:0:0:
260,140,260903,2,0,L|349:147,1,90,8|0,0:0|0:0,0:0:0:0:
424,69,261191,1,2,0:0:0:0:
403,229,261335,1,8,0:0:0:0:
252,24,261480,6,0,L|163:31,2,90,0|0|2,1:0|0:0|0:0,0:0:0:0:
352,64,261912,1,0,1:0:0:0:
156,192,262057,2,0,P|144:236|152:288,1,90,8|0,0:0|0:0,0:0:0:0:
308,160,262345,1,8,0:0:0:0:
72,288,262489,2,0,P|87:330|123:368,1,90,0|0,1:0|0:0,0:0:0:0:
316,348,262778,5,8,0:0:0:0:
256,260,262922,1,0,1:0:0:0:
208,356,263066,1,0,1:0:0:0:
404,224,263210,2,0,P|416:180|404:120,1,90,8|0,0:0|0:0,0:0:0:0:
256,260,263499,1,8,0:0:0:0:
440,332,263643,1,8,0:0:0:0:
172,228,263787,6,0,L|48:232,1,90,4|0,1:0|0:0,0:0:0:0:
240,176,264076,1,2,0:0:0:0:
240,176,264220,1,0,1:0:0:0:
280,372,264364,2,0,P|288:332|280:272,1,90,8|0,0:0|0:0,0:0:0:0:
128,336,264653,1,8,0:0:0:0:
368,252,264797,2,0,P|354:213|318:165,1,90,0|0,1:0|0:0,0:0:0:0:
132,148,265085,5,8,1:3:0:0:
156,252,265230,2,0,P|149:296|128:336,1,90,0|0,1:0|1:0,0:0:0:0:
236,181,265518,2,0,L|325:173,1,90,8|0,0:0|0:0,0:0:0:0:
424,220,265807,1,8,0:0:0:0:
354,74,265951,1,8,0:0:0:0:
312,320,266095,6,0,L|222:327,1,90,0|0,1:0|0:0,0:0:0:0:
164,236,266384,2,0,L|254:243,1,90,2|0,0:0|0:0,0:0:0:0:
32,360,266672,1,8,0:0:0:0:
32,360,266816,2,0,P|16:320|20:252,2,90,0|4|8,1:0|1:3|1:3,0:0:0:0:
176,220,267249,5,4,1:3:0:0:
24,164,267393,1,4,1:3:0:0:
164,236,267537,5,4,1:3:0:0:
2,221,267681,1,4,1:3:0:0:
264,292,267826,6,0,B|320:276|364:292|364:292|352:312|312:320,1,144,14|0,0:0|0:0,0:0:0:0:
192,336,268042,6,0,P|180:304|192:244,1,90,14|0,0:0|0:0,0:0:0:0:
259,178,268259,6,0,B|307:190|307:190|259:210,1,99.0000030212403,14|0,0:0|0:0,0:0:0:0:
104,272,268403,6,0,L|8:264,1,90,4|0,1:0|1:0,0:0:0:0:
192,336,268691,2,0,L|288:328,1,90,8|0,0:0|0:0,0:0:0:0:
148,136,268980,1,14,0:0:0:0:
104,272,269124,1,0,1:0:0:0:
48,180,269268,1,0,1:0:0:0:
292,240,269412,6,0,L|388:232,1,90,14|0,0:0|0:0,0:0:0:0:
244,88,269701,1,0,1:0:0:0:
432,284,269845,2,0,L|511:229,1,90,14|0,0:0|0:0,0:0:0:0:
292,240,270134,2,0,P|232:240|172:216,1,90,0|0,1:0|1:0,0:0:0:0:
408,120,270422,2,0,P|424:72|420:28,1,90,10|0,0:0|0:0,0:0:0:0:
204,232,270710,6,0,P|188:288|200:352,1,90,4|0,1:0|0:0,0:0:0:0:
319,123,270999,2,0,P|367:115|419:123,1,90,8|0,0:0|0:0,0:0:0:0:
196,20,271287,1,14,0:0:0:0:
160,124,271432,1,0,1:0:0:0:
92,40,271576,1,0,1:0:0:0:
319,123,271720,2,0,P|360:128|408:120,1,90,14|0,0:0|0:0,0:0:0:0:
480,40,272009,5,0,1:0:0:0:
248,40,272153,2,0,P|216:88|212:144,1,90,14|0,0:0|0:0,0:0:0:0:
340,268,272441,1,0,1:0:0:0:
232,264,272585,1,0,1:0:0:0:
432,104,272730,2,0,P|440:64|432:16,1,90,10|0,0:0|0:0,0:0:0:0:
231,175,273018,6,0,P|223:215|231:263,1,90,4|0,1:0|0:0,0:0:0:0:
343,105,273307,2,0,P|387:97|435:105,1,90,10|0,0:0|0:0,0:0:0:0:
340,280,273595,1,14,0:0:0:0:
284,188,273739,1,0,1:0:0:0:
392,184,273884,1,0,1:0:0:0:
152,304,274028,6,0,P|132:248|132:204,1,90,14|0,0:0|0:0,0:0:0:0:
256,368,274316,1,0,1:0:0:0:
44,232,274460,2,0,P|54:173|76:135,1,90,14|0,0:0|0:0,0:0:0:0:
252,72,274749,1,0,1:0:0:0:
144,68,274893,1,0,1:0:0:0:
236,244,275037,2,0,P|248:304|240:352,1,90,10|0,0:0|0:0,0:0:0:0:
68,148,275326,5,4,1:0:0:0:
40,252,275470,1,0,1:0:0:0:
192,124,275614,2,0,L|292:132,1,90,8|0,0:0|0:0,0:0:0:0:
444,244,275903,2,0,L|344:252,1,90,14|0,0:0|1:0,0:0:0:0:
496,140,276191,1,0,0:0:0:0:
284,308,276335,6,0,L|193:264,1,90,14|0,0:0|0:0,0:0:0:0:
381,243,276624,1,0,1:0:0:0:
113,283,276768,2,0,L|56:200,1,90,14|0,0:0|0:0,0:0:0:0:
176,48,277057,6,0,P|222:62|253:98,1,80.9999975280763,4|0,1:3|0:0,0:0:0:0:
176,132,277345,6,0,B|216:104|296:104|352:136|352:136|316:160|252:160,1,288,4|0,1:0|0:0,0:0:0:0:
