osu file format v14

[General]
AudioFilename: audio.mp3
AudioLeadIn: 0
PreviewTime: 45318
Countdown: 0
SampleSet: Soft
StackLeniency: 0.3
Mode: 0
LetterboxInBreaks: 0
WidescreenStoryboard: 1

[Editor]
Bookmarks: 460,27630,45743,68384,104611,136309,169642,190019,210396,219453,233038,255679,278321,296434
DistanceSpacing: 3
BeatDivisor: 4
GridSize: 16
TimelineZoom: 1.499999

[Metadata]
Title:birthday song
TitleUnicode:birthday song
Artist:Sayuri
ArtistUnicode:さユり
Creator:Haruto
Version:Thinking Fam Collab Insane
Source:
Tags:mikazuki no koukai album RLC xlni val0108 fanzhen0019 handsome professionalbox probox asphyxia shirakai kacha kibbleru narcissu appleeaterx haruto_aizawa sing kalibe pentori sotarks akitoshi -laura- corinn doormat kroytz -sh1n1- shini toybot milan- irohas mugiwarasekai linada
BeatmapID:1398619
BeatmapSetID:616185

[Difficulty]
HPDrainRate:5
CircleSize:3.7
OverallDifficulty:8
ApproachRate:9
SliderMultiplier:1.63
SliderTickRate:2

[Events]
//Background and Video events
0,0,"56964256_p1.jpg",0,0
//Break Periods
//Storyboard Layer 0 (Background)
//Storyboard Layer 1 (Fail)
//Storyboard Layer 2 (Pass)
//Storyboard Layer 3 (Foreground)
//Storyboard Sound Samples

[TimingPoints]
467,566.037735849057,4,2,1,40,1,0
4004,-100,4,2,0,25,0,0
4995,-100,4,2,1,40,0,0
8674,-100,4,2,0,25,0,0
9523,-100,4,2,1,40,0,0
18863,-83.3333333333333,4,2,1,40,0,0
27636,-80,4,2,1,60,0,0
36551,-80,4,2,1,30,0,0
36693,-80,4,2,1,60,0,0
41150,-80,4,2,1,20,0,0
41221,-80,4,2,1,60,0,0
43485,-68.9655172413793,4,2,1,60,0,0
44900,-111.111111111111,4,2,1,60,0,0
45183,-100,4,2,1,60,0,0
45467,-90.9090909090909,4,2,1,60,0,0
45750,-80,4,2,1,70,0,1
59193,-80,4,2,1,40,0,1
59334,-80,4,2,1,70,0,1
63297,-74.0740740740741,4,2,1,70,0,1
63863,-80,4,2,1,70,0,1
68391,-90.9090909090909,4,2,1,70,0,0
75183,-100,4,2,1,70,0,0
76316,-66.6666666666667,4,2,1,70,0,0
77448,-80,4,2,1,70,0,0
85018,-100,4,2,1,20,0,0
85089,-58.8235294117647,4,2,1,70,0,0
85301,-66.6666666666667,4,2,1,20,0,0
85372,-66.6666666666667,4,2,1,70,0,0
86221,-50,4,2,1,70,0,0
86433,-66.6666666666667,4,2,1,20,0,0
86504,-80,4,2,1,70,0,0
86787,-80,4,2,1,70,0,0
87070,-80,4,2,1,70,0,0
87353,-80,4,2,1,70,0,0
87919,-80,4,2,1,70,0,0
92660,-83.3333333333333,4,2,1,30,0,0
92731,-83.3333333333333,4,2,1,70,0,0
102212,-83.3333333333333,4,2,1,20,0,0
102353,-71.4285714285714,4,2,1,70,0,0
103627,-58.8235294117647,4,2,16,70,0,0
104334,-71.4285714285714,4,2,16,40,0,0
104476,-71.4285714285714,4,2,16,70,0,0
104617,-55.5555555555556,4,2,1,70,0,1
109004,-55.5555555555556,4,2,1,40,0,1
109146,-55.5555555555556,4,2,1,70,0,1
111268,-55.5555555555556,4,2,1,40,0,1
111410,-55.5555555555556,4,2,1,70,0,1
111976,-50,4,2,1,70,0,1
113674,-55.5555555555556,4,2,1,70,0,1
115655,-55.5555555555556,4,2,1,40,0,1
115797,-55.5555555555556,4,2,1,70,0,1
121316,-50,4,2,1,70,0,1
122731,-55.5555555555556,4,2,1,70,0,1
124995,-55.5555555555556,4,2,1,70,0,0
127259,-66.6666666666667,4,2,1,70,0,1
134051,559.96266915539,4,2,1,70,1,0
134051,-60.6060606060606,4,2,1,70,0,0
136290,555.555555555556,4,2,16,70,1,1
136290,-51.75983436853,4,2,16,70,0,1
162956,552.995391705069,4,2,16,70,1,0
162956,-51.75983436853,4,2,16,70,0,0
165168,557.880055788006,4,2,16,70,1,0
167399,562.587904360056,4,2,16,70,1,0
169649,566.037735849057,4,2,1,55,1,0
169649,-100,4,2,1,55,0,0
172196,-100,4,2,1,40,0,0
172479,-100,4,2,1,55,0,0
180120,-100,4,2,1,40,0,0
180403,-100,4,2,1,55,0,0
185498,-83.3333333333333,4,2,1,55,0,0
188045,-76.9230769230769,4,2,1,55,0,0
188328,-71.4285714285714,4,2,1,55,0,0
188611,-66.6666666666667,4,2,1,55,0,0
188894,-133.333333333333,4,2,16,70,0,0
190026,-50,4,2,1,70,0,1
191299,-50,4,2,1,70,0,1
195828,-50,4,2,1,70,0,1
198516,-50,4,2,1,70,0,1
209271,-350,4,2,1,70,0,1
210403,-133.333333333333,4,2,1,50,0,0
217196,-105.263157894737,4,2,1,50,0,0
223988,-86.9565217391306,4,2,1,50,0,0
233045,-55.5555555555556,4,2,1,70,0,1
242101,-52.6315789473684,4,2,1,70,0,1
242667,-55.5555555555556,4,2,1,70,0,1
248894,-55.5555555555556,4,2,16,70,0,1
250026,-55.5555555555556,4,2,1,70,0,1
254554,-50,4,2,1,70,0,0
255686,-55.5555555555556,4,2,1,70,0,1
276064,-100,4,2,1,70,0,1
276205,-100,4,2,1,5,0,1
276347,-83.3333333333333,4,2,1,70,0,1
276488,-83.3333333333333,4,2,1,5,0,1
276630,-71.4285714285714,4,2,1,70,0,1
276771,-71.4285714285714,4,2,1,5,0,1
276913,-62.5,4,2,1,70,0,1
277054,-62.5,4,2,1,5,0,1
277196,-55.5555555555556,4,2,1,70,0,1
277337,-55.5555555555556,4,2,1,5,0,1
277479,-50,4,2,1,70,0,1
277620,-50,4,2,1,5,0,1
277762,-100,4,2,1,70,0,1
278257,-66.6666666666667,4,2,1,5,0,0
278328,-66.6666666666667,4,2,1,70,0,1
278469,-66.6666666666667,4,2,1,70,0,0
294177,-58.8235294117647,4,2,1,70,0,0
296441,-83.3333333333333,4,2,1,70,0,0
305498,-55.5555555555556,4,2,1,70,0,0
306064,-100,4,2,1,70,0,0
306347,-55.5555555555556,4,2,1,70,0,0
307762,-55.5555555555556,4,2,1,70,0,0
308328,-100,4,2,1,70,0,0
308611,-50,4,2,1,70,0,0
310592,-100,4,2,1,70,0,0
310875,-50,4,2,1,70,0,0
312290,-86.9565217391304,4,2,1,70,0,0
313281,-86.9565217391304,4,2,1,5,0,0
313422,-62.5,4,2,1,70,0,0

[Colours]
Combo1 : 242,215,151
Combo2 : 199,118,216
Combo3 : 234,128,249
Combo4 : 106,169,221
Combo5 : 72,137,208

[HitObjects]
32,288,467,5,0,3:3:0:0:
128,256,750,1,2,0:1:0:0:
32,288,1033,2,0,L|54:162,1,122.25,0|2,0:2|0:2,0:0:0:0:
21,71,1599,5,0,3:3:0:0:
53,167,1882,1,2,0:1:0:0:
21,71,2165,2,0,L|147:93,1,122.25,0|2,0:1|0:2,0:0:0:0:
237,60,2731,5,0,3:0:0:0:
141,92,3014,1,2,0:1:0:0:
237,60,3297,2,0,L|215:180,1,122.25,0|2,0:2|0:2,0:0:0:0:
215,180,3863,6,0,P|261:169|298:162,1,81.5,0|8,3:0|0:2,0:0:0:0:
415,272,4429,2,0,P|375:262|335:254,1,81.5,8|0,0:2|0:0,0:0:0:0:
251,354,4853,1,0,0:0:0:0:
232,275,4995,6,0,L|253:362,1,81.5,0|2,3:0|0:1,0:0:0:0:
64,224,5561,2,0,L|44:303,1,81.5,0|0,0:2|0:0,0:0:0:0:
139,267,5985,1,2,0:2:0:0:
154,347,6127,6,0,P|146:306|138:263,1,81.5,0|2,3:0|0:1,0:0:0:0:
24,150,6693,2,0,P|32:109|40:66,1,81.5,0|0,0:1|0:0,0:0:0:0:
190,111,7117,1,2,0:2:0:0:
111,131,7259,6,0,L|190:112,1,81.5,0|2,3:0|0:1,0:0:0:0:
327,23,7825,2,0,L|406:42,1,81.5,0|0,0:2|0:2,0:0:0:0:
464,99,8250,1,2,0:0:0:0:
418,31,8391,5,0,3:0:0:0:
456,189,8674,1,8,0:0:0:0:
288,128,8957,5,8,0:0:0:0:
251,286,9240,1,2,0:0:0:0:
272,207,9382,1,2,0:0:0:0:
288,128,9523,6,0,P|332:134|374:147,1,81.5,0|0,3:3|0:0,0:0:0:0:
493,264,10089,2,0,B|422:233|406:302|329:268,1,163,0|0,1:1|0:0,0:0:0:0:
187,201,10938,5,0,3:3:0:0:
90,332,11221,1,2,1:2:0:0:
90,332,11363,2,0,B|74:294|74:294|91:252,1,81.5,2|0,0:2|0:0,0:0:0:0:
240,275,11787,6,0,L|161:292,1,81.5,0|0,3:3|0:0,0:0:0:0:
37,185,12353,2,0,L|116:168,1,81.5,0|0,1:1|0:0,0:0:0:0:
169,94,12778,1,0,0:1:0:0:
175,102,12919,6,0,P|127:88|84:82,1,81.5,0|0,0:0|3:0,0:0:0:0:
235,168,13485,2,0,L|283:155,1,40.75,2|2,1:2|0:2,0:0:0:0:
338,107,13768,1,2,0:2:0:0:
424,158,13910,1,0,0:0:0:0:
423,168,14051,6,0,P|413:200|399:250,1,81.5,0|0,3:0|0:2,0:0:0:0:
279,356,14617,2,0,P|267:316|256:277,1,81.5,0|0,1:1|0:0,0:0:0:0:
166,220,15042,1,0,0:1:0:0:
89,213,15183,6,0,P|126:227|166:220,1,81.5,0|0,0:0|3:0,0:0:0:0:
162,56,15750,2,0,P|122:49|84:63,1,81.5,2|0,1:0|0:0,0:0:0:0:
136,152,16174,1,0,0:0:0:0:
136,152,16316,6,0,B|206:123|226:183|298:147,1,163,0|0,3:0|1:1,0:0:0:0:
312,137,17448,2,0,L|322:76,2,61.125,0|0|0,0:0|0:0|0:0,0:0:0:0:
221,194,18014,2,0,P|293:163|365:198,1,163,0|2,1:0|3:3,0:0:0:0:
444,321,18863,5,0,3:0:0:0:
444,321,19146,2,0,B|396:302|396:302|351:317,1,97.799997015381,0|2,1:0|0:2,0:0:0:0:
261,280,19570,2,0,B|213:299|213:299|168:284,1,97.799997015381,2|2,0:3|0:3,0:0:0:0:
69,342,19995,1,0,0:0:0:0:
69,342,20278,2,0,B|79:295|79:295|68:247|68:247|81:189,1,146.699995523071,0|2,1:1|0:2,0:0:0:0:
0,96,20844,6,0,P|51:120|95:111,1,97.799997015381,0|0,3:0|3:0,0:0:0:0:
276,52,21410,1,0,1:0:0:0:
186,34,21551,6,0,P|233:28|276:51,1,97.799997015381,0|2,0:0|0:3,0:0:0:0:
300,146,21976,2,0,P|290:188|273:249,2,97.799997015381,0|0|0,0:0|0:0|1:1,0:0:0:0:
454,26,22825,2,0,P|459:54|468:90,1,48.8999985076905,0|2,0:0|0:2,0:0:0:0:
500,165,23108,6,0,P|451:147|397:141,1,97.799997015381,0|0,3:0|3:0,0:0:0:0:
378,152,23533,1,2,0:2:0:0:
408,260,23674,1,0,1:0:0:0:
388,238,23816,2,0,P|334:247|278:257,1,97.799997015381,0|2,0:0|0:3,0:0:0:0:
195,356,24240,6,0,L|209:297,2,48.8999985076905,0|2|0,3:0|0:3|0:0,0:0:0:0:
195,356,24806,2,0,P|146:331|97:342,1,97.799997015381,0|0,1:1|0:1,0:0:0:0:
0,264,25231,1,2,0:2:0:0:
89,245,25372,6,0,P|40:270|-9:259,1,97.799997015381,0|0,3:0|3:0,0:0:0:0:
42,72,25938,2,0,B|61:118|112:135|112:135|60:126|26:175,1,195.599994030762,0|0,1:0|3:0,0:0:0:0:
88,246,26646,5,2,1:3:0:0:
90,239,26717,1,0,1:0:0:0:
92,232,26787,2,0,L|201:218,2,97.799997015381,8|8|8,1:2|1:2|1:2,0:0:0:0:
112,135,27495,1,8,1:2:0:0:
49,316,27636,6,0,L|169:301,1,101.875,4|2,0:0|3:1,0:0:0:0:
290,232,28202,2,0,L|170:217,1,101.875,0|2,3:0|0:1,0:0:0:0:
152,140,28627,6,0,P|152:106|157:80,1,50.9375,0|0,1:0|0:0,0:0:0:0:
241,97,28910,2,0,P|241:131|236:157,1,50.9375,2|2,0:0|0:1,0:0:0:0:
189,219,29193,1,0,0:0:0:0:
230,294,29334,2,0,B|281:305|281:305|345:287,1,101.875,0|2,3:0|0:1,0:0:0:0:
355,306,29900,6,0,L|363:184,1,101.875,0|2,1:0|0:1,0:0:0:0:
323,126,30325,1,2,0:1:0:0:
241,97,30467,2,0,P|214:102|182:106,1,50.9375,0|0,1:0|0:0,0:0:0:0:
147,180,30750,2,0,P|174:185|206:189,1,50.9375,2|2,1:1|0:1,0:0:0:0:
86,124,31033,6,0,P|67:161|78:225,1,101.875,0|2,1:0|0:1,0:0:0:0:
136,279,31457,1,0,0:0:0:0:
222,268,31599,2,0,B|275:257|275:257|340:270,1,101.875,2|2,0:1|0:1,0:0:0:0:
343,288,32165,6,0,L|353:166,2,101.875,0|2|0,1:0|1:1|3:0,0:0:0:0:
297,361,32872,1,0,0:0:0:0:
212,340,33014,2,0,P|183:349|140:348,1,50.9375,0|0,1:1|0:1,0:0:0:0:
65,284,33297,6,0,L|74:164,1,101.875,0|0,1:1|0:0,0:0:0:0:
138,126,33721,1,0,0:0:0:0:
241,180,33863,2,0,P|291:171|332:126,1,101.875,0|0,3:0|0:0,0:0:0:0:
252,93,34287,1,0,0:0:0:0:
138,126,34429,6,0,L|154:248,1,101.875,0|0,1:1|1:0,0:0:0:0:
205,293,34853,1,0,0:0:0:0:
284,256,34995,2,0,L|345:259,1,50.9375,0|0,3:0|0:0,0:0:0:0:
371,337,35278,2,0,L|310:340,1,50.9375,0|0,1:1|0:1,0:0:0:0:
205,293,35561,6,0,P|197:238|221:194,1,101.875,0|8,1:1|0:0,0:0:0:0:
284,256,35985,1,4,0:3:0:0:
311,115,36127,1,12,3:0:0:0:
418,207,36268,1,8,0:0:0:0:
284,256,36410,1,8,0:0:0:0:
311,115,36551,1,8,0:0:0:0:
180,174,36693,6,0,L|65:165,1,101.875,4|0,1:2|1:1,0:0:0:0:
14,244,37117,1,0,0:1:0:0:
1,116,37259,2,0,P|21:95|52:77,1,50.9375,0|0,3:0|0:0,0:0:0:0:
140,66,37542,2,0,P|161:46|179:15,1,50.9375,0|0,1:1|0:1,0:0:0:0:
273,10,37825,6,0,L|288:117,1,101.875,0|2,1:0|0:1,0:0:0:0:
407,153,38250,1,8,0:0:0:0:
299,220,38391,2,0,L|231:215,1,50.9375,0|0,0:0|0:0,0:0:0:0:
295,312,38674,2,0,L|363:307,1,50.9375,8|0,0:0|0:0,0:0:0:0:
470,280,38957,6,0,P|475:224|479:155,1,101.875,2|2,1:2|1:2,0:0:0:0:
464,92,39382,1,0,0:1:0:0:
348,110,39523,2,0,P|292:107|253:77,1,101.875,8|2,0:0|1:1,0:0:0:0:
200,14,39948,1,2,0:1:0:0:
106,83,40089,6,0,L|100:197,1,101.875,2|0,1:1|0:1,0:0:0:0:
11,93,40514,1,8,0:0:0:0:
135,115,40655,2,0,L|131:183,1,50.9375,0|0,0:0|3:0,0:0:0:0:
122,293,40938,1,8,0:0:0:0:
143,314,41221,6,0,P|193:288|279:318,1,152.8125,4|0,0:0|0:0,0:0:0:0:
372,359,41787,2,0,L|385:285,1,50.9375,4|0,3:0|0:0,0:0:0:0:
409,184,42070,1,8,0:0:0:0:
287,223,42212,1,0,0:0:0:0:
381,309,42353,5,0,3:0:0:0:
426,110,42636,1,4,3:0:0:0:
231,171,42919,1,8,0:0:0:0:
381,309,43202,1,4,3:0:0:0:
291,90,43485,6,0,L|157:82,1,118.175003606415,4|2,0:0|0:1,0:0:0:0:
274,243,43910,2,0,L|347:130,1,118.175003606415,4|2,0:0|0:1,0:0:0:0:
152,170,44334,2,0,L|182:230,1,59.0875018032075,4|0,0:0|0:0,0:0:0:0:
324,343,44617,6,0,P|361:319|420:314,1,88.6312527048112,6|0,0:2|0:0,0:0:0:0:
428,310,44900,6,0,L|438:264,1,36.6749988807679,2|2,0:1|0:1,0:0:0:0:
484,208,45183,6,0,L|467:157,1,40.75,2|2,0:1|0:1,0:0:0:0:
488,80,45467,6,0,L|448:44,1,44.8250013679505,2|2,0:1|0:1,0:0:0:0:
304,121,45750,6,0,P|357:122|426:109,1,101.875,6|2,0:2|0:0,0:0:0:0:
405,114,46174,1,0,0:0:0:0:
247,50,46316,2,0,P|217:103|214:119,2,50.9375,8|0|2,0:0|0:0|0:0,0:0:0:0:
330,163,46740,2,0,P|319:140|304:121,1,50.9375,2|2,3:1|3:2,0:0:0:0:
276,286,47023,1,8,0:0:0:0:
237,175,47165,1,0,3:0:0:0:
196,252,47306,1,2,0:0:0:0:
119,107,47448,2,0,L|228:91,1,101.875,8|2,0:0|0:0,0:0:0:0:
219,92,47872,1,8,0:0:0:0:
38,66,48014,6,0,B|1:139|69:146|29:223,1,152.8125,0|0,3:0|3:0,0:0:0:0:
131,344,48580,2,0,P|120:292|121:281,1,50.9375,8|0,0:0|0:0,0:0:0:0:
177,178,48863,1,2,0:0:0:0:
258,304,49004,2,0,P|203:307|196:305,1,50.9375,0|2,3:0|3:2,0:0:0:0:
197,95,49287,1,8,0:0:0:0:
177,178,49429,2,0,P|202:179|227:173,1,50.9375,0|0,3:0|0:0,0:0:0:0:
331,35,49712,2,0,L|319:108,1,50.9375,10|0,0:0|0:0,0:0:0:0:
333,284,49995,2,0,L|324:233,1,50.9375,8|8,0:0|0:0,0:0:0:0:
480,148,50278,6,0,P|421:160|374:152,1,101.875,0|0,3:0|0:0,0:0:0:0:
380,153,50702,1,0,3:0:0:0:
188,259,50844,2,0,P|245:253|257:249,1,50.9375,8|0,0:0|0:0,0:0:0:0:
321,221,51127,1,2,0:1:0:0:
211,123,51268,2,0,P|206:182|205:193,1,50.9375,2|0,3:1|0:0,0:0:0:0:
270,329,51551,1,8,0:0:0:0:
359,143,51693,2,0,P|312:135|302:136,1,50.9375,0|0,3:0|0:0,0:0:0:0:
188,259,51976,2,0,P|245:253|257:249,1,50.9375,8|0,0:0|0:0,0:0:0:0:
296,55,52259,1,12,0:0:0:0:
321,221,52400,1,8,0:0:0:0:
110,138,52542,6,0,L|243:118,1,101.875,4|2,0:0|0:0,0:0:0:0:
309,135,52967,1,0,0:0:0:0:
112,231,53108,2,0,L|42:218,1,50.9375,0|0,3:0|0:0,0:0:0:0:
200,73,53391,2,0,L|215:143,1,50.9375,8|2,0:0|0:1,0:0:0:0:
193,251,53674,1,0,1:0:0:0:
193,251,53816,1,8,0:0:0:0:
79,129,53957,2,0,L|148:118,1,50.9375,0|8,1:0|0:0,0:0:0:0:
235,321,54240,5,0,1:0:0:0:
210,122,54382,1,8,0:0:0:0:
151,322,54523,1,8,0:0:0:0:
129,120,54665,1,8,0:0:0:0:
235,321,54806,6,0,L|352:309,1,101.875,8|2,0:1|0:0,0:0:0:0:
336,310,55231,1,0,3:0:0:0:
483,242,55372,2,0,L|398:228,1,50.9375,10|2,0:0|0:1,0:0:0:0:
348,193,55655,1,2,0:1:0:0:
413,106,55797,2,0,L|431:178,1,50.9375,0|2,3:0|0:0,0:0:0:0:
300,259,56080,2,0,P|266:210|288:143,1,101.875,8|2,0:0|0:0,0:0:0:0:
203,271,56504,2,0,P|151:266|142:264,1,50.9375,8|0,0:0|0:0,0:0:0:0:
152,266,56787,1,2,0:0:0:0:
348,193,56929,1,8,0:0:0:0:
118,196,57070,6,0,P|79:238|121:334,1,152.8125,2|0,3:2|3:0,0:0:0:0:
257,203,57636,2,0,P|281:254|282:265,1,50.9375,8|0,0:0|0:0,0:0:0:0:
261,335,57919,1,0,0:0:0:0:
152,266,58061,2,0,L|221:252,1,50.9375,0|0,3:0|3:0,0:0:0:0:
381,304,58344,1,8,0:0:0:0:
211,345,58485,2,0,L|280:331,1,50.9375,0|0,3:1|0:0,0:0:0:0:
381,304,58768,2,0,L|312:290,1,50.9375,12|0,0:0|0:0,0:0:0:0:
201,255,59051,2,0,L|270:241,1,50.9375,8|8,0:0|0:0,0:0:0:0:
435,258,59334,6,0,P|371:266|323:186,1,152.8125,4|2,0:0|3:1,0:0:0:0:
230,51,59900,2,0,P|258:99|259:145,1,101.875,8|0,0:0|3:0,0:0:0:0:
219,301,60325,2,0,P|201:246|205:231,1,50.9375,0|2,0:0|0:0,0:0:0:0:
178,118,60608,1,8,0:0:0:0:
107,232,60750,2,0,P|125:177|121:162,1,50.9375,0|0,3:0|0:0,0:0:0:0:
29,68,61033,2,0,L|45:193,1,101.875,4|2,0:0|2:0,0:0:0:0:
41,169,61457,1,0,2:0:0:0:
181,347,61599,6,0,P|177:288|220:241,1,101.875,8|0,0:0|3:0,0:0:0:0:
335,181,62023,1,8,0:0:0:0:
305,309,62165,2,0,P|246:307|235:298,1,50.9375,0|0,0:0|3:0,0:0:0:0:
178,180,62448,2,0,P|202:176|227:182,1,50.9375,8|0,0:0|0:0,0:0:0:0:
305,309,62731,5,4,0:0:0:0:
247,104,62872,1,0,1:0:0:0:
199,254,63014,1,0,1:0:0:0:
175,56,63155,1,0,1:0:0:0:
119,296,63297,2,0,P|109:243|109:222,1,55.012500209856,2|0,1:2|1:0,0:0:0:0:
257,50,63580,2,0,P|253:77|246:103,1,55.012500209856,2|0,3:2|1:0,0:0:0:0:
108,242,63863,6,0,L|241:228,1,101.875,4|0,0:0|3:0,0:0:0:0:
209,231,64287,1,0,0:0:0:0:
396,320,64429,2,0,P|341:331|293:289,1,101.875,8|0,0:0|3:0,0:0:0:0:
259,145,64853,2,0,P|287:192|289:210,1,50.9375,2|2,0:1|0:0,0:0:0:0:
204,343,65136,1,8,0:0:0:0:
204,210,65278,2,0,P|213:261|211:269,1,50.9375,0|2,3:0|0:1,0:0:0:0:
121,350,65561,2,0,P|121:324|130:300,1,50.9375,8|0,0:0|0:0,0:0:0:0:
276,300,65844,2,0,P|285:323|285:349,1,50.9375,0|0,3:0|0:0,0:0:0:0:
204,343,66127,5,4,1:2:0:0:
204,343,66410,2,0,L|203:247,1,76.40625,0|0,1:0|0:0,0:0:0:0:
173,251,66693,2,0,L|174:155,1,76.40625,4|0,1:3|0:0,0:0:0:0:
175,137,66976,1,8,1:2:0:0:
283,290,67117,1,0,0:0:0:0:
376,236,67259,2,0,P|313:216|269:206,2,101.875,0|2|2,1:0|3:1|0:1,0:0:0:0:
376,236,68108,1,0,0:0:0:0:
489,321,68391,5,4,0:0:0:0:
416,383,68674,1,0,0:0:0:0:
489,321,68957,2,0,L|474:175,1,134.475004103851,8|2,0:0|0:1,0:0:0:0:
509,79,69523,2,0,P|468:103|400:86,1,89.650002735901,0|4,0:0|3:0,0:0:0:0:
269,5,70089,2,0,P|313:3|350:27,1,89.650002735901,8|2,0:0|0:0,0:0:0:0:
293,82,70514,1,0,0:0:0:0:
284,171,70655,6,0,L|294:72,1,89.650002735901,4|2,3:0|0:1,0:0:0:0:
358,243,71221,1,8,0:0:0:0:
178,199,71504,1,2,0:1:0:0:
178,199,71646,1,2,0:1:0:0:
178,199,71787,2,0,P|201:248|188:296,1,89.650002735901,2|4,0:1|3:0,0:0:0:0:
6,339,72353,2,0,L|99:329,1,89.650002735901,8|2,0:0|0:1,0:0:0:0:
121,254,72778,1,0,0:0:0:0:
69,194,72919,6,0,L|79:101,1,89.650002735901,4|2,3:0|0:0,0:0:0:0:
291,91,73485,2,0,P|215:90|169:27,1,134.475004103851,8|2,0:0|0:1,0:0:0:0:
254,12,74051,1,2,0:0:0:0:
286,182,74334,1,4,0:3:0:0:
409,111,74617,1,8,0:0:0:0:
333,309,74900,2,0,L|324:262,1,44.8250013679505,2|0,0:0|0:0,0:0:0:0:
286,182,75183,6,0,B|374:159|358:216|454:190,2,163,4|2|4,0:3|0:1|1:2,0:0:0:0:
409,111,76457,1,8,1:2:0:0:
290,338,76740,1,0,3:0:0:0:
301,330,76811,1,0,0:0:0:0:
313,323,76882,2,0,P|325:288|321:255,1,61.1250023317338,8|0,0:0|0:0,0:0:0:0:
195,212,77165,2,0,P|169:238|160:270,1,61.1250023317338,8|8,0:0|0:0,0:0:0:0:
243,278,77448,6,0,L|251:116,1,152.8125,4|2,0:0|0:1,0:0:0:0:
218,18,78014,2,0,P|276:46|315:40,1,101.875,10|2,0:0|0:1,0:0:0:0:
395,0,78438,2,0,P|408:31|404:66,1,50.9375,0|2,0:0|0:1,0:0:0:0:
489,97,78721,1,2,0:1:0:0:
489,97,78863,2,0,P|468:123|436:137,1,50.9375,4|0,3:0|0:0,0:0:0:0:
407,226,79146,2,0,P|344:183|271:200,1,152.8125,8|0,0:0|0:0,0:0:0:0:
328,276,79712,5,4,3:0:0:0:
200,131,79995,1,2,0:1:0:0:
200,131,80278,2,0,P|149:159|87:147,1,101.875,10|0,0:0|0:0,0:0:0:0:
7,119,80702,2,0,L|21:236,1,101.875,2|0,0:1|0:0,0:0:0:0:
32,317,81127,1,4,3:0:0:0:
32,317,81410,2,0,B|118:294|101:350|199:325,1,152.8125,8|2,0:0|0:1,0:0:0:0:
257,273,81976,5,0,3:0:0:0:
68,210,82259,1,2,0:1:0:0:
142,149,82542,2,0,P|165:190|148:258,1,101.875,8|2,0:0|0:0,0:0:0:0:
261,277,82967,1,2,0:1:0:0:
261,277,83108,2,0,P|290:266|318:269,1,50.9375,2|0,0:0|0:0,0:0:0:0:
359,190,83391,2,0,P|383:209|394:235,1,50.9375,4|0,3:0|0:0,0:0:0:0:
475,375,83674,2,0,L|490:213,1,152.8125,8|0,0:0|0:0,0:0:0:0:
437,138,84240,6,0,L|541:125,1,101.875,4|2,3:0|0:0,0:0:0:0:
313,40,84806,1,8,0:0:0:0:
355,227,85089,2,0,L|251:214,1,103.912501981974,12|0,0:0|0:0,0:0:0:0:
225,186,85372,5,8,0:0:0:0:
120,336,85514,1,0,3:0:0:0:
123,350,85797,1,0,3:0:0:0:
126,364,86080,1,4,3:0:0:0:
51,274,86221,6,0,B|104:243|104:243|177:260,1,122.25,8|0,0:0|0:0,0:0:0:0:
191,281,86504,6,0,L|183:162,2,101.875,4|2|8,3:2|0:1|0:0,0:0:0:0:
361,185,87353,2,0,L|357:258,1,50.9375,2|2,0:1|0:1,0:0:0:0:
390,321,87636,2,0,P|329:323|279:278,1,101.875,0|4,0:1|3:0,0:0:0:0:
271,216,88061,1,0,0:0:0:0:
361,185,88202,2,0,L|419:194,1,50.9375,8|0,0:0|0:0,0:0:0:0:
289,63,88485,2,0,L|293:136,1,50.9375,2|2,0:1|0:1,0:0:0:0:
271,216,88768,6,0,P|226:239|176:234,1,101.875,4|0,3:0|3:0,0:0:0:0:
114,169,89193,1,0,0:0:0:0:
31,210,89334,2,0,P|23:180|26:152,1,50.9375,8|0,0:0|0:0,0:0:0:0:
0,73,89617,2,0,P|21:51|47:39,1,50.9375,2|2,0:1|0:1,0:0:0:0:
134,68,89900,2,0,B|194:60|194:60|227:75|227:75|303:67,1,152.8125,0|2,0:1|0:1,0:0:0:0:
307,192,90467,1,8,0:0:0:0:
344,4,90608,2,0,P|372:48|359:116,1,101.875,4|2,3:0|0:1,0:0:0:0:
307,192,91033,6,0,L|422:182,2,101.875,6|2|8,0:0|3:2|0:0,0:0:0:0:
434,329,91882,2,0,P|400:317|368:323,1,50.9375,0|2,0:1|0:1,0:0:0:0:
299,286,92165,2,0,P|271:330|284:398,1,101.875,2|2,0:1|3:2,0:0:0:0:
130,301,92731,1,8,0:0:0:0:
190,224,92872,2,0,P|191:173|164:128,1,97.799997015381,0|0,3:0|0:0,0:0:0:0:
5,206,93297,6,0,L|115:198,1,97.799997015381,6|2,0:0|3:2,0:0:0:0:
212,38,93863,2,0,L|114:45,1,97.799997015381,8|2,0:0|0:0,0:0:0:0:
198,198,94429,2,0,P|220:172|224:141,1,48.8999985076905,2|0,3:2|0:0,0:0:0:0:
311,137,94712,2,0,P|299:104|274:85,1,48.8999985076905,0|0,3:0|0:0,0:0:0:0:
212,38,94995,1,4,3:0:0:0:
212,38,95278,5,8,0:0:0:0:
286,222,95419,1,8,0:0:0:0:
406,105,95561,6,0,L|395:216,1,97.799997015381,4|4,3:2|3:0,0:0:0:0:
444,285,95985,1,0,0:0:0:0:
363,338,96127,2,0,P|306:314|259:325,1,97.799997015381,8|2,0:0|3:2,0:0:0:0:
194,203,96551,2,0,P|236:225|285:221,1,97.799997015381,8|0,0:0|0:0,0:0:0:0:
364,159,96976,1,0,3:0:0:0:
364,159,97259,5,8,0:0:0:70:drum-hitnormal.wav
246,41,97400,2,0,L|257:152,1,97.799997015381,0|0,0:0|0:0,0:0:0:0:
194,203,97825,6,0,P|162:194|138:198,1,48.8999985076905,0|0,3:0|0:0,0:0:0:0:
89,124,98108,2,0,P|65:147|56:169,1,48.8999985076905,4|0,3:0|0:0,0:0:0:0:
12,293,98391,2,0,L|116:283,1,97.799997015381,8|2,0:0|3:2,0:0:0:0:
237,384,98816,2,0,L|133:374,1,97.799997015381,8|0,0:0|0:0,0:0:0:0:
202,279,99240,1,4,3:0:0:0:
202,279,99523,5,8,0:0:0:0:
36,384,99806,1,2,0:1:0:0:
71,135,100089,5,4,0:0:0:0:
98,269,100372,1,4,3:0:0:0:
207,54,100655,1,0,3:0:0:0:
174,186,100938,1,12,0:0:0:0:
364,38,101221,1,2,0:1:0:0:
278,143,101504,1,4,0:3:0:0:
435,127,101787,5,12,0:0:0:0:
207,54,102070,1,4,3:2:0:0:
362,298,102353,6,0,P|366:231|334:188,1,114.099996517944,4|2,3:0|0:1,0:0:0:0:
207,54,102778,2,0,P|262:91|315:85,1,114.099996517944,8|2,0:0|0:1,0:0:0:0:
495,41,103202,2,0,P|455:59|438:89,1,57.0499982589722,4|0,3:0|0:0,0:0:0:0:
430,166,103485,1,4,3:0:0:0:
512,250,103627,5,0,0:0:0:0:
495,258,103698,1,0,0:0:0:0:
478,266,103768,2,0,L|382:256,1,69.2750013213158,0|0,0:0|0:0,0:0:0:0:
295,200,104051,1,8,0:0:0:0:
351,335,104193,1,8,0:0:0:0:
430,166,104334,1,8,0:0:0:0:
261,298,104476,1,8,0:0:0:0:
127,200,104617,6,0,P|153:285|171:357,1,146.699995523071,12|0,0:1|0:0,0:0:0:0:
57,305,105042,1,0,3:0:0:0:
218,206,105183,2,0,L|302:224,1,73.3499977615357,8|0,0:0|0:0,0:0:0:0:
134,111,105467,2,0,L|64:132,1,73.3499977615357,0|2,0:0|3:1,0:0:0:0:
127,200,105750,5,2,3:2:0:0:
339,110,105891,2,0,P|269:130|207:79,1,146.699995523071,8|0,0:0|0:0,0:0:0:0:
289,221,106316,2,0,P|366:202|438:187,1,146.699995523071,8|2,0:0|0:1,0:0:0:0:
315,313,106740,1,8,0:0:0:0:
451,286,106882,6,0,B|377:276|377:276|307:318,1,146.699995523071,4|0,3:0|0:0,0:0:0:0:
398,363,107306,1,0,3:0:0:0:
229,266,107448,2,0,L|204:343,1,73.3499977615357,8|0,0:0|0:0,0:0:0:0:
428,216,107731,2,0,L|453:293,1,73.3499977615357,2|2,0:0|3:1,0:0:0:0:
295,212,108014,5,2,0:0:0:0:
418,124,108155,1,8,0:0:0:0:
418,124,108297,2,0,P|462:137|499:147,1,73.3499977615357,0|0,0:0|0:0,0:0:0:0:
352,29,108580,2,0,P|308:42|271:52,1,73.3499977615357,12|0,0:0|0:0,0:0:0:0:
160,192,108863,1,12,0:0:0:0:
80,98,109004,1,8,0:0:0:0:
29,235,109146,6,0,P|57:159|85:81,1,146.699995523071,4|2,0:1|0:0,0:0:0:0:
20,23,109570,1,2,3:1:0:0:
160,192,109712,2,0,P|186:197|240:204,1,73.3499977615357,8|0,0:0|0:0,0:0:0:0:
151,85,109995,2,0,P|114:89|78:96,1,73.3499977615357,2|0,0:0|3:0,0:0:0:0:
10,228,110278,5,0,3:0:0:0:
78,308,110419,2,0,B|133:283|155:334|222:301,1,146.699995523071,8|0,0:0|0:0,0:0:0:0:
337,196,110844,2,0,P|300:192|254:187,1,73.3499977615357,8|0,0:0|0:0,0:0:0:0:
354,372,111127,2,0,P|410:365|470:358,1,110.024996642304,12|0,0:0|0:0,0:0:0:0:
478,351,111410,6,0,P|483:264|471:186,1,146.699995523071,8|0,0:0|3:0,0:0:0:0:
356,91,111834,1,0,3:0:0:0:
448,45,111976,5,0,0:0:0:0:
338,169,112117,1,0,0:0:0:0:
239,14,112259,2,0,P|258:60|271:96,1,81.5,8|0,0:0|3:0,0:0:0:0:
115,276,112542,5,4,0:0:0:0:
132,193,112683,2,0,L|142:136,2,40.75,8|0|0,0:0|0:0|3:2,0:0:0:0:
97,349,112967,1,0,3:0:0:0:
196,253,113108,5,2,1:0:0:0:
219,338,113250,1,8,1:2:0:0:
324,176,113391,5,0,1:0:0:0:
298,260,113533,1,0,1:0:0:0:
388,334,113674,6,0,P|426:324|476:317,1,73.3499977615357,4|0,0:2|0:0,0:0:0:0:
396,192,113957,2,0,P|359:186|324:176,1,73.3499977615357,0|0,3:0|3:0,0:0:0:0:
505,73,114240,2,0,L|354:99,1,146.699995523071,8|2,0:0|0:1,0:0:0:0:
256,64,114665,1,2,3:1:0:0:
378,2,114806,5,2,0:0:0:0:
256,64,114948,2,0,B|205:58|205:58|168:72|168:72|90:66,1,146.699995523071,8|0,0:0|0:0,0:0:0:0:
236,222,115372,2,0,L|320:205,1,73.3499977615357,8|0,0:0|0:0,0:0:0:0:
219,134,115655,1,10,0:0:0:0:
169,322,115797,1,8,0:0:0:0:
20,246,115938,6,0,P|105:262|152:217,1,146.699995523071,4|2,3:0|0:1,0:0:0:0:
75,176,116363,1,0,3:0:0:0:
169,322,116504,2,0,L|246:305,1,73.3499977615357,10|0,0:0|0:0,0:0:0:0:
337,218,116787,2,0,L|409:234,1,73.3499977615357,2|0,0:0|3:0,0:0:0:0:
353,314,117070,5,2,0:0:0:0:
467,170,117212,2,0,L|321:137,1,146.699995523071,8|0,0:0|0:0,0:0:0:0:
475,55,117636,2,0,P|441:66|395:72,1,73.3499977615357,12|0,0:0|0:0,0:0:0:0:
255,188,117919,2,0,P|221:177|175:171,1,73.3499977615357,12|0,0:0|0:0,0:0:0:0:
13,88,118202,6,0,P|102:113|155:90,1,146.699995523071,0|0,3:0|0:0,0:0:0:0:
214,29,118627,1,0,3:0:0:0:
75,162,118768,2,0,L|97:242,1,73.3499977615357,8|0,0:0|0:0,0:0:0:0:
192,294,119051,2,0,L|170:374,1,73.3499977615357,2|0,0:1|3:0,0:0:0:0:
80,314,119334,5,0,3:0:0:0:
250,196,119476,2,0,P|273:269|295:346,1,146.699995523071,8|0,0:0|0:0,0:0:0:0:
375,173,119900,2,0,P|356:217|341:265,1,73.3499977615357,12|0,0:0|0:0,0:0:0:0:
149,94,120183,2,0,P|168:138|183:186,1,73.3499977615357,4|2,3:2|0:1,0:0:0:0:
436,107,120467,6,0,P|376:141|307:116,1,146.699995523071,12|0,0:0|1:0,0:0:0:0:
366,49,120891,1,8,0:0:0:0:
447,218,121033,5,0,3:0:0:0:
443,204,121174,1,0,3:0:0:0:
364,310,121316,5,8,1:2:0:0:
370,325,121457,1,2,0:1:0:0:
276,222,121599,5,2,3:1:0:0:
255,307,121740,1,8,0:0:0:0:
144,168,121882,5,0,3:0:0:0:
164,253,122023,1,0,1:0:0:0:
54,334,122165,6,0,P|35:296|41:246,1,81.5,2|0,3:1|1:0,0:0:0:0:
257,125,122448,2,0,P|275:160|274:201,1,81.5,0|2,1:0|0:1,0:0:0:0:
48,164,122731,6,0,L|199:180,1,146.699995523071,6|2,0:2|0:1,0:0:0:0:
327,254,123155,1,0,3:0:0:0:
432,146,123297,2,0,P|442:196|449:229,1,73.3499977615357,8|0,0:0|0:0,0:0:0:0:
257,125,123580,2,0,P|264:89|271:53,1,73.3499977615357,2|0,0:0|3:0,0:0:0:0:
350,118,123863,5,2,0:1:0:0:
494,58,124004,1,0,0:0:0:0:
494,58,124146,2,0,P|450:49|418:45,1,73.3499977615357,0|0,3:0|0:0,0:0:0:0:
346,213,124429,2,0,P|310:205|273:200,1,73.3499977615357,12|0,0:0|3:0,0:0:0:0:
160,71,124712,1,2,0:0:0:0:
253,29,124853,1,2,0:1:0:0:
87,142,124995,6,0,P|30:131|-10:126,1,73.3499977615357,4|0,3:2|0:0,0:0:0:0:
164,240,125278,2,0,P|200:234|236:226,1,73.3499977615357,0|0,3:0|0:0,0:0:0:0:
76,363,125561,2,0,P|39:306|69:226,1,146.699995523071,0|0,1:0|1:0,0:0:0:0:
160,163,125985,1,0,0:0:0:0:
285,313,126127,6,0,L|211:328,1,73.3499977615357,0|0,1:0|0:0,0:0:0:0:
160,163,126410,2,0,L|231:148,1,73.3499977615357,0|0,1:0|0:0,0:0:0:0:
446,250,126693,6,0,L|357:266,1,73.3499977615357,0|0,1:0|0:0,0:0:0:0:
325,70,126976,2,0,L|409:52,1,73.3499977615357,8|0,1:2|0:0,0:0:0:0:
511,133,127259,6,0,P|450:144|381:157,1,122.250004663468,4|2,0:0|0:1,0:0:0:0:
380,246,127683,1,0,3:0:0:0:
380,246,127825,2,0,L|451:232,1,61.1250023317338,8|0,0:0|0:0,0:0:0:0:
398,71,128108,2,0,L|338:82,1,61.1250023317338,2|8,0:0|0:0,0:0:0:0:
269,175,128391,6,0,P|211:191|155:157,1,122.250004663468,2|2,0:0|3:1,0:0:0:0:
222,99,128816,1,0,0:0:0:0:
92,232,128957,2,0,P|75:170|56:115,1,122.250004663468,8|8,0:0|0:0,0:0:0:0:
159,162,129382,1,0,0:0:0:0:
56,305,129523,6,0,P|115:266|175:278,1,122.250004663468,0|0,3:0|3:0,0:0:0:0:
215,344,129948,1,2,0:0:0:0:
215,344,130089,2,0,L|292:328,1,61.1250023317338,8|0,0:0|0:0,0:0:0:0:
342,276,130372,1,2,0:0:0:0:
432,363,130514,1,0,1:0:0:0:
432,363,130655,5,0,3:0:0:0:
481,280,130797,1,0,0:0:0:0:
396,210,130938,2,0,P|340:237|278:214,1,122.250004663468,0|2,3:0|0:0,0:0:0:0:
334,150,131363,1,0,1:0:0:0:
209,206,131504,1,8,0:0:0:0:
122,174,131646,1,8,0:0:0:0:
32,229,131787,6,0,P|8:178|37:116,1,122.250004663468,0|0,3:0|0:0,0:0:0:0:
0,28,132212,1,0,3:0:0:0:
0,28,132353,2,0,L|69:41,1,61.1250023317338,8|0,0:0|0:0,0:0:0:0:
167,108,132636,2,0,L|227:96,1,61.1250023317338,2|8,0:1|0:0,0:0:0:0:
328,36,132919,6,0,P|308:104|290:175,1,122.250004663468,2|0,3:2|3:0,0:0:0:0:
343,229,133344,1,0,0:0:0:0:
215,290,133485,2,0,L|145:279,1,61.1250023317338,12|0,0:0|3:0,0:0:0:0:
256,220,133768,1,2,0:0:0:0:
311,305,133910,1,0,0:0:0:0:
200,373,134051,6,0,L|64:354,1,134.475001282454,4|2,0:0|0:0,0:0:0:0:
159,279,134470,1,0,3:0:0:0:
20,241,134610,2,0,L|94:226,1,67.2375006412268,2|0,0:0|3:0,0:0:0:0:
201,141,134890,2,0,L|135:127,1,67.2375006412268,2|0,1:2|3:0,0:0:0:0:
4,47,135170,6,0,P|72:36|160:18,1,134.475001282454,8|2,0:0|0:1,0:0:0:0:
300,111,135590,1,8,0:0:0:0:
294,103,135660,1,8,0:0:0:0:
288,95,135730,2,0,P|254:100|225:114,1,67.2375006412268,8|0,0:0|1:0,0:0:0:0:
85,227,136010,2,0,P|119:232|148:246,1,67.2375006412268,8|8,0:0|3:2,0:0:0:0:
224,352,136290,6,0,B|287:323|317:378|387:338,1,157.458000240262,4|0,1:0|3:0,0:0:0:0:
476,232,136706,1,0,3:0:0:0:
322,173,136845,2,0,L|332:252,1,78.7290001201309,8|0,0:0|0:0,0:0:0:0:
436,128,137123,1,0,0:0:0:0:
308,28,137262,6,0,P|243:68|168:51,1,157.458000240262,0|0,1:0|1:0,0:0:0:0:
31,155,137678,2,0,P|43:193|49:232,1,78.7290001201309,0|0,0:0|3:0,0:0:0:0:
200,304,137956,1,8,0:0:0:0:
200,304,138095,2,0,P|205:265|217:227,1,78.7290001201309,0|0,0:0|0:0,0:0:0:0:
336,140,138373,1,0,3:0:0:0:
456,264,138512,6,0,L|284:276,1,157.458000240262,0|0,1:0|0:0,0:0:0:0:
148,168,138928,1,0,0:0:0:0:
280,196,139067,1,8,0:0:0:0:
116,252,139206,1,0,0:0:0:0:
232,120,139345,2,0,P|270:113|310:111,1,78.7290001201309,0|0,3:0|0:0,0:0:0:0:
284,336,139623,6,0,L|205:329,1,78.7290001201309,0|8,1:0|0:0,0:0:0:0:
40,188,139901,2,0,L|118:182,1,78.7290001201309,0|0,0:0|0:0,0:0:0:0:
352,180,140178,2,0,P|292:227|217:213,1,157.458000240262,8|0,0:0|0:0,0:0:0:0:
272,140,140595,1,0,3:0:0:0:
436,212,140734,5,0,1:0:0:0:
436,212,140873,2,0,L|424:304,1,78.7290001201309,0|0,1:0|0:0,0:0:0:0:
256,348,141151,1,0,0:0:0:0:
328,216,141290,1,8,0:0:0:0:
376,356,141428,1,0,3:0:0:0:
220,248,141567,2,0,P|148:248|112:252,1,78.7290001201309,0|0,0:0|3:0,0:0:0:0:
272,108,141845,6,0,P|344:108|380:104,1,78.7290001201309,0|0,3:0|0:0,0:0:0:0:
203,24,142123,2,0,P|154:82|167:157,1,157.458000240262,0|8,0:0|0:0,0:0:0:0:
235,241,142540,2,0,P|284:182|271:107,1,157.458000240262,0|0,3:0|0:0,0:0:0:0:
136,252,142956,6,0,L|144:336,1,78.7290001201309,0|0,1:0|0:0,0:0:0:0:
316,376,143234,2,0,L|308:292,1,78.7290001201309,0|0,0:0|0:0,0:0:0:0:
167,157,143512,1,8,3:2:0:0:
332,192,143651,1,0,3:0:0:0:
136,252,143790,1,0,3:0:0:0:
252,136,143928,1,0,3:0:0:0:
372,288,144067,6,0,P|333:293|294:287,1,78.7290001201309,0|0,3:0|3:0,0:0:0:0:
448,208,144345,1,0,3:0:0:0:
432,376,144484,1,0,0:0:0:0:
463,200,144623,2,0,P|468:160|465:121,1,78.7290001201309,2|2,0:3|0:3,0:0:0:0:
272,164,144901,2,0,P|268:203|273:242,1,78.7290001201309,2|2,0:3|0:3,0:0:0:0:
308,56,145178,6,0,L|220:56,1,78.7290001201309,4|0,1:0|0:0,0:0:0:0:
72,56,145456,1,0,0:0:0:0:
131,216,145595,2,0,P|207:201|273:242,2,157.458000240262,0|0|0,3:0|0:0|0:0,0:0:0:0:
131,216,146428,5,0,3:0:0:0:
21,165,146567,1,0,3:0:0:0:
181,106,146706,2,0,P|224:100|284:104,1,78.7290001201309,0|0,0:0|0:0,0:0:0:0:
388,216,146984,1,0,0:0:0:0:
388,216,147123,2,0,P|345:222|285:218,1,78.7290001201309,0|0,0:0|0:0,0:0:0:0:
436,116,147401,5,0,1:0:0:0:
498,207,147540,1,0,0:0:0:0:
450,306,147678,1,0,1:0:0:0:
340,314,147817,1,0,0:0:0:0:
278,222,147956,2,0,P|272:183|273:143,1,78.7290001201309,8|0,0:0|0:0,0:0:0:0:
120,212,148234,2,0,P|121:251|115:290,1,78.7290001201309,0|0,0:0|0:0,0:0:0:0:
20,144,148512,5,0,0:0:0:0:
20,144,148651,1,0,0:0:0:0:
188,112,148790,1,0,0:0:0:0:
28,248,148928,1,2,0:3:0:0:
28,248,148998,1,2,0:3:0:0:
28,248,149067,1,2,0:3:0:0:
196,216,149206,2,0,P|240:208|288:216,1,78.7290001201309,2|2,0:3|0:3,0:0:0:0:
372,312,149484,1,0,1:0:0:0:
236,382,149623,6,0,L|240:304,1,78.7290001201309,4|0,1:0|0:0,0:0:0:0:
417,231,149901,2,0,P|461:298|442:369,2,157.458000240262,0|8|0,1:0|0:0|0:0,0:0:0:0:
304,176,150595,1,0,3:0:0:0:
293,319,150734,6,0,L|372:312,1,78.7290001201309,0|0,1:0|0:0,0:0:0:0:
312,156,151012,2,0,L|233:148,1,78.7290001201309,0|0,1:0|0:0,0:0:0:0:
11,179,151290,2,0,P|84:204|150:166,1,157.458000240262,8|2,0:0|2:0,0:0:0:0:
75,115,151706,1,0,0:0:0:0:
0,320,151845,5,0,1:0:0:0:
11,179,152123,1,0,1:0:0:0:
152,336,152401,5,0,1:0:0:0:
147,166,152679,1,0,1:0:0:0:
334,336,152956,5,0,3:0:0:0:
308,133,153234,1,0,3:0:0:0:
308,133,153373,1,0,3:0:0:0:
380,188,153512,2,0,P|326:221|232:181,1,157.458000240262,8|4,0:0|0:0,0:0:0:0:
488,124,154067,6,0,L|495:202,1,78.7290001201309,4|0,1:0|0:0,0:0:0:0:
308,133,154345,2,0,L|315:54,1,78.7290001201309,0|0,3:0|0:0,0:0:0:0:
376,212,154623,1,8,0:0:0:0:
376,212,154762,1,0,0:0:0:0:
208,128,154901,1,0,0:0:0:0:
208,128,155040,1,0,3:0:0:0:
244,332,155178,6,0,P|272:305|289:269,1,78.7290001201309,0|0,3:0|0:0,0:0:0:0:
101,197,155456,2,0,P|89:234|92:273,1,78.7290001201309,0|0,0:0|0:0,0:0:0:0:
221,97,155734,2,0,B|173:113|141:97|141:97|109:81|63:97,1,157.458000240262,8|0,0:0|3:0,0:0:0:0:
272,316,156290,6,0,L|368:304,1,78.7290001201309,0|0,1:0|0:0,0:0:0:0:
436,172,156567,2,0,L|357:181,1,78.7290001201309,0|0,0:0|0:0,0:0:0:0:
221,97,156845,2,0,L|309:89,1,78.7290001201309,8|0,0:0|3:0,0:0:0:0:
448,76,157123,1,0,0:0:0:0:
357,181,157262,1,0,3:0:0:0:
221,97,157401,6,0,L|221:201,1,78.7290001201309,0|0,1:0|0:0,0:0:0:0:
388,284,157678,2,0,L|388:180,1,78.7290001201309,0|0,1:0|0:0,0:0:0:0:
276,344,157956,2,0,P|216:364|128:300,1,157.458000240262,8|0,0:0|0:0,0:0:0:0:
220,260,158373,1,0,1:0:0:0:
356,320,158512,6,0,L|528:292,1,157.458000240262,0|0,1:0|0:0,0:0:0:0:
388,208,158928,2,0,P|349:203|310:211,1,78.7290001201309,0|8,0:0|0:0,0:0:0:0:
128,268,159206,1,0,0:0:0:0:
240,144,159345,1,0,0:0:0:0:
356,320,159484,6,0,L|184:348,1,157.458000240262,0|0,1:0|3:0,0:0:0:0:
36,292,159901,2,0,P|35:252|49:216,1,78.7290001201309,0|0,3:0|0:0,0:0:0:0:
240,144,160178,2,0,P|176:164|96:92,1,157.458000240262,8|8,0:0|0:0,0:0:0:0:
183,74,160595,1,0,0:0:0:0:
335,183,160734,6,0,L|330:262,2,78.7290001201309,8|0|0,0:0|3:0|3:0,0:0:0:0:
232,240,161151,2,0,L|226:318,2,78.7290001201309,8|0|0,0:0|3:0|3:0,0:0:0:0:
128,296,161567,2,0,L|122:374,2,78.7290001201309,8|0|0,0:0|3:0|3:0,0:0:0:0:
64,140,161984,5,2,0:3:0:0:
86,154,162053,1,2,0:3:0:0:
110,162,162122,1,2,0:3:0:0:
136,165,162192,1,2,0:3:0:0:
162,163,162261,1,2,0:3:0:0:
187,154,162331,1,2,0:3:0:0:
210,141,162401,2,0,L|213:101,7,39.3645000600655,2|2|2|2|2|2|2|0,0:3|0:3|0:3|0:3|0:3|0:3|0:3|0:0,0:0:0:0:
272,204,162956,5,4,1:0:0:0:
256,192,163025,12,4,164061,1:0:0:0:
256,192,164131,12,4,165167,1:0:0:0:
256,192,165237,12,0,167120,0:0:0:0:
256,192,167399,5,0,3:0:0:0:
256,302,167680,1,0,3:0:0:0:
160,247,167961,1,0,3:0:0:0:
160,136,168242,1,0,3:0:0:0:
256,81,168524,1,0,3:0:0:0:
351,136,168805,1,0,3:0:0:0:
351,247,169086,1,0,3:0:0:0:
351,247,169649,6,0,P|287:227|223:249,1,122.25,8|0,0:1|0:0,0:0:0:0:
173,294,170215,2,0,P|193:230|171:166,1,122.25,2|2,0:1|0:1,0:0:0:0:
119,122,170781,1,0,0:0:0:0:
119,122,171064,1,2,0:1:0:0:
270,61,171347,2,0,L|391:50,1,122.25,2|2,0:1|0:1,0:0:0:0:
466,82,171913,5,2,0:1:0:0:
466,82,172196,1,2,0:1:0:0:
392,227,172479,2,0,P|334:205|262:219,1,122.25,2|2,0:1|0:1,0:0:0:0:
208,259,173045,1,2,0:1:0:0:
208,259,173328,1,2,0:1:0:0:
51,213,173611,2,0,L|37:86,1,122.25,2|2,0:1|0:1,0:0:0:0:
90,28,174177,5,2,0:1:0:0:
90,28,174460,1,0,0:0:0:0:
221,124,174743,2,0,P|267:103|354:115,1,122.25,2|2,0:1|0:1,0:0:0:0:
405,152,175309,1,2,0:1:0:0:
405,152,175592,1,2,0:1:0:0:
400,314,175875,2,0,L|273:328,1,122.25,2|2,0:1|0:1,0:0:0:0:
221,268,176441,6,0,L|272:151,1,122.25,0|0,0:0|0:0,0:0:0:0:
349,137,177007,2,0,L|424:239,1,122.25,2|2,0:1|0:0,0:0:0:0:
479,293,177573,1,2,0:1:0:0:
479,293,177856,1,2,0:1:0:0:
491,128,178139,2,0,L|349:137,1,142.625,2|0,0:1|0:0,0:0:0:0:
325,138,178705,6,0,P|273:159|367:297,1,285.25,8|0,0:1|0:0,0:0:0:0:
366,214,179837,2,0,L|376:263,1,40.75,4|0,0:3|0:0,0:0:0:0:
447,290,180120,2,0,L|457:241,1,40.75,4|0,0:3|0:0,0:0:0:0:
497,180,180403,2,0,P|502:135|466:57,1,122.25,6|2,0:2|0:1,0:0:0:0:
397,35,180969,6,0,B|328:20|331:65|251:39,1,142.625,0|0,3:0|0:0,0:0:0:0:
231,28,181535,2,0,L|131:35,1,81.5,4|2,0:0|0:0,0:0:0:0:
89,88,181960,1,0,0:0:0:0:
145,146,182101,2,0,L|138:196,1,40.75,4|0,0:3|0:0,0:0:0:0:
66,223,182384,2,0,L|73:273,1,40.75,4|0,0:3|0:0,0:0:0:0:
122,327,182667,2,0,P|159:305|238:304,1,122.25,4|0,0:2|0:0,0:0:0:0:
301,353,183233,6,0,P|279:316|278:237,1,122.25,0|0,3:0|0:0,0:0:0:0:
327,173,183799,2,0,L|409:187,1,81.5,4|0,0:0|0:0,0:0:0:0:
483,156,184224,1,0,0:0:0:0:
476,75,184365,2,0,P|441:65|422:64,1,40.75,4|0,0:3|0:0,0:0:0:0:
355,79,184649,2,0,P|320:89|301:90,1,40.75,4|0,0:3|0:0,0:0:0:0:
240,58,184932,2,0,P|230:109|218:190,1,122.25,4|2,0:0|0:1,0:0:0:0:
153,251,185498,6,0,P|66:247|46:232,1,97.799997015381,4|0,0:1|3:0,0:0:0:0:
5,162,185922,1,0,3:0:0:0:
46,73,186064,2,0,L|104:62,1,48.8999985076905,8|0,0:0|0:0,0:0:0:0:
190,44,186347,1,2,0:1:0:0:
159,136,186488,1,0,3:0:0:0:
255,117,186630,5,0,0:0:0:0:
224,209,186771,1,8,0:0:0:0:
320,190,186913,2,0,L|369:196,1,48.8999985076905,0|0,3:0|0:0,0:0:0:0:
432,270,187196,2,0,P|388:272|336:288,1,97.799997015381,8|0,0:0|0:0,0:0:0:0:
252,336,187620,1,0,0:0:0:0:
158,305,187762,6,0,L|148:252,1,48.8999985076905,0|0,1:0|0:0,0:0:0:0:
209,169,188045,6,0,L|264:188,1,52.9749975749971,8|0,0:0|0:0,0:0:0:0:
295,298,188328,6,0,L|250:336,1,57.0499982589722,8|0,0:0|0:0,0:0:0:0:
130,314,188611,6,0,L|117:248,1,61.1250023317338,8|0,0:0|0:0,0:0:0:0:
95,109,188894,5,0,0:0:0:0:
76,119,189035,2,0,L|169:101,1,91.6875034976007,0|0,0:0|0:0,0:0:0:0:
470,36,190026,6,0,L|456:123,1,81.5,4|0,0:0|0:0,0:0:0:0:
356,177,190309,1,0,3:0:0:0:
356,177,190380,1,0,0:0:0:0:
356,177,190450,2,0,L|374:280,1,81.5,2|8,0:0|0:0,0:0:0:0:
471,359,190733,1,0,0:0:0:0:
302,346,190875,6,0,B|180:330|180:330|141:362,1,163,12|0,0:0|0:0,0:0:0:0:
284,256,191299,1,0,0:0:0:0:
106,278,191441,2,0,B|118:235|118:235|95:173,1,81.5,0|0,0:0|0:0,0:0:0:0:
37,94,191724,1,0,3:0:0:0:
143,25,191865,1,8,0:0:0:0:
211,131,192007,2,0,B|199:174|199:174|222:236,1,81.5,2|0,0:0|3:0,0:0:0:0:
450,164,192290,6,0,L|280:168,1,163,12|0,0:0|3:0,0:0:0:0:
387,57,192715,1,12,0:0:0:0:
503,235,192856,2,0,P|537:154|475:76,1,163,2|12,0:0|0:0,0:0:0:0:
390,250,193281,1,2,0:0:0:0:
433,354,193422,5,0,3:0:0:0:
433,354,193493,1,0,0:0:0:0:
433,354,193564,2,0,L|527:331,1,81.5,0|0,3:0|0:0,0:0:0:0:
318,326,193847,1,0,3:0:0:0:
318,326,193917,1,0,0:0:0:0:
318,326,193988,2,0,L|224:303,1,81.5,2|0,0:0|0:0,0:0:0:0:
90,269,194271,1,2,0:0:0:0:
145,362,194413,1,0,0:0:0:0:
183,213,194554,6,0,B|203:135|203:135|165:56,1,163,12|0,0:0|0:0,0:0:0:0:
9,162,194979,2,0,L|202:132,1,163,12|0,0:0|3:0,0:0:0:0:
346,38,195403,2,0,B|326:116|326:116|364:195,1,163,12|0,0:0|3:0,0:0:0:0:
512,88,195828,1,0,0:0:0:0:
503,89,195899,1,0,0:0:0:0:
495,90,195969,1,0,0:0:0:0:
486,91,196040,1,0,0:0:0:0:
477,92,196111,1,0,0:0:0:0:
468,93,196182,1,0,0:0:0:0:
460,94,196252,5,2,0:0:0:0:
508,185,196394,1,8,0:0:0:0:
460,276,196535,1,8,0:0:0:0:
508,367,196677,1,2,0:0:0:0:
331,306,196818,6,0,P|256:277|182:306,1,163,12|2,0:0|0:0,0:0:0:0:
4,367,197243,2,0,B|48:336|48:336|47:164,1,163,12|2,0:0|0:0,0:0:0:0:
146,29,197667,2,0,P|111:99|146:170,1,163,12|2,0:0|3:2,0:0:0:0:
200,99,198092,1,0,0:0:0:0:
253,191,198233,2,0,L|347:157,1,81.5,2|0,0:0|0:0,0:0:0:0:
405,82,198516,6,0,L|371:-12,2,54.3333333333333,8|8|8,0:3|0:3|0:3,0:0:0:0:
481,176,198799,2,0,L|515:82,2,54.3333333333333,8|8|8,0:3|0:3|0:3,0:0:0:0:
404,258,199082,6,0,L|327:285,1,81.5,12|0,0:0|3:0,0:0:0:0:
487,334,199365,1,0,3:0:0:0:
280,364,199507,1,12,0:0:0:0:
280,364,199649,2,0,L|203:336,1,81.5,2|0,0:0|3:0,0:0:0:0:
71,239,199932,2,0,L|43:315,1,81.5,14|2,0:0|0:0,0:0:0:0:
253,191,200215,2,0,L|225:114,1,81.5,0|2,3:0|0:0,0:0:0:0:
71,33,200498,5,0,3:0:0:0:
61,56,200639,1,2,0:0:0:0:
121,136,200781,5,2,0:0:0:0:
131,159,200922,1,8,0:0:0:0:
71,239,201064,5,8,0:0:0:0:
61,262,201205,1,8,0:0:0:0:
246,276,201347,6,0,P|286:271|318:247,1,81.5,12|2,0:0|0:0,0:0:0:0:
460,140,201630,1,0,3:0:0:0:
282,143,201771,1,12,0:0:0:0:
429,246,201913,1,2,0:0:0:0:
370,77,202054,1,0,3:0:0:0:
318,247,202196,6,0,L|290:324,1,81.5,8|2,0:0|0:0,0:0:0:0:
162,384,202479,2,0,L|134:307,1,81.5,12|2,0:0|0:0,0:0:0:0:
83,190,202762,1,0,3:0:0:0:
22,277,202903,1,12,0:0:0:0:
190,205,203045,1,2,0:0:0:0:
44,96,203186,1,0,0:0:0:0:
125,305,203328,2,0,L|153:382,1,81.5,0|0,0:0|3:0,0:0:0:0:
318,247,203611,6,0,L|346:170,1,81.5,12|2,0:0|0:0,0:0:0:0:
414,327,203894,1,0,3:0:0:0:
410,116,204035,2,0,P|377:94|318:95,1,81.5,12|2,0:0|0:0,0:0:0:0:
190,205,204318,1,0,3:0:0:0:
126,31,204460,2,0,L|154:108,1,81.5,12|2,0:0|0:0,0:0:0:0:
226,302,204743,5,0,3:0:0:0:
255,125,204884,1,0,3:0:0:0:
88,187,205026,1,2,0:0:0:0:
218,282,205167,5,8,0:0:0:0:
241,140,205308,1,2,3:2:0:0:
109,191,205450,1,0,3:0:0:0:
301,223,205592,2,0,L|451:248,1,81.5,0|8,3:0|0:0,0:0:0:0:
471,81,205875,6,0,L|446:231,1,81.5,10|0,0:0|3:0,0:0:0:0:
435,336,206158,1,0,3:0:0:0:
435,336,206299,2,0,L|354:322,1,81.5,12|2,0:0|0:0,0:0:0:0:
512,259,206582,1,0,3:0:0:0:
301,223,206724,2,0,L|220:209,1,81.5,12|2,0:0|0:0,0:0:0:0:
36,277,207007,5,0,3:0:0:0:
148,296,207149,1,2,0:0:0:0:
109,191,207290,5,4,3:0:0:0:
75,382,207432,1,4,0:0:0:0:
258,316,207573,1,4,3:0:0:0:
116,212,207715,5,2,0:0:0:0:
89,364,207857,1,4,3:0:0:0:
235,312,207998,1,2,0:0:0:0:
357,190,208139,6,0,B|396:93|396:93|356:48,1,163,8|0,1:2|0:0,0:0:0:0:
154,49,208564,2,0,B|116:93|116:93|154:190,1,163,8|0,1:2|0:0,0:0:0:0:
255,316,208988,2,0,L|255:234,1,81.5,8|0,1:2|0:0,0:0:0:0:
256,52,209271,1,12,0:0:0:0:
256,64,210403,6,0,P|240:100|240:132,1,61.1250023317338,4|0,0:0|0:0,0:0:0:0:
295,278,210969,2,0,P|271:246|244:230,1,61.1250023317338,0|0,0:0|0:0,0:0:0:0:
60,197,211535,2,0,P|105:204|148:190,2,91.6875034976007,2|0|2,0:0|0:0|0:0,0:0:0:0:
326,113,212667,6,0,P|281:106|238:120,2,91.6875034976007,2|0|0,0:0|0:0|0:0,0:0:0:0:
148,190,213799,1,2,0:0:0:0:
148,190,214365,2,0,L|132:120,1,61.1250023317338,0|0,0:0|0:0,0:0:0:0:
325,112,214932,6,0,L|316:70,2,30.5625011658669,2|0|0,0:0|0:0|0:0,0:0:0:0:
416,156,215498,2,0,L|425:114,2,30.5625011658669,0|0|0,0:0|0:0|0:0,0:0:0:0:
331,336,216064,2,0,P|313:278|326:219,1,122.250004663468,2|0,0:0|0:0,0:0:0:0:
326,219,216771,1,0,0:0:0:0:
326,219,216913,1,0,0:0:0:0:
500,256,217196,6,0,L|414:274,1,77.4249979325295,2|0,0:0|0:0,0:0:0:0:
250,236,217762,2,0,L|325:219,1,77.4249979325295,2|0,0:0|0:0,0:0:0:0:
325,219,218186,1,2,0:0:0:0:
325,219,218328,1,0,0:0:0:0:
424,272,218469,1,0,0:0:0:0:
340,332,218611,1,0,0:0:0:0:
420,164,218894,2,0,L|436:124,2,38.7124989662648,2|0|0,0:0|0:0|0:0,0:0:0:0:
340,332,219460,6,0,P|304:340|264:336,1,77.4249979325295,2|0,0:0|0:0,0:0:0:0:
208,172,220026,2,0,P|232:199|249:235,1,77.4249979325295,2|0,0:0|0:0,0:0:0:0:
136,366,220592,1,0,0:0:0:0:
136,366,220733,2,0,P|147:330|170:299,1,77.4249979325295,2|0,0:0|0:0,0:0:0:0:
126,225,221158,2,0,P|87:222|51:208,1,77.4249979325295,2|0,0:0|0:0,0:0:0:0:
14,131,221582,1,0,0:0:0:0:
14,131,221724,6,0,L|28:52,1,77.4249979325295,2|0,0:0|0:0,0:0:0:0:
194,20,222290,2,0,L|208:99,1,77.4249979325295,2|0,0:0|0:0,0:0:0:0:
222,180,222715,1,0,0:0:0:0:
305,194,222856,1,0,0:0:0:0:
341,117,222998,1,2,0:0:0:0:
283,55,223139,1,0,0:0:0:0:
252,253,223422,2,0,P|246:291|252:330,1,77.4249979325295,2|0,0:0|3:0,0:0:0:0:
441,294,223988,6,0,L|347:290,1,93.7250017876625,4|0,0:0|0:0,0:0:0:0:
323,209,224413,1,0,0:0:0:0:
350,129,224554,2,0,P|371:139|388:156,1,46.8625008938313,2|0,3:2|0:0,0:0:0:0:
471,150,224837,2,0,P|471:174|463:196,1,46.8625008938313,2|0,0:0|0:0,0:0:0:0:
426,79,225120,2,0,L|474:65,2,46.8625008938313,2|2|2,3:2|0:1|0:1,0:0:0:0:
271,145,225686,6,0,L|177:115,1,93.7250017876625,2|0,0:0|0:0,0:0:0:0:
100,94,226111,1,0,3:0:0:0:
38,151,226252,6,0,L|43:197,1,46.8625008938313,2|0,3:2|0:0,0:0:0:0:
58,280,226535,2,0,P|81:273|109:269,1,46.8625008938313,2|0,3:2|0:0,0:0:0:0:
255,322,226818,2,0,P|211:336|165:324,1,93.7250017876625,2|2,3:2|0:0,0:0:0:0:
210,253,227243,1,2,0:1:0:0:
262,187,227384,2,0,L|308:178,1,46.8625008938313,2|0,3:2|0:0,0:0:0:0:
408,251,227667,2,0,L|362:243,1,46.8625008938313,0|0,0:0|0:0,0:0:0:0:
486,220,227950,2,0,B|492:249|492:249|485:312,1,93.7250017876625,2|0,0:0|0:0,0:0:0:0:
403,144,228516,5,6,0:0:0:0:
510,109,228799,1,0,1:0:0:0:
295,109,229082,5,2,1:2:0:0:
360,17,229365,1,8,0:0:0:0:
323,218,229649,5,0,0:0:0:0:
214,188,229932,1,0,0:0:0:0:
396,303,230215,6,0,L|456:299,1,46.8625008938313,8|0,0:0|0:0,0:0:0:0:
323,218,230498,1,8,1:2:0:0:
323,218,230781,6,0,B|282:214|282:214|229:218,1,93.7250017876625,2|0,0:0|0:0,0:0:0:0:
153,182,231205,2,0,P|143:135|153:85,1,93.7250017876625,0|0,3:0|0:0,0:0:0:0:
189,15,231630,2,0,L|142:4,1,46.8625008938313,0|0,3:0|0:0,0:0:0:0:
233,87,231913,5,2,0:0:0:0:
233,87,232479,2,0,L|278:76,1,46.8625008938313,2|2,0:0|0:0,0:0:0:0:
212,80,233045,6,0,L|372:44,1,146.699995523071,4|0,0:0|0:0,0:0:0:0:
256,160,233469,1,4,3:0:0:0:
336,260,233611,2,0,B|372:216|356:140|356:140|324:172,1,146.699995523071,8|2,0:0|3:1,0:0:0:0:
296,336,234035,6,0,P|336:344|384:336,1,73.3499977615357,4|2,3:0|0:0,0:0:0:0:
264,200,234318,2,0,B|188:188|208:240|112:224,1,146.699995523071,8|0,0:0|0:0,0:0:0:0:
44,176,234743,1,8,0:0:0:0:
44,176,235026,1,2,0:1:0:0:
176,308,235167,1,8,0:0:0:0:
152,128,235309,6,0,L|140:44,2,73.3499977615357,4|0|0,3:0|0:0|0:0,0:0:0:0:
92,276,235733,1,4,3:0:0:0:
232,212,235875,2,0,P|184:208|96:276,1,146.699995523071,8|4,0:0|3:0,0:0:0:0:
256,316,236299,6,0,P|220:296|172:296,1,73.3499977615357,2|2,0:1|3:1,0:0:0:0:
320,180,236582,2,0,P|320:221|344:262,1,73.3499977615357,8|4,0:0|3:0,0:0:0:0:
152,104,236865,1,0,0:0:0:0:
171,193,237007,2,0,P|206:171|232:68,1,146.699995523071,8|8,0:0|0:0,0:0:0:0:
143,97,237432,1,0,0:0:0:0:
291,205,237573,6,0,B|351:217|395:177|395:177|379:217,1,146.699995523071,6|2,3:2|0:0,0:0:0:0:
269,287,237998,1,4,3:0:0:0:
324,122,238139,2,0,P|328:83|311:39,1,73.3499977615357,8|0,0:0|0:0,0:0:0:0:
168,192,238422,6,0,P|165:284|194:349,1,146.699995523071,4|0,3:0|0:0,0:0:0:0:
246,258,238847,1,8,0:0:0:0:
345,205,238988,2,0,L|448:196,1,73.3499977615357,4|0,3:0|0:0,0:0:0:0:
267,164,239271,2,0,P|265:131|260:88,1,73.3499977615357,8|0,0:0|0:0,0:0:0:0:
362,290,239554,2,0,P|363:322|369:366,1,73.3499977615357,12|0,0:0|0:0,0:0:0:0:
423,115,239837,6,0,P|424:56|332:3,1,146.699995523071,4|0,0:0|3:0,0:0:0:0:
298,55,240262,1,8,0:0:0:0:
214,66,240403,2,0,L|134:51,1,73.3499977615357,0|0,3:0|3:0,0:0:0:0:
4,88,240686,2,0,L|84:103,1,73.3499977615357,8|2,0:0|0:1,0:0:0:0:
178,143,240969,5,4,0:0:0:0:
199,289,241111,1,8,0:0:0:0:
294,190,241252,2,0,L|203:215,1,73.3499977615357,8|8,0:0|0:0,0:0:0:0:
51,284,241535,5,8,0:0:0:0:
88,136,241677,1,8,0:0:0:0:
126,337,241818,1,8,0:0:0:0:
14,194,241960,1,8,0:0:0:0:
176,107,242101,6,0,B|257:91|238:159|330:138,1,154.849995865059,4|0,0:0|0:0,0:0:0:0:
482,90,242526,1,0,3:0:0:0:
424,20,242667,2,0,P|398:63|398:106,1,73.3499977615357,8|0,0:0|0:0,0:0:0:0:
359,224,242950,2,0,P|351:188|330:158,1,73.3499977615357,2|0,0:1|3:0,0:0:0:0:
441,242,243233,5,2,0:0:0:0:
271,222,243375,2,0,B|170:210|170:210|106:246,1,146.699995523071,8|0,0:0|0:0,0:0:0:0:
188,296,243799,1,8,0:0:0:0:
188,296,244082,1,2,0:1:0:0:
251,133,244224,1,8,0:0:0:0:
290,302,244365,6,0,L|298:379,2,73.3499977615357,4|0|0,3:0|0:0|0:0,0:0:0:0:
199,208,244790,1,0,0:0:0:0:
347,163,244932,2,0,P|294:212|222:217,1,146.699995523071,8|0,0:0|1:0,0:0:0:0:
146,51,245356,6,0,P|188:50|228:70,1,73.3499977615357,2|0,3:1|0:0,0:0:0:0:
300,81,245639,2,0,P|279:117|242:142,1,73.3499977615357,0|0,0:0|3:0,0:0:0:0:
96,189,245922,1,0,0:0:0:0:
184,278,246064,2,0,L|170:132,1,146.699995523071,8|12,0:0|0:0,0:0:0:0:
99,287,246488,1,0,0:0:0:0:
266,204,246630,6,0,P|312:194|403:246,1,146.699995523071,0|0,3:0|0:0,0:0:0:0:
313,361,247054,1,0,3:0:0:0:
313,361,247196,2,0,P|297:317|307:278,1,73.3499977615357,8|0,0:0|0:0,0:0:0:0:
486,265,247479,2,0,P|502:309|492:348,1,73.3499977615357,2|0,0:1|3:0,0:0:0:0:
314,184,247762,5,0,3:0:0:0:
478,152,247903,2,0,P|411:179|376:242,1,146.699995523071,8|0,0:0|0:0,0:0:0:0:
417,84,248328,2,0,P|419:46|401:2,1,73.3499977615357,12|0,0:0|0:0,0:0:0:0:
372,263,248611,2,0,P|370:301|388:345,1,73.3499977615357,0|0,0:0|0:0,0:0:0:0:
467,247,248894,5,0,0:0:0:0:
467,247,249177,1,0,0:0:0:0:
337,129,249318,1,8,0:0:0:0:
512,157,249460,2,0,L|439:165,1,73.3499977615357,0|0,0:0|0:0,0:0:0:0:
288,50,249743,2,0,L|360:41,1,73.3499977615357,8|0,0:0|0:0,0:0:0:0:
445,18,250026,5,4,0:1:0:0:
337,129,250167,1,8,0:0:0:0:
202,44,250309,1,0,1:0:0:0:
423,106,250450,1,8,0:0:0:0:
250,127,250592,2,0,P|210:133|161:138,1,73.3499977615357,0|0,1:0|1:0,0:0:0:0:
344,242,250875,2,0,P|380:246|416:252,1,73.3499977615357,8|8,0:0|0:0,0:0:0:0:
195,319,251158,6,0,B|118:304|130:364|56:345,1,146.699995523071,4|0,0:0|0:0,0:0:0:0:
79,262,251582,1,0,3:0:0:0:
15,139,251724,2,0,P|5:174|13:210,1,73.3499977615357,8|0,0:0|0:0,0:0:0:0:
208,206,252007,2,0,P|218:143|154:72,1,146.699995523071,2|0,0:0|3:0,0:0:0:0:
137,162,252432,1,8,0:0:0:0:
293,213,252573,6,0,L|381:201,1,73.3499977615357,0|0,3:0|0:0,0:0:0:0:
122,156,252856,1,8,0:0:0:0:
264,53,252998,1,0,3:0:0:0:
212,185,253139,2,0,P|206:152|195:90,1,73.3499977615357,12|0,0:0|0:0,0:0:0:0:
341,1,253422,6,0,P|346:33|358:96,1,73.3499977615357,4|0,1:2|0:0,0:0:0:0:
344,270,253705,1,8,0:0:0:0:
466,115,253847,1,0,0:0:0:0:
285,186,253988,1,4,3:0:0:0:
467,295,254130,2,0,P|470:259|475:223,1,73.3499977615357,0|8,0:0|0:0,0:0:0:0:
362,77,254413,1,2,0:0:0:0:
512,136,254554,6,0,P|469:128|381:219,1,163,0|8,3:0|0:0,0:0:0:0:
277,337,254979,1,0,0:0:0:0:
408,285,255120,2,0,P|368:279|320:269,1,81.5,8|0,0:0|0:0,0:0:0:0:
133,183,255403,1,8,0:0:0:0:
252,346,255545,1,0,0:0:0:0:
245,129,255686,6,0,P|229:199|208:288,1,146.699995523071,12|0,0:0|0:0,0:0:0:0:
40,329,256111,2,0,P|80:312|169:366,1,146.699995523071,8|0,0:0|0:0,0:0:0:0:
296,276,256535,2,0,P|281:322|268:363,1,73.3499977615357,8|0,0:0|0:0,0:0:0:0:
236,200,256818,5,0,0:0:0:0:
373,320,256960,1,8,0:0:0:0:
375,323,257031,1,0,0:0:0:0:
376,326,257101,2,0,P|412:323|449:302,1,73.3499977615357,0|0,0:0|0:0,0:0:0:0:
354,175,257384,5,8,0:0:0:0:
450,298,257526,1,0,0:0:0:0:
457,110,257667,5,8,0:0:0:0:
461,300,257809,1,0,0:0:0:0:
286,235,257950,6,0,P|350:218|442:190,1,146.699995523071,12|0,0:0|3:0,0:0:0:0:
509,99,258375,1,8,0:0:0:0:
512,105,258516,2,0,P|466:117|386:49,1,146.699995523071,0|8,3:0|0:0,0:0:0:0:
393,58,258941,1,0,0:0:0:0:
306,188,259082,5,12,0:0:0:0:
229,59,259224,1,0,0:0:0:0:
225,58,259295,1,0,0:0:0:0:
221,58,259365,2,0,P|211:92|202:158,1,73.3499977615357,8|0,0:0|0:0,0:0:0:0:
156,0,259649,5,8,0:0:0:0:
299,99,259790,1,8,0:0:0:0:
119,150,259932,5,8,0:0:0:0:
308,84,260073,1,8,0:0:0:0:
115,166,260215,6,0,P|82:117|114:38,1,146.699995523071,4|0,3:2|0:0,0:0:0:0:
260,190,260639,1,8,0:0:0:0:
264,197,260781,2,0,P|212:212|170:223,1,73.3499977615357,0|0,3:0|0:0,0:0:0:0:
52,253,261064,2,0,P|90:265|137:277,1,73.3499977615357,8|0,0:0|0:0,0:0:0:0:
264,356,261347,6,0,P|229:358|188:341,1,73.3499977615357,8|0,3:2|0:0,0:0:0:0:
336,281,261630,1,0,0:0:0:0:
192,333,261771,2,0,P|260:349|345:367,1,146.699995523071,8|0,0:0|0:0,0:0:0:0:
444,240,262196,2,0,B|458:279|458:279|443:319,1,73.3499977615357,8|0,0:0|0:0,0:0:0:0:
296,178,262479,6,0,B|373:170|344:225|443:211,1,146.699995523071,4|0,0:0|3:0,0:0:0:0:
473,70,262903,1,8,0:0:0:0:
478,65,263045,2,0,P|491:108|508:160,1,73.3499977615357,0|0,0:0|0:0,0:0:0:0:
314,80,263328,2,0,P|344:69|396:76,1,73.3499977615357,0|0,3:0|0:0,0:0:0:0:
258,175,263611,6,0,P|197:164|109:146,1,146.699995523071,2|2,3:1|3:1,0:0:0:0:
1,247,264035,1,8,0:0:0:0:
106,143,264177,2,0,P|97:179|87:221,1,73.3499977615357,2|0,3:1|0:0,0:0:0:0:
0,50,264460,2,0,P|7:85|15:121,1,73.3499977615357,8|0,0:0|0:0,0:0:0:0:
251,77,264743,6,0,P|208:41|118:70,1,146.699995523071,6|0,0:0|3:0,0:0:0:0:
240,168,265167,2,0,P|314:153|382:135,1,146.699995523071,8|0,0:0|0:0,0:0:0:0:
497,219,265592,2,0,P|445:209|396:199,1,73.3499977615357,4|0,0:0|0:0,0:0:0:0:
273,276,265875,6,0,P|325:259|399:309,1,146.699995523071,0|0,3:0|3:0,0:0:0:0:
264,361,266299,1,0,0:0:0:0:
264,361,266441,6,0,L|285:270,1,73.3499977615357,6|0,0:0|0:0,0:0:0:0:
190,161,266724,2,0,L|208:239,1,73.3499977615357,8|8,0:0|0:0,0:0:0:0:
25,280,267007,6,0,P|61:289|177:317,1,146.699995523071,0|0,3:0|3:0,0:0:0:0:
98,210,267432,1,8,0:0:0:0:
92,206,267573,2,0,P|85:170|95:134,1,73.3499977615357,0|0,0:0|0:0,0:0:0:0:
222,51,267856,2,0,L|204:129,1,73.3499977615357,8|0,0:0|3:1,0:0:0:0:
146,0,268139,5,12,0:0:0:0:
150,6,268281,1,8,0:0:0:0:
309,91,268422,5,0,3:0:0:0:
305,97,268564,1,8,0:0:0:0:
132,191,268705,6,0,P|181:168|262:219,1,146.699995523071,0|8,3:0|0:0,0:0:0:0:
260,215,269130,1,0,0:0:0:0:
392,112,269271,6,0,L|353:282,1,146.699995523071,4|0,0:0|3:0,0:0:0:0:
289,346,269696,1,8,0:0:0:0:
296,350,269837,2,0,P|338:341|391:329,1,73.3499977615357,0|0,0:0|0:0,0:0:0:0:
249,205,270120,2,0,P|239:248|226:299,1,73.3499977615357,8|0,0:0|0:0,0:0:0:0:
50,316,270403,6,0,B|127:308|98:363|197:349,1,146.699995523071,0|0,3:0|3:0,0:0:0:0:
71,229,270828,1,8,0:0:0:0:
64,226,270969,2,0,P|54:264|44:318,1,73.3499977615357,0|0,0:0|0:0,0:0:0:0:
147,150,271252,2,0,P|139:114|130:78,1,73.3499977615357,8|0,0:0|0:0,0:0:0:0:
184,248,271535,6,0,P|224:265|315:203,1,146.699995523071,4|0,0:0|3:0,0:0:0:0:
343,86,271960,1,8,0:0:0:0:
348,81,272101,2,0,P|361:124|378:176,1,73.3499977615357,4|0,3:2|0:0,0:0:0:0:
452,257,272384,2,0,B|469:220|469:220|459:183,1,73.3499977615357,8|0,0:0|0:0,0:0:0:0:
272,312,272667,6,0,P|330:325|425:345,1,146.699995523071,4|0,0:0|3:0,0:0:0:0:
422,341,273092,1,0,3:0:0:0:
280,205,273233,6,0,B|203:197|232:252|133:238,1,146.699995523071,12|0,0:0|3:0,0:0:0:0:
136,235,273658,1,0,0:0:0:0:
256,52,273799,6,0,P|268:104|294:210,1,146.699995523071,12|0,0:0|3:0,0:0:0:0:
381,291,274224,1,8,0:0:0:0:
374,295,274365,2,0,P|332:286|279:274,1,73.3499977615357,0|0,3:0|0:0,0:0:0:0:
406,148,274649,2,0,P|421:194|434:235,1,73.3499977615357,8|0,0:0|0:0,0:0:0:0:
448,69,274932,5,4,3:2:0:0:
321,178,275074,1,0,3:0:0:0:
319,181,275145,1,0,3:0:0:0:
318,184,275215,2,0,P|283:187|242:170,1,73.3499977615357,0|8,3:0|0:0,0:0:0:0:
110,105,275498,2,0,P|144:92|180:95,1,73.3499977615357,8|0,0:0|0:0,0:0:0:0:
67,208,275781,5,8,0:0:0:0:
17,90,275922,1,0,0:0:0:0:
71,212,276064,6,0,P|50:207|28:203,1,40.75,4|0,0:0|0:0,0:0:0:0:
138,197,276347,6,0,P|95:208|70:213,1,48.8999985076905,2|0,0:1|0:0,0:0:0:0:
207,215,276630,6,0,P|183:209|141:199,1,57.0499982589722,0|0,3:0|0:0,0:0:0:0:
284,198,276913,6,0,P|256:204|208:216,1,65.2,0|0,3:0|0:0,0:0:0:0:
366,220,277196,6,0,P|334:212|286:200,1,73.3499977615357,8|0,3:2|0:0,0:0:0:0:
458,198,277479,6,0,P|420:208|371:220,1,81.5,8|0,0:0|0:0,0:0:0:0:
474,202,277762,6,0,B|509:149|509:149|461:72,1,142.625,8|0,0:0|0:0,0:0:0:0:
456,74,278328,6,0,P|397:82|349:48,1,122.250004663468,4|2,0:0|0:0,0:0:0:0:
232,91,278752,1,0,0:0:0:0:
270,13,278894,2,0,P|221:47|162:38,1,122.250004663468,8|0,0:0|0:0,0:0:0:0:
0,79,279318,1,2,0:1:0:0:
67,25,279460,2,0,P|81:57|86:97,1,61.1250023317338,2|8,0:0|0:0,0:0:0:0:
123,264,279743,2,0,P|118:204|152:155,1,122.250004663468,4|8,3:0|0:0,0:0:0:0:
153,155,280309,1,2,0:0:0:0:
315,172,280450,1,0,1:0:0:0:
476,200,280592,6,0,P|481:259|446:308,1,122.250004663468,4|0,3:0|0:0,0:0:0:0:
283,342,281016,1,0,0:0:0:0:
367,358,281158,2,0,P|356:298|310:260,1,122.250004663468,8|2,0:0|0:0,0:0:0:0:
204,382,281582,1,0,0:0:0:0:
310,260,281724,1,2,3:2:0:0:
162,199,281865,1,8,0:0:0:0:
55,319,282007,1,0,3:0:0:0:
55,319,282290,6,0,B|78:283|78:283|80:234,1,91.6875034976007,12|0,0:0|0:0,0:0:0:0:
66,229,282573,2,0,B|43:193|43:193|40:144,1,91.6875034976007,12|0,0:0|1:0,0:0:0:0:
53,135,282856,6,0,P|110:118|140:67,1,122.250004663468,4|2,3:0|0:1,0:0:0:0:
308,34,283281,1,2,0:1:0:0:
225,54,283422,2,0,P|282:70|312:121,1,122.250004663468,8|0,0:0|0:0,0:0:0:0:
476,170,283847,1,2,0:1:0:0:
412,113,283988,2,0,P|394:149|391:186,1,61.1250023317338,2|8,0:0|0:0,0:0:0:0:
224,282,284271,2,0,P|281:265|311:214,1,122.250004663468,4|12,3:0|0:0,0:0:0:0:
311,214,284837,1,2,0:0:0:0:
204,304,284979,1,0,1:0:0:0:
87,380,285120,6,0,P|29:363|0:312,1,122.250004663468,4|4,3:0|3:0,0:0:0:0:
154,219,285545,1,0,0:0:0:0:
84,268,285686,2,0,P|69:210|99:158,1,122.250004663468,8|2,0:2|0:0,0:0:0:0:
240,238,286111,1,8,0:0:0:0:
98,158,286252,1,8,0:0:0:0:
212,121,286394,1,8,0:0:0:0:
212,121,286465,1,0,0:0:0:0:
212,121,286535,1,8,0:0:0:0:
98,158,286677,5,8,0:0:0:0:
126,58,286818,1,8,0:0:0:0:
223,20,286960,1,0,1:0:0:0:
306,81,287101,1,0,1:0:0:0:
308,185,287243,1,0,1:0:0:0:
308,185,287314,1,0,0:0:0:0:
308,185,287384,6,0,P|367:199|425:166,1,122.250004663468,4|0,0:0|0:1,0:0:0:0:
448,343,287809,1,0,3:1:0:0:
512,287,287950,2,0,P|453:301|395:268,1,122.250004663468,10|0,0:0|0:0,0:0:0:0:
315,383,288375,1,2,0:1:0:0:
254,323,288516,2,0,P|236:267|236:236,1,61.1250023317338,0|8,3:0|0:0,0:0:0:0:
363,187,288799,2,0,P|389:133|375:75,1,122.250004663468,4|8,3:0|0:0,0:0:0:0:
375,75,289366,1,2,0:0:0:0:
213,92,289507,1,0,1:0:0:0:
52,120,289649,6,0,P|37:178|64:231,1,122.250004663468,2|0,3:1|0:0,0:0:0:0:
209,252,290073,1,0,0:0:0:0:
236,333,290215,2,0,P|176:329|132:288,1,122.250004663468,8|2,0:0|0:0,0:0:0:0:
216,166,290639,1,4,3:0:0:0:
132,288,290781,1,2,3:2:0:0:
289,217,290922,1,8,0:0:0:0:
141,119,291064,1,0,3:0:0:0:
141,119,291347,6,0,B|173:88|173:88|235:77,1,91.6875034976007,12|0,0:0|0:0,0:0:0:0:
230,69,291630,2,0,B|262:100|262:100|324:111,1,91.6875034976007,8|0,0:0|1:0,0:0:0:0:
321,117,291913,6,0,P|373:88|432:98,1,122.250004663468,4|2,3:0|0:2,0:0:0:0:
289,217,292337,1,2,3:1:0:0:
334,289,292479,2,0,P|281:259|222:269,1,122.250004663468,10|0,0:0|0:0,0:0:0:0:
501,247,292904,1,4,3:0:0:0:
437,190,293045,2,0,P|419:226|416:263,1,61.1250023317338,2|8,0:0|0:0,0:0:0:0:
352,141,293328,2,0,P|340:85|268:47,1,122.250004663468,2|12,3:2|0:0,0:0:0:0:
290,50,293894,1,2,0:1:0:0:
159,99,294036,1,2,0:1:0:0:
27,139,294177,6,0,L|159:99,1,138.550002642632,12|0,0:0|3:0,0:0:0:0:
42,41,294602,1,12,0:0:0:0:
13,238,294743,2,0,L|79:217,1,69.2750013213158,2|0,0:0|3:0,0:0:0:0:
42,41,295026,2,0,L|108:20,1,69.2750013213158,12|0,0:0|0:0,0:0:0:0:
0,336,295309,1,4,3:0:0:0:
186,191,295451,1,0,0:0:0:0:
186,191,295522,1,0,0:0:0:0:
186,191,295592,1,0,0:0:0:0:
42,41,295734,5,8,0:0:0:0:
27,139,295875,1,4,1:3:0:0:
13,238,296017,1,8,0:0:0:0:
0,336,296158,1,0,1:0:0:0:
102,371,296300,1,0,1:0:0:0:
102,371,296371,1,0,0:0:0:0:
102,371,296441,6,0,L|196:345,1,97.799997015381,2|0,0:1|0:0,0:0:0:0:
290,320,297007,1,2,0:1:0:0:
151,181,297290,1,2,0:1:0:0:
126,276,297432,6,0,L|101:370,1,97.799997015381,0|2,0:0|0:0,0:0:0:0:
196,344,297856,2,0,L|127:276,1,97.799997015381,2|2,0:1|0:1,0:0:0:0:
384,294,298422,1,2,0:1:0:0:
315,226,298563,1,0,0:0:0:0:
290,320,298705,6,0,L|315:226,1,97.799997015381,2|0,0:1|0:0,0:0:0:0:
339,131,299271,1,2,0:1:0:0:
478,267,299554,1,2,0:1:0:0:
384,294,299696,6,0,L|290:320,1,97.799997015381,0|2,0:0|0:0,0:0:0:0:
314,225,300120,2,0,L|384:294,1,97.799997015381,2|2,0:1|0:1,0:0:0:0:
195,344,300686,5,0,0:0:0:0:
220,249,300827,1,0,0:0:0:0:
245,154,300969,2,0,L|103:191,1,146.699995523071,2|2,0:1|0:1,0:0:0:0:
56,206,301535,1,2,0:1:0:0:
220,249,301818,1,2,0:1:0:0:
195,344,301960,6,0,L|220:249,1,97.799997015381,0|2,0:0|0:0,0:0:0:0:
244,154,302384,1,0,0:1:0:0:
195,344,302667,1,2,0:1:0:0:
56,206,302950,1,0,0:0:0:0:
149,179,303092,1,0,0:0:0:0:
244,154,303234,5,0,0:1:0:0:
56,206,303516,1,2,0:1:0:0:
195,344,303799,1,2,0:1:0:0:
243,153,304082,6,0,P|238:130|236:105,1,48.8999985076905,0|2,0:0|0:0,0:0:0:0:
383,154,304365,2,0,P|365:170|345:184,1,48.8999985076905,2|0,0:1|0:0,0:0:0:0:
317,34,304649,2,0,P|340:40|362:51,1,48.8999985076905,2|0,0:1|0:0,0:0:0:0:
314,115,304932,1,2,0:1:0:0:
378,338,305215,1,0,0:0:0:0:
275,236,305356,1,2,0:1:0:0:
237,377,305498,6,0,L|275:236,1,146.699995523071,2|0,0:0|0:0,0:0:0:0:
275,236,306064,2,0,L|304:264,1,40.75,2|0,0:1|0:0,0:0:0:0:
471,317,306347,1,2,0:0:0:0:
379,339,306488,6,0,L|238:378,1,146.699995523071,0|2,0:0|0:1,0:0:0:0:
275,236,306913,2,0,L|379:339,1,146.699995523071,2|2,0:1|0:0,0:0:0:0:
118,279,307479,1,2,0:0:0:0:
237,377,307620,1,0,0:0:0:0:
275,236,307762,6,0,B|118:279|118:279|132:223,1,220.049993284607,2|0,0:0|0:0,0:0:0:0:
160,122,308328,2,0,L|212:173,1,40.75,2|0,0:0|0:0,0:0:0:0:
343,302,308611,1,2,0:0:0:0:
275,236,308752,6,0,L|159:121,1,163,0|0,0:0|0:0,0:0:0:0:
118,279,309177,2,0,L|160:122,1,163,2|2,0:0|0:0,0:0:0:0:
365,199,309743,1,0,0:0:0:0:
249,85,309884,1,0,0:0:0:0:
406,42,310026,6,0,L|365:200,1,163,2|0,0:0|0:0,0:0:0:0:
249,85,310592,2,0,L|319:66,1,40.75,2|0,0:0|0:0,0:0:0:0:
498,22,310875,1,2,0:0:0:0:
406,42,311016,6,0,L|248:84,1,163,0|0,0:0|0:0,0:0:0:0:
365,200,311441,2,0,L|406:42,1,163,2|2,0:0|0:0,0:0:0:0:
206,243,312007,5,0,0:0:0:0:
248,84,312149,1,0,0:0:0:0:
364,199,312290,6,0,B|206:243|206:243|249:84,1,328.037506256819,2|0,0:0|0:0,0:0:0:0:
248,85,313422,6,0,B|424:261|424:261|184:329|184:329|207:243,1,586.8,2|0,0:0|0:0,0:0:0:0:
