osu file format v14

[General]
AudioFilename: audio.mp3
AudioLeadIn: 0
PreviewTime: 45318
Countdown: 0
SampleSet: Soft
StackLeniency: 0.3
Mode: 0
LetterboxInBreaks: 0
WidescreenStoryboard: 1

[Editor]
Bookmarks: 460,27630,45743,68384,104611,136309,169642,190019,210396,233038,255679,278321,296434
DistanceSpacing: 2.2
BeatDivisor: 8
GridSize: 32
TimelineZoom: 2.599999

[Metadata]
Title:birthday song
TitleUnicode:birthday song
Artist:Sayuri
ArtistUnicode:さユり
Creator:Haruto
Version:Gift
Source:
Tags:mikazuki no koukai album RLC xlni val0108 fanzhen0019 handsome professionalbox probox asphyxia shirakai kacha kibbleru narcissu appleeaterx haruto_aizawa sing kalibe pentori sotarks akitoshi -laura- corinn doormat kroytz -sh1n1- shini toybot milan- irohas mugiwarasekai linada
BeatmapID:1299548
BeatmapSetID:616185

[Difficulty]
HPDrainRate:6
CircleSize:4
OverallDifficulty:9
ApproachRate:9.4
SliderMultiplier:1.76
SliderTickRate:2

[Events]
//Background and Video events
0,0,"56964256_p1.jpg",0,0
//Break Periods
//Storyboard Layer 0 (Background)
//Storyboard Layer 1 (Fail)
//Storyboard Layer 2 (Pass)
//Storyboard Layer 3 (Foreground)
//Storyboard Sound Samples

[TimingPoints]
467,566.037735849057,4,2,1,40,1,0
4004,-100,4,2,0,25,0,0
4995,-100,4,2,1,40,0,0
8674,-100,4,2,0,25,0,0
9523,-100,4,2,1,40,0,0
18863,-83.3333333333333,4,2,1,40,0,0
27636,-80,4,2,1,60,0,0
36551,-80,4,2,1,30,0,0
36693,-80,4,2,1,60,0,0
41150,-80,4,2,1,20,0,0
41221,-80,4,2,1,60,0,0
42353,-74.0740740740741,4,2,1,60,0,0
42636,-68.9655172413793,4,2,1,60,0,0
42919,-64.5161290322581,4,2,1,60,0,0
43485,-68.9655172413793,4,2,1,60,0,0
44900,-80,4,2,1,60,0,0
45750,-80,4,2,1,70,0,1
59193,-80,4,2,1,40,0,1
59334,-80,4,2,1,70,0,1
68391,-80,4,2,1,70,0,0
76316,-66.6666666666667,4,2,1,70,0,0
77731,-100,4,2,1,70,0,0
85018,-100,4,2,1,20,0,0
85089,-66.6666666666667,4,2,1,70,0,0
85301,-66.6666666666667,4,2,1,20,0,0
85372,-66.6666666666667,4,2,1,70,0,0
86433,-66.6666666666667,4,2,1,20,0,0
86504,-83.3333333333333,4,2,1,70,0,0
86787,-83.3333333333333,4,2,1,70,0,0
87070,-83.3333333333333,4,2,1,70,0,0
87353,-83.3333333333333,4,2,1,70,0,0
87919,-83.3333333333333,4,2,1,70,0,0
92660,-83.3333333333333,4,2,1,30,0,0
92731,-83.3333333333333,4,2,1,70,0,0
102212,-83.3333333333333,4,2,1,20,0,0
102353,-71.4285714285714,4,2,1,70,0,0
103627,-71.4285714285714,4,2,16,70,0,0
104334,-71.4285714285714,4,2,16,40,0,0
104476,-71.4285714285714,4,2,16,70,0,0
104617,-55.5555555555556,4,2,1,70,0,1
109004,-55.5555555555556,4,2,1,40,0,1
109146,-55.5555555555556,4,2,1,70,0,1
111268,-55.5555555555556,4,2,1,40,0,1
111410,-55.5555555555556,4,2,1,70,0,1
111976,-50,4,2,1,70,0,1
113674,-55.5555555555556,4,2,1,70,0,1
115655,-55.5555555555556,4,2,1,40,0,1
115797,-55.5555555555556,4,2,1,70,0,1
121316,-50,4,2,1,70,0,1
122731,-55.5555555555556,4,2,1,70,0,1
124995,-55.5555555555556,4,2,1,70,0,0
127259,-66.6666666666667,4,2,1,70,0,1
134051,559.96266915539,4,2,1,70,1,0
134051,-60.6060606060606,4,2,1,70,0,0
136290,555.555555555556,4,2,16,70,1,1
136290,-51.75983436853,4,2,16,70,0,1
162956,552.995391705069,4,2,16,70,1,0
162956,-51.75983436853,4,2,16,70,0,0
165168,557.880055788006,4,2,16,70,1,0
167399,562.587904360056,4,2,16,70,1,0
169649,566.037735849057,4,2,1,55,1,0
169649,-100,4,2,1,55,0,0
172196,-100,4,2,1,40,0,0
172479,-100,4,2,1,55,0,0
180120,-100,4,2,1,40,0,0
180403,-100,4,2,1,55,0,0
188894,-350,4,2,16,70,0,0
190026,-50,4,2,1,70,0,1
190875,-200,4,2,1,70,0,1
191299,-200,4,2,16,70,0,1
191724,-100,4,2,1,70,0,1
192290,-50,4,2,1,70,0,1
194200,-50,4,2,1,5,0,1
194271,-50,4,2,1,70,0,1
194483,-50,4,2,1,5,0,1
194554,-50,4,2,1,70,0,1
195828,-50,4,2,16,70,0,1
196252,-50,4,2,1,70,0,1
197880,-50,4,2,1,5,0,1
197950,-50,4,2,1,70,0,1
198516,-50,4,2,16,70,0,1
199082,-100,4,2,1,70,0,1
208139,-50,4,2,1,70,0,1
209271,-350,4,2,1,70,0,1
210403,-133.333333333333,4,2,1,50,0,0
217196,-105.263157894737,4,2,1,50,0,0
223988,-86.9565217391306,4,2,1,50,0,0
233045,-55.5555555555556,4,2,1,70,0,1
242101,-52.6315789473684,4,2,1,70,0,1
242667,-55.5555555555556,4,2,1,70,0,1
248894,-55.5555555555556,4,2,1,70,0,1
254554,-66.6666666666667,4,2,1,70,0,0
278186,-66.6666666666667,4,2,1,70,0,0
278328,-66.6666666666667,4,2,1,70,0,1
278469,-66.6666666666667,4,2,1,70,0,0
285120,-58.8235294117647,4,2,1,70,0,0
287384,-66.6666666666667,4,2,1,70,0,0
294177,-50,4,2,1,70,0,0
295450,-50,4,2,16,70,0,0
295733,-50,4,2,1,70,0,0
296441,-83.3333333333333,4,2,1,70,0,0
305498,-55.5555555555556,4,2,1,70,0,0
307054,-25,4,2,1,70,0,0
307762,-33.3333333333333,4,2,1,70,0,0
308328,-41.6666666666667,4,2,1,70,0,0
308611,-33.3333333333333,4,2,1,70,0,0
309177,-41.6666666666667,4,2,1,70,0,0
310026,-65.359477124183,4,2,1,70,0,0
310592,-21.7864923747277,4,2,1,70,0,0
310875,-65.359477124183,4,2,1,70,0,0
311441,-21.7864923747277,4,2,1,70,0,0
312290,-50,4,2,1,70,0,0
312856,-12.5,4,2,1,70,0,0
313281,-12.5,4,2,1,10,0,0
313422,-33.3333333333333,4,2,1,70,0,0

[Colours]
Combo1 : 88,88,115
Combo2 : 255,96,96
Combo3 : 68,162,255
Combo4 : 183,117,117
Combo5 : 147,126,177
Combo6 : 245,130,73
Combo7 : 206,206,206
Combo8 : 228,217,131

[HitObjects]
160,369,467,85,0,3:3:0:0:
88,265,750,1,2,0:1:0:0:
165,160,1033,2,2,P|188:219|171:290,1,132,0|2,0:2|0:2,0:0:0:0:
109,141,1599,2,0,P|151:138|199:108,1,88,0|2,3:3|0:1,0:0:0:0:
313,113,2165,2,2,B|248:90|248:90|177:122,1,132,0|2,0:1|0:2,0:0:0:0:
190,115,2731,5,0,3:0:0:0:
353,205,3014,1,2,0:1:0:0:
250,246,3297,2,2,L|239:344,1,88,0|0,0:2|0:2,0:0:0:0:
240,333,3721,1,2,0:2:0:0:
240,333,3863,1,0,3:0:0:0:
387,361,4146,1,8,0:2:0:0:
403,223,4429,2,0,L|422:70,1,132,8|0,0:2|0:0,0:0:0:0:
339,33,4995,101,0,3:0:0:0:
264,177,5278,1,2,0:1:0:0:
115,169,5561,2,2,P|96:128|109:28,1,132,0|2,0:2|0:2,0:0:0:0:
169,188,6127,2,0,P|121:191|81:206,1,88,0|2,3:0|0:1,0:0:0:0:
164,314,6693,2,2,B|184:261|184:261|164:164,1,132,0|2,0:1|0:2,0:0:0:0:
185,103,7259,6,0,L|241:92,2,44,0|0|2,3:0|0:0|0:1,0:0:0:0:
367,191,7825,2,2,L|272:175,1,88,0|0,0:2|0:2,0:0:0:0:
288,353,8250,1,2,0:0:0:0:
288,353,8391,2,0,L|301:254,1,88,0|8,3:0|0:0,0:0:0:0:
403,272,8957,1,8,0:0:0:0:
203,304,9240,69,2,0:0:0:0:
203,304,9382,1,2,0:0:0:0:
203,304,9523,1,0,3:3:0:0:
290,194,9806,2,0,L|345:179,1,44,0|2,0:0|0:0,0:0:0:0:
166,172,10089,2,2,P|120:148|54:75,1,132,0|0,1:1|0:1,0:0:0:0:
102,22,10655,37,0,0:0:0:0:
118,234,10938,1,0,3:3:0:0:
231,97,11221,1,2,1:2:0:0:
231,97,11363,2,0,P|277:75|326:64,1,88,2|0,0:2|0:0,0:0:0:0:
394,195,11787,70,0,P|347:179|312:154,1,88,0|0,3:3|0:0,0:0:0:0:
241,220,12212,1,2,0:2:0:0:
241,220,12353,2,2,P|264:276|275:360,1,132,0|0,1:1|0:1,0:0:0:0:
274,346,12919,1,0,0:0:0:0:
173,139,13202,1,0,3:0:0:0:
169,285,13485,2,0,P|142:303|127:310,2,44,2|2|2,1:2|0:2|0:2,0:0:0:0:
468,246,14051,38,0,P|426:217|370:207,1,88,0|0,3:0|0:2,0:0:0:0:
295,179,14476,1,2,0:2:0:0:
373,200,14617,2,2,L|516:170,1,132,0|0,1:1|0:1,0:0:0:0:
365,102,15183,2,0,L|472:80,1,88,0|0,0:0|3:0,0:0:0:0:
267,133,15750,1,2,1:0:0:0:
267,133,15891,2,0,L|249:40,1,88,2|0,0:0|0:0,0:0:0:0:
288,227,16316,69,0,3:0:0:0:
288,227,16599,2,0,L|278:296,1,44,0|2,0:0|0:0,0:0:0:0:
188,233,16882,2,2,B|181:281|181:281|188:316|188:316|181:377,1,132,0|0,1:1|0:1,0:0:0:0:
75,365,17448,2,0,L|85:276,1,88,0|0,0:0|3:0,0:0:0:0:
20,179,18014,2,0,B|97:165|69:203|168:187,1,132,0|0,1:0|0:0,0:0:0:0:
334,245,18580,101,2,3:3:0:0:
334,245,18863,2,0,P|377:233|408:228,1,52.7999983886719,0|2,3:0|0:2,0:0:0:0:
272,133,19146,2,0,P|262:175|253:202,2,52.7999983886719,0|0|2,1:0|0:2|0:2,0:0:0:0:
410,139,19570,2,0,P|378:110|363:96,1,52.7999983886719,2|0,0:3|3:0,0:0:0:0:
334,245,19853,2,0,L|327:360,1,105.599996777344,2|0,0:3|0:2,0:0:0:0:
149,370,20278,2,2,P|124:316|167:208,1,158.399995166016,0|2,1:1|0:2,0:0:0:0:
275,126,20844,69,0,3:0:0:0:
275,126,21127,2,0,L|211:111,1,52.7999983886719,0|2,3:0|0:2,0:0:0:0:
113,68,21410,2,0,L|61:82,2,52.7999983886719,0|0|2,1:0|0:0|0:2,0:0:0:0:
38,180,21834,2,0,L|156:150,1,105.599996777344,2|2,0:3|0:3,0:0:0:0:
140,153,22259,1,0,0:0:0:0:
26,282,22542,2,2,L|195:236,1,158.399995166016,0|2,1:1|0:2,0:0:0:0:
379,275,23108,37,0,3:0:0:0:
379,275,23391,2,0,P|394:245|416:223,1,52.7999983886719,0|2,3:0|0:2,0:0:0:0:
482,180,23674,2,0,P|495:230|479:291,1,105.599996777344,0|2,1:0|0:2,0:0:0:0:
379,275,24099,1,2,0:3:0:0:
328,197,24240,2,0,P|293:185|267:180,1,52.7999983886719,0|2,3:0|0:3,0:0:0:0:
262,338,24523,2,0,P|308:333|324:328,1,52.7999983886719,0|0,0:0|0:0,0:0:0:0:
202,252,24806,2,2,P|144:249|92:270,1,105.599996777344,0|0,1:1|0:1,0:0:0:0:
29,245,25231,1,2,0:2:0:0:
29,245,25372,70,0,L|51:134,1,105.599996777344,0|0,3:0|3:0,0:0:0:0:
293,56,25938,2,2,B|236:68|236:68|204:98|204:98|135:113,1,158.399995166016,0|2,1:0|0:3,0:0:0:0:
82,61,26504,1,0,3:0:0:0:
124,189,26646,2,0,L|134:224,2,26.399999194336,2|0|8,1:3|1:0|1:2,0:0:0:0:
362,101,27070,1,8,1:2:0:0:
362,101,27353,1,8,1:2:0:0:
287,222,27495,1,8,1:2:0:0:
167,132,27636,70,0,P|198:124|226:111,1,55,4|0,0:2|0:1,0:1:0:0:
286,57,27919,1,2,3:1:0:0:
286,57,28061,1,2,0:1:0:0:
404,172,28202,2,0,P|355:149|301:143,1,110,0|2,3:0|0:1,0:0:0:0:
126,231,28627,2,0,P|180:225|230:202,1,110,2|0,1:1|0:1,0:1:0:0:
220,115,29051,1,2,0:1:0:0:
313,237,29193,1,0,0:0:0:0:
313,237,29334,2,0,L|325:310,1,55,0|2,3:0|0:1,0:0:0:0:
221,256,29617,2,0,L|230:202,1,55,2|0,0:1|0:0,0:0:0:0:
286,57,29900,85,2,1:0:0:0:
313,237,30042,1,0,1:0:0:0:
149,170,30183,2,0,P|134:140|134:94,1,55,0|0,0:1|0:1,0:1:0:0:
172,38,30467,1,0,1:0:0:0:
172,38,30750,2,0,P|195:14|239:0,1,55,0|0,0:1|0:1,0:1:0:0:
290,61,31033,1,0,1:0:0:0:
290,61,31174,2,0,P|319:76|346:113,1,55,0|0,0:1|0:1,0:1:0:0:
334,91,31599,21,2,0:1:0:0:
383,172,31741,1,2,0:1:0:0:
312,237,31882,1,2,0:1:0:0:
403,173,32024,1,2,0:1:0:0:
317,258,32165,86,2,L|336:380,2,110,0|2|0,1:0|0:1|3:0,0:0:0:0:
268,158,32873,1,0,0:0:0:0:
217,251,33014,2,2,L|226:320,1,55,0|0,1:1|0:1,0:0:0:0:
114,147,33297,22,2,P|145:155|173:168,1,55,0|0,1:1|0:1,0:0:0:0:
268,158,33580,2,0,P|259:127|256:96,1,55,0|0,0:0|0:0,0:0:0:0:
201,20,33863,2,0,P|176:48|38:24,1,192.5,0|0,3:0|0:0,0:0:0:0:
39,25,34429,86,2,L|46:102,1,55,0|0,1:1|0:1,0:0:0:0:
108,201,34712,2,2,L|114:147,1,55,0|0,1:0|0:0,0:0:0:0:
6,194,34995,1,0,3:0:0:0:
6,194,35278,22,2,L|13:271,1,55,0|0,1:1|0:1,0:0:0:0:
92,356,35561,2,2,L|97:301,1,55,0|0,1:1|0:1,0:0:0:0:
114,146,35844,1,8,0:0:0:0:
192,277,35985,1,4,0:3:0:0:
10,248,36127,1,12,3:0:0:0:
200,182,36268,1,8,0:0:0:0:
92,356,36410,1,8,0:0:0:0:
26,167,36551,1,8,0:0:0:0:
192,277,36693,54,2,P|226:274|255:258,1,55,4|0,1:2|0:0,0:0:0:0:
292,185,36976,2,2,P|286:151|267:123,1,55,0|0,1:1|0:1,0:0:0:0:
114,146,37259,1,0,3:0:0:0:
114,146,37542,2,2,L|105:214,1,55,0|0,1:1|0:1,0:0:0:0:
199,331,37825,2,2,L|192:277,1,55,0|0,1:0|0:0,0:0:0:0:
167,72,38108,1,2,0:1:0:0:
200,182,38250,2,0,P|256:173|320:142,1,110,8|0,0:0|0:0,0:0:0:0:
437,69,38674,1,8,0:0:0:0:
437,69,38957,54,2,L|359:55,1,55,2|0,1:2|0:1,0:0:0:0:
304,151,39240,2,2,L|382:165,1,55,2|0,1:2|0:1,0:0:0:0:
263,37,39523,1,8,0:0:0:0:
263,37,39806,54,2,L|185:23,1,55,2|2,1:1|0:1,0:0:0:0:
109,116,40089,2,2,L|187:130,2,55,2|0|0,1:1|0:1|0:1,0:0:0:0:
190,301,40514,2,0,P|211:250|220:196,1,110,8|0,0:0|3:0,0:0:0:0:
109,116,40938,2,0,P|89:161|81:210,1,82.5,8|0,0:0|0:0,0:0:0:0:
54,345,41221,53,4,0:0:0:0:
54,345,41504,2,0,L|31:275,1,55,0|0,3:0|0:0,0:0:0:0:
95,201,41787,2,0,L|118:271,1,55,4|0,3:0|0:0,0:0:0:0:
190,301,42070,2,0,P|234:292|253:278,1,55,8|0,0:0|0:0,0:0:0:0:
324,136,42353,6,0,P|295:142|269:156,1,59.400000226593,0|0,3:0|0:0,0:0:0:0:
339,292,42636,6,0,P|336:260|321:232,1,63.8000019470215,4|0,3:0|0:0,0:0:0:0:
173,146,42919,6,0,P|179:179|196:209,1,68.2000005203247,8|0,0:0|0:0,0:0:0:0:
339,292,43202,1,4,3:0:0:0:
397,103,43485,54,0,P|340:101|260:65,1,127.600003894043,4|2,0:0|0:1,0:0:0:0:
79,116,43910,2,0,P|136:118|216:154,1,127.600003894043,4|2,0:0|0:1,0:0:0:0:
345,257,44334,2,0,P|288:255|208:219,1,127.600003894043,4|6,0:0|0:2,0:0:0:0:
222,229,44900,2,0,P|229:265|220:303,1,55,2|2,0:1|0:1,0:0:0:0:
81,257,45183,2,0,P|74:221|83:183,1,55,2|2,0:1|0:1,0:0:0:0:
173,61,45467,2,0,P|209:57|246:69,1,55,2|2,0:1|0:1,0:0:0:0:
256,168,45750,6,0,L|256:240,1,55,6|0,0:2|0:0,0:0:0:0:
108,196,46033,2,0,L|184:196,1,55,2|0,0:0|0:0,0:0:0:0:
404,196,46316,2,0,L|328:196,1,55,8|0,0:0|0:0,0:0:0:0:
112,112,46599,2,0,P|96:84|104:52,1,55,2|2,0:0|3:1,0:0:0:0:
290,44,46882,2,0,B|256:44|232:92|190:81,1,110,2|0,3:2|0:0,0:0:0:0:
404,226,47306,2,0,B|404:192|356:168|367:126,1,110,2|0,0:0|0:0,0:0:0:0:
420,16,47731,2,0,L|432:80,1,55,2|8,0:0|0:0,0:0:0:0:
468,278,48014,38,0,B|476:246|476:246|424:250|404:226,1,110,0|0,3:0|0:0,0:0:0:0:
44,278,48438,2,0,B|36:246|36:246|88:250|108:226,1,110,2|0,3:2|0:0,0:0:0:0:
128,140,48863,2,0,P|112:108|124:68,1,55,2|0,0:0|3:0,0:0:0:0:
184,36,49146,1,2,3:2:0:0:
184,36,49429,69,0,3:0:0:0:
412,120,49570,1,0,0:0:0:0:
328,348,49712,2,0,P|312:312|308:272,1,55,10|0,0:0|0:0,0:0:0:0:
292,112,49995,2,0,P|265:140|229:160,1,55,8|8,0:0|0:0,0:0:0:0:
128,216,50278,38,0,P|92:198|52:193,1,55,0|0,3:0|0:0,0:0:0:0:
209,256,50561,2,0,P|182:250|160:235,1,55,0|0,0:0|3:0,0:0:0:0:
64,52,50844,2,0,P|72:76|68:112,1,55,8|0,0:0|0:0,0:0:0:0:
68,272,51127,1,2,0:1:0:0:
264,256,51268,2,0,P|256:200|208:160,1,110,2|8,3:1|0:0,0:0:0:0:
88,172,51693,70,0,L|180:156,1,82.5,0|0,3:0|0:0,0:0:0:0:
196,148,51976,2,0,P|204:120|224:88,1,55,8|0,0:0|0:0,0:0:0:0:
345,58,52259,1,12,0:0:0:0:
364,192,52400,1,8,0:0:0:0:
300,300,52542,1,4,0:0:0:0:
300,300,52825,38,0,B|284:272|284:272|296:228,1,55,2|0,0:0|0:0,0:0:0:0:
464,136,53108,2,0,L|464:284,1,110,0|8,3:0|0:0,0:0:0:0:
195,246,53533,1,2,0:1:0:0:
317,138,53674,2,0,L|372:138,1,55,0|8,1:0|0:0,0:0:0:0:
195,246,53957,2,0,L|140:246,1,55,0|8,1:0|0:0,0:0:0:0:
48,246,54240,53,0,1:0:0:0:
317,246,54382,1,0,1:0:0:0:
195,138,54523,1,8,0:0:0:0:
464,138,54665,1,8,0:0:0:0:
464,301,54806,6,0,L|464:246,1,55,8|0,0:1|0:0,0:0:0:0:
332,342,55089,2,0,P|359:347|384:360,1,55,2|0,0:0|3:0,0:0:0:0:
179,342,55372,2,0,P|152:347|128:360,1,55,10|2,0:0|0:1,0:0:0:0:
48,301,55655,2,0,L|48:246,1,55,2|0,0:1|3:0,0:0:0:0:
64,88,55938,2,0,B|64:144|112:144|112:204,1,110,2|0,0:0|1:0,0:0:0:0:
144,28,56363,2,0,P|148:68|140:96,1,55,2|8,0:0|0:0,0:0:0:0:
48,301,56646,1,0,0:0:0:0:
136,284,56787,2,0,L|208:268,1,55,2|8,0:0|0:0,0:0:0:0:
401,185,57070,38,0,B|400:144|448:144|448:88,1,110,2|0,3:2|1:0,0:0:0:0:
64,88,57495,2,0,B|64:144|112:144|112:204,1,110,2|0,3:2|0:0,0:0:0:0:
376,284,57919,2,0,L|304:268,1,55,2|0,0:0|0:0,0:0:0:0:
256,84,58202,2,0,L|256:152,1,55,2|8,3:2|0:0,0:0:0:0:
136,284,58485,70,0,L|208:268,1,55,2|0,3:1|0:0,0:0:0:0:
320,192,58768,1,12,0:0:0:0:
192,192,58910,1,0,0:0:0:0:
376,104,59051,1,8,0:0:0:0:
136,104,59193,1,8,0:0:0:0:
355,0,59334,38,0,B|355:54|355:54|379:86|376:104,1,110,4|0,0:0|3:0,0:0:0:0:
256,139,59759,1,2,3:1:0:0:
136,104,59900,2,0,B|132:86|156:54|156:54|156:-1,1,110,8|0,0:0|3:0,0:0:0:0:
376,280,60467,2,0,B|379:297|355:329|355:329|355:385,1,110,2|0,0:0|3:0,0:0:0:0:
440,352,60891,1,0,0:0:0:0:
336,208,61033,2,0,L|252:208,1,55,6|0,0:0|0:0,0:0:0:0:
96,104,61316,2,0,L|138:176,1,55,2|0,2:0|2:0,0:0:0:0:
212,256,61599,70,0,B|168:256|168:256|152:292|104:308,1,110,8|0,0:0|3:0,0:0:0:0:
28,232,62023,1,8,0:0:0:0:
96,104,62165,2,0,P|128:92|156:104,1,55,0|0,0:0|3:0,0:0:0:0:
344,32,62448,2,0,P|356:64|344:92,1,55,8|0,0:0|0:0,0:0:0:0:
416,280,62731,2,0,P|384:292|356:280,1,55,4|0,0:0|1:0,0:0:0:0:
168,352,63014,2,0,P|156:320|168:292,1,55,0|0,1:0|1:0,0:0:0:0:
157,107,63297,101,2,1:2:0:0:
351,273,63438,1,0,1:0:0:0:
172,288,63580,1,2,3:2:0:0:
339,94,63721,1,0,1:0:0:0:
120,23,63863,54,0,P|77:57|66:110,1,110,4|0,0:0|3:0,0:0:0:0:
60,276,64287,2,0,B|68:236|120:216|112:164,1,110,2|0,0:0|0:0,0:0:0:0:
200,52,64712,2,0,L|264:52,1,55,2|0,3:2|0:0,0:0:0:0:
312,332,64995,2,0,L|248:332,1,55,2|8,0:0|0:0,0:0:0:0:
256,192,65278,1,0,3:0:0:0:
256,192,65419,1,2,0:1:0:0:
380,192,65561,2,0,B|408:200|408:200|440:192,1,55,8|0,0:0|0:0,0:0:0:0:
132,192,65844,2,0,B|104:184|104:184|72:192,1,55,0|0,3:0|0:0,0:0:0:0:
24,324,66127,70,0,L|48:264,1,55,4|0,1:2|0:0,0:0:0:0:
200,52,66410,2,0,L|224:112,1,55,0|0,1:0|0:0,0:0:0:0:
296,252,66693,2,0,L|320:192,1,55,4|0,1:3|0:0,0:0:0:0:
444,4,66976,2,0,L|468:64,1,55,8|0,1:2|0:0,0:0:0:0:
484,140,67259,38,0,B|440:140|440:140|388:168,1,82.5,0|0,1:0|0:0,0:0:0:0:
388,192,67542,2,0,L|288:192,1,82.5,2|0,3:1|0:0,0:0:0:0:
276,216,67825,2,0,B|257:253|257:253|237:205,1,82.5,2|0,0:1|0:0,0:0:0:0:
206,192,68108,2,0,L|124:192,1,82.5,0|0,0:0|0:0,0:0:0:0:
105,158,68391,6,0,B|72:140|72:140|28:140,1,82.5,4|0,0:0|0:0,0:0:0:0:
27,139,68674,2,0,P|26:194|10:247,1,110,0|8,0:0|0:0,0:0:0:0:
190,295,69382,1,2,0:1:0:0:
113,379,69665,1,2,0:1:0:0:
113,379,69806,2,0,P|97:326|96:271,1,110,4|8,3:0|0:0,0:0:0:0:
266,325,70372,2,0,P|226:313|190:295,1,82.5,2|2,0:0|0:1,0:0:0:0:
190,295,70655,5,4,3:0:0:0:
394,227,70938,2,0,P|336:236|285:241,1,110,2|8,0:1|0:0,0:0:0:0:
360,108,71504,2,2,P|337:129|316:141,1,55,2|2,0:1|0:1,0:0:0:0:
277,125,71787,2,2,P|275:179|259:232,1,110,2|4,0:1|3:0,0:0:0:0:
413,208,72353,2,0,P|414:262|430:315,1,110,8|2,0:0|0:1,0:0:0:0:
460,66,72919,102,0,B|424:81|424:81|394:72|394:72|354:78,1,110,4|2,3:0|0:0,0:0:0:0:
197,166,73485,2,0,L|87:152,1,110,8|2,0:0|0:1,0:0:0:0:
46,57,73910,1,2,0:1:0:0:
81,69,74051,2,0,P|54:74|31:89,1,55,2|0,0:0|0:0,0:0:0:0:
207,39,74334,2,0,P|180:33|156:19,1,55,4|0,0:3|0:0,0:0:0:0:
276,124,74617,2,0,L|167:138,1,110,8|2,0:0|0:0,0:0:0:0:
184,283,75183,5,4,0:3:0:0:
13,216,75467,1,0,3:0:0:0:
86,152,75750,2,0,L|100:260,1,110,2|2,0:1|0:1,0:0:0:0:
213,357,76316,21,4,1:2:0:0:
290,331,76457,2,0,P|247:283|183:282,1,132.000005035401,8|0,1:2|3:0,0:0:0:0:
319,234,76882,2,0,P|348:220|372:197,1,66.0000025177003,8|0,0:0|0:0,0:0:0:0:
226,131,77165,2,0,P|228:163|236:195,1,66.0000025177003,8|8,0:0|0:0,0:0:0:0:
290,331,77448,21,4,0:0:0:0:
479,216,77731,2,0,P|477:237|473:259,1,44,0|2,0:0|0:1,0:0:0:0:
402,368,78014,2,0,P|393:324|388:281,1,88,10|2,0:0|0:1,0:0:0:0:
324,66,78580,54,0,P|319:87|316:109,1,44,2|2,0:1|0:1,0:0:0:0:
438,147,78863,2,0,P|434:125|430:103,1,44,4|0,3:0|0:0,0:0:0:0:
356,15,79146,2,0,P|313:27|270:33,1,88,8|0,0:0|3:0,0:0:0:0:
226,131,79712,53,4,3:0:0:0:
129,125,79995,1,2,0:1:0:0:
32,114,80278,1,10,0:0:0:0:
150,39,80419,2,0,P|142:83|129:125,1,88,2|2,0:0|0:1,0:0:0:0:
32,114,80844,54,0,L|36:169,1,44,2|0,3:1|0:0,0:0:0:0:
171,202,81127,2,0,P|159:220|145:237,1,44,4|0,3:0|0:0,0:0:0:0:
52,247,81410,2,0,L|58:334,1,88,8|2,0:0|0:1,0:0:0:0:
60,361,81834,1,2,0:1:0:0:
188,310,81976,53,0,3:0:0:0:
280,360,82259,1,2,0:1:0:0:
370,238,82542,2,0,L|283:254,1,88,8|2,0:0|0:0,0:0:0:0:
257,258,82967,1,2,0:1:0:0:
320,166,83108,2,0,P|325:144|330:123,1,44,2|0,0:0|0:0,0:0:0:0:
395,317,83391,2,0,P|400:338|405:359,1,44,4|0,3:0|0:0,0:0:0:0:
482,234,83674,2,0,L|395:218,1,88,8|0,0:0|0:0,0:0:0:0:
338,95,84240,54,0,L|425:79,1,88,4|2,3:0|0:0,0:0:0:0:
250,10,84806,2,0,P|242:44|233:78,1,66,8|0,0:0|0:0,0:0:0:0:
215,79,85089,102,0,P|229:130|238:184,1,99.0000037765504,12|0,0:0|0:0,0:0:0:0:
240,194,85372,1,8,0:0:0:0:
41,138,85514,1,0,3:0:0:0:
28,134,85797,1,0,3:0:0:0:
15,130,86080,37,4,3:0:0:0:
131,68,86221,2,0,B|128:122|128:122|118:166,1,99.0000037765504,8|0,0:0|0:0,0:0:0:0:
136,168,86504,54,2,P|144:193|146:219,1,52.7999983886719,4|0,3:2|0:2,0:0:0:0:
28,261,86787,1,2,0:1:0:0:
150,305,86928,1,2,0:1:0:0:
3,248,87070,2,0,B|6:307|6:307|16:352,1,105.599996777344,8|2,0:0|0:1,0:0:0:0:
16,352,87495,85,2,0:1:0:0:
150,305,87636,2,2,P|124:298|98:295,1,52.7999983886719,0|0,0:1|0:1,0:0:0:0:
283,374,87919,2,0,P|256:375|231:382,1,52.7999983886719,4|0,3:0|0:0,0:0:0:0:
400,313,88202,2,0,P|384:264|336:250,1,105.599996777344,8|2,0:0|0:1,0:0:0:0:
231,277,88627,1,2,0:1:0:0:
231,277,88768,22,2,P|227:250|221:225,1,52.7999983886719,4|0,3:0|0:0,0:0:0:0:
295,153,89051,2,2,P|298:126|304:101,1,52.7999983886719,0|0,3:0|0:0,0:0:0:0:
190,43,89334,1,8,0:0:0:0:
190,43,89617,86,2,P|195:68|199:94,1,52.7999983886719,2|2,0:1|0:1,0:0:0:0:
97,10,89900,2,2,P|88:64|75:117,1,105.599996777344,0|2,0:1|3:1,0:0:0:0:
31,193,90325,1,2,0:1:0:0:
148,156,90467,1,8,0:0:0:0:
51,89,90608,2,0,P|43:141|31:192,1,105.599996777344,4|2,3:0|0:1,0:0:0:0:
0,282,91033,21,6,0:0:0:0:
109,233,91174,1,2,0:0:0:0:
117,384,91316,1,2,3:2:0:0:
78,310,91457,1,2,0:0:0:0:
213,287,91599,1,8,0:0:0:0:
213,287,91882,86,2,L|199:235,1,52.7999983886719,0|2,0:1|0:1,0:0:0:0:
343,361,92165,2,2,P|317:355|291:351,1,52.7999983886719,2|0,0:1|0:1,0:0:0:0:
471,253,92448,2,0,L|377:269,1,79.1999975830079,2|0,3:2|0:0,0:0:0:0:
374,270,92731,1,8,0:0:0:0:
300,159,92872,2,0,P|352:163|404:174,1,105.599996777344,0|0,3:0|0:0,0:0:0:0:
497,48,93297,21,6,0:0:0:0:
413,62,93438,1,2,0:0:0:0:
329,77,93580,1,2,3:2:0:0:
246,91,93721,1,2,0:0:0:0:
470,123,93863,1,8,0:0:0:0:
358,0,94146,85,2,0:0:0:0:
329,77,94287,1,2,0:0:0:0:
246,91,94429,2,0,P|235:56|230:33,1,52.7999983886719,2|0,3:2|0:0,0:0:0:0:
165,146,94712,2,0,P|154:181|149:204,1,52.7999983886719,0|0,3:0|0:0,0:0:0:0:
67,115,94995,1,4,3:0:0:0:
67,115,95278,1,8,0:0:0:0:
155,60,95419,1,8,0:0:0:0:
42,124,95561,86,0,P|33:71|25:19,2,105.599996777344,4|4|8,3:2|3:0|0:0,0:0:0:0:
116,267,96410,1,2,3:2:0:0:
148,194,96551,2,2,P|96:187|54:216,1,105.599996777344,8|0,0:0|0:0,0:0:0:0:
54,216,96976,1,0,3:0:0:0:
109,372,97259,2,0,L|115:266,1,105.599996777344,8|2,0:0|0:1,0:0:0:70:drum-hitnormal.wav
243,300,97825,54,2,L|236:194,2,105.599996777344,0|4|8,3:0|3:0|0:0,0:0:0:0:
385,351,98674,1,2,3:2:0:0:
458,323,98816,2,2,P|425:282|375:272,1,105.599996777344,8|0,0:0|0:0,0:0:0:0:
410,155,99240,2,0,P|358:161|323:200,1,105.599996777344,4|8,3:0|0:0,0:0:0:0:
407,59,99806,1,2,0:1:0:0:
494,100,99948,1,2,0:1:0:0:
455,21,100089,54,2,L|350:35,2,105.599996777344,4|4|0,0:0|3:0|3:0,0:0:0:0:
336,131,100938,2,0,L|231:116,1,105.599996777344,12|2,0:0|0:1,0:0:0:0:
99,146,101504,1,4,0:3:0:0:
182,52,101787,2,0,P|204:37|230:33,1,52.7999983886719,12|0,0:0|0:0,0:0:0:0:
99,146,102070,2,0,P|124:150|146:164,1,52.7999983886719,4|4,3:2|0:0,0:0:0:0:
0,72,102353,54,0,B|40:81|40:81|53:56|53:56|103:35,1,123.199996240234,4|2,3:0|0:1,0:0:0:0:
249,201,102778,2,0,B|209:210|209:210|196:185|196:185|145:164,1,123.199996240234,8|2,0:0|0:1,0:0:0:0:
14,307,103202,2,0,B|29:315|29:315|72:289,1,61.5999981201172,4|0,3:0|0:0,0:0:0:0:
137,249,103485,53,4,3:0:0:0:
87,372,103627,1,0,0:0:0:0:
87,372,103698,1,0,0:0:0:0:
87,372,103768,1,0,0:0:0:0:
41,203,103910,53,0,0:0:0:0:
172,331,104051,53,8,0:0:0:0:
145,164,104193,53,8,0:0:0:0:
67,291,104334,1,8,0:0:0:0:
14,115,104476,1,8,0:0:0:0:
137,249,104617,70,0,P|215:251|271:197,1,158.399995166016,12|0,0:1|0:0,0:0:0:0:
451,136,105042,1,0,3:0:0:0:
367,204,105183,2,0,P|360:164|329:124,1,79.1999975830079,8|0,0:0|0:0,0:0:0:0:
137,249,105467,2,0,P|115:281|108:320,1,79.1999975830079,0|2,0:0|3:1,0:0:0:0:
176,150,105750,1,2,3:2:0:0:
336,378,105891,38,0,B|308:335|308:335|197:309,1,158.399995166016,8|0,0:0|0:0,0:0:0:0:
71,157,106316,2,0,P|95:86|168:52,1,158.399995166016,8|2,0:0|0:1,0:0:0:0:
137,249,106740,1,8,0:0:0:0:
328,133,106882,70,0,B|274:146|274:146|229:133|229:133|156:155,1,158.399995166016,4|0,3:0|0:0,0:0:0:0:
324,247,107306,2,0,L|418:225,1,79.1999975830079,0|8,3:0|0:0,0:0:0:0:
351,22,107589,1,0,0:0:0:0:
351,22,107660,1,0,0:0:0:0:
351,22,107731,2,0,L|257:44,1,79.1999975830079,2|2,0:0|3:1,0:0:0:0:
437,113,108014,1,2,0:0:0:0:
235,280,108155,38,0,P|313:286|368:341,1,158.399995166016,8|0,0:0|0:0,0:0:0:0:
142,175,108580,2,0,P|134:131|146:81,1,79.1999975830079,12|0,0:0|0:0,0:0:0:0:
86,304,108863,2,0,P|94:348|82:398,1,79.1999975830079,12|8,0:0|0:0,0:0:0:0:
257,175,109146,70,0,L|342:190,1,79.1999975830079,4|0,0:1|0:0,0:0:0:0:
497,86,109429,1,2,0:0:0:0:
335,22,109570,1,2,3:1:0:0:
420,252,109712,2,0,P|437:202|395:103,1,158.399995166016,8|2,0:0|0:0,0:0:0:0:
327,311,110136,1,0,3:0:0:0:
327,311,110207,1,0,3:0:0:0:
327,311,110278,38,0,P|376:356|398:361,1,79.1999975830079,0|8,3:0|0:0,0:0:0:0:
217,268,110561,2,0,L|128:295,1,79.1999975830079,0|0,3:0|0:0,0:0:0:0:
16,164,110844,2,0,L|105:137,1,79.1999975830079,8|0,0:0|0:0,0:0:0:0:
298,80,111127,1,12,0:0:0:0:
217,268,111268,1,12,0:0:0:0:
48,46,111410,54,0,P|125:42|191:102,1,158.399995166016,8|0,0:0|3:0,0:0:0:0:
217,268,111834,1,0,3:0:0:0:
412,127,111976,6,0,P|330:121|253:176,1,176,0|8,0:0|0:0,0:0:0:0:
157,352,112400,2,0,L|94:340,2,44,0|0|4,3:0|3:0|0:0,0:0:0:0:
324,255,112683,1,8,0:0:0:0:
165,181,112825,101,0,3:2:0:0:
269,357,112967,1,0,3:0:0:0:
304,78,113108,53,2,1:0:0:0:
217,268,113250,1,8,1:2:0:0:
469,369,113391,53,0,1:0:0:0:
420,103,113533,2,0,L|400:172,1,44,0|0,1:0|1:0,0:0:0:0:
354,221,113674,6,0,P|415:175|495:187,1,158.399995166016,4|0,0:2|3:0,0:0:0:0:
441,273,114099,1,0,3:0:0:0:
262,171,114240,2,0,P|273:121|288:93,1,79.1999975830079,8|0,0:0|0:0,0:0:0:0:
120,276,114523,2,0,P|134:313|157:346,1,79.1999975830079,2|2,0:1|3:1,0:0:0:0:
175,78,114806,37,2,0:0:0:0:
14,195,114948,2,0,B|57:165|57:165|180:194,1,158.399995166016,8|0,0:0|0:0,0:0:0:0:
269,357,115372,2,0,L|346:343,1,79.1999975830079,8|0,0:0|0:0,0:0:0:0:
453,262,115655,1,10,0:0:0:0:
263,134,115797,1,8,0:0:0:0:
381,50,115938,70,0,L|340:218,1,158.399995166016,4|2,3:0|0:1,0:0:0:0:
450,151,116363,1,0,3:0:0:0:
369,374,116504,2,0,L|355:293,1,79.1999975830079,10|0,0:0|0:0,0:0:0:0:
160,189,116787,2,0,L|173:267,1,79.1999975830079,2|0,0:0|3:0,0:0:0:0:
137,88,117070,37,2,0:0:0:0:
84,304,117212,2,0,P|161:303|218:364,1,158.399995166016,8|0,0:0|0:0,0:0:0:0:
27,215,117636,2,0,P|12:168|17:124,1,79.1999975830079,12|0,0:0|0:0,0:0:0:0:
259,14,117919,2,0,P|274:61|269:105,1,79.1999975830079,12|0,0:0|0:0,0:0:0:0:
389,250,118202,70,0,P|334:197|235:202,1,158.399995166016,0|0,3:0|0:0,0:0:0:0:
295,278,118627,1,0,3:0:0:0:
59,359,118768,2,0,P|114:306|213:311,1,158.399995166016,8|2,0:0|0:1,0:0:0:0:
372,358,119193,1,0,3:0:0:0:
372,358,119264,1,0,3:0:0:0:
372,358,119334,38,0,L|455:340,1,79.1999975830079,0|8,3:0|0:0,0:0:0:0:
255,193,119617,2,0,L|172:175,1,79.1999975830079,0|0,3:0|0:0,0:0:0:0:
453,42,119900,53,12,0:0:0:0:
500,137,120042,1,0,0:0:0:0:
333,261,120183,5,4,3:2:0:0:
363,156,120325,1,2,0:1:0:0:
477,344,120467,53,12,0:0:0:0:
477,344,120608,1,0,3:0:0:0:
477,344,120750,2,0,L|463:261,1,79.1999975830079,0|8,1:0|0:0,0:0:0:0:
100,252,121033,5,0,3:0:0:0:
100,252,121174,1,0,3:0:0:0:
100,252,121316,2,0,L|120:157,1,88,8|2,1:2|0:1,0:0:0:0:
136,93,121528,1,2,0:1:0:0:
141,77,121599,85,2,3:1:0:0:
363,156,121740,1,8,0:0:0:0:
194,262,121882,53,0,3:0:0:0:
336,51,122023,1,0,1:0:0:0:
463,265,122165,53,2,3:1:0:0:
271,193,122306,1,0,1:0:0:0:
493,71,122448,53,0,1:0:0:0:
399,376,122589,1,2,0:1:0:0:
399,376,122660,1,2,0:1:0:0:
399,376,122731,6,0,P|346:329|251:333,1,158.399995166016,6|2,0:2|0:1,0:0:0:0:
164,363,123155,1,0,3:0:0:0:
19,309,123297,2,0,L|100:292,1,79.1999975830079,8|0,0:0|0:0,0:0:0:0:
340,188,123580,1,2,0:0:0:0:
340,188,123721,1,0,3:0:0:0:
201,113,123863,38,0,B|174:157|174:157|195:270,1,158.399995166016,2|0,0:1|3:0,0:0:0:0:
193,261,124287,1,0,0:0:0:0:
458,292,124429,2,0,L|442:382,1,79.1999975830079,12|0,0:0|3:0,0:0:0:0:
340,188,124712,2,0,L|356:98,1,79.1999975830079,2|2,0:0|0:1,0:0:0:0:
68,44,124995,5,4,3:2:0:0:
59,54,125278,5,0,3:0:0:0:
54,66,125561,101,0,1:0:0:0:
53,79,125844,5,0,1:0:0:0:
277,250,126127,101,0,1:0:0:0:
276,237,126410,5,0,1:0:0:0:
271,225,126693,101,0,1:0:0:0:
262,215,126976,5,8,1:2:0:0:
4,339,127259,22,0,P|52:297|121:294,1,132.000005035401,4|2,0:0|0:1,0:0:0:0:
178,361,127683,1,0,3:0:0:0:
381,229,127825,1,8,0:0:0:0:
381,229,128108,1,2,0:0:0:0:
438,302,128250,2,0,P|422:352|418:378,1,66.0000025177003,8|2,0:0|0:0,0:0:0:0:
342,149,128533,1,2,0:1:0:0:
342,149,128603,1,2,0:1:0:0:
342,149,128674,2,0,P|358:99|362:73,1,66.0000025177003,2|0,3:1|0:0,0:0:0:0:
246,236,128957,85,8,0:0:0:0:
167,188,129099,1,0,0:0:0:0:
90,137,129240,2,0,P|20:158|-5:163,1,66.0000025177003,8|0,0:0|0:0,0:0:0:0:
215,28,129523,22,0,P|250:86|240:162,1,132.000005035401,0|0,3:0|3:0,0:0:0:0:
216,360,129948,1,2,0:0:0:0:
168,281,130089,2,0,P|164:216|199:160,1,132.000005035401,8|2,0:0|0:0,0:0:0:0:
216,360,130514,1,0,1:0:0:0:
364,304,130655,86,0,P|316:317|288:327,1,66.0000025177003,0|0,3:0|0:0,0:0:0:0:
467,309,130938,2,0,P|458:277|448:245,1,66.0000025177003,0|0,3:0|0:0,0:0:0:0:
247,13,131221,85,2,0:0:0:0:
298,195,131363,1,0,1:0:0:0:
351,37,131504,53,8,0:0:0:0:
199,160,131646,1,8,0:0:0:0:
276,100,131787,86,0,P|330:75|423:84,1,132.000005035401,0|0,3:0|0:0,0:0:0:0:
199,160,132212,1,0,3:0:0:0:
93,43,132353,2,0,P|102:79|108:109,1,66.0000025177003,8|0,0:0|0:0,0:0:0:0:
123,262,132636,2,0,P|114:226|108:196,1,66.0000025177003,2|8,0:1|0:0,0:0:0:0:
111,360,132919,22,0,P|160:346|186:342,1,66.0000025177003,2|0,3:2|0:0,0:0:0:0:
295,235,133202,2,0,P|246:249|220:253,1,66.0000025177003,0|0,3:0|0:0,0:0:0:0:
433,152,133485,85,12,0:0:0:0:
410,244,133627,1,0,3:0:0:0:
386,337,133768,2,0,P|435:351|461:355,1,66.0000025177003,2|0,0:0|0:0,0:0:0:0:
287,139,134051,86,0,P|279:97|274:64,1,72.6000006923676,4|0,0:0|3:0,0:0:0:0:
68,283,134330,1,2,0:0:0:0:
68,283,134470,1,0,3:0:0:0:
88,119,134610,54,0,P|80:161|75:194,1,72.6000006923676,2|0,0:0|3:0,0:0:0:0:
282,371,134890,2,0,P|276:335|269:299,1,72.6000006923676,2|0,1:2|3:0,0:0:0:0:
166,36,135170,53,8,0:0:0:0:
68,283,135310,2,0,L|17:273,2,36.3000003461838,2|2|2,0:1|0:1|0:1,0:0:0:0:
281,139,135590,1,8,0:0:0:0:
299,134,135660,1,8,0:0:0:0:
317,130,135730,53,8,0:0:0:0:
176,250,135870,1,0,1:0:0:0:
372,300,136010,53,8,0:0:0:0:
267,41,136150,1,8,3:2:0:0:
52,196,136290,54,0,P|92:260|192:232,1,170.000003242493,4|0,1:0|3:0,0:0:0:0:
284,120,136706,1,0,3:0:0:0:
128,192,136845,1,8,0:0:0:0:
360,204,136984,1,0,0:0:0:0:
292,88,137123,1,0,0:0:0:0:
288,280,137262,22,0,B|336:304|336:304|464:296,2,170.000003242493,0|0|0,1:0|1:0|3:0,0:0:0:0:
300,56,137956,1,8,0:0:0:0:
360,204,138095,1,0,0:0:0:0:
144,72,138234,1,0,0:0:0:0:
308,24,138373,1,0,3:0:0:0:
112,171,138512,86,0,P|49:118|48:36,1,170.000003242493,0|0,1:0|0:0,0:0:0:0:
212,148,138928,1,0,0:0:0:0:
80,268,139067,1,8,0:0:0:0:
144,72,139206,1,0,0:0:0:0:
280,224,139345,1,0,3:0:0:0:
112,171,139484,1,0,0:0:0:0:
280,224,139623,21,0,1:0:0:0:
180,252,139762,2,0,L|176:340,1,85.0000016212464,8|0,0:0|0:0,0:0:0:0:
280,224,140040,1,0,0:0:0:0:
368,276,140178,2,0,P|452:268|508:196,1,170.000003242493,8|0,0:0|0:0,0:0:0:0:
492,40,140595,1,0,3:0:0:0:
492,40,140665,1,0,3:0:0:0:
492,40,140734,85,0,1:0:0:0:
404,88,140873,2,0,L|400:180,1,85.0000016212464,0|0,1:0|0:0,0:0:0:0:
192,80,141151,1,0,0:0:0:0:
292,107,141290,1,8,0:0:0:0:
104,132,141428,1,0,3:0:0:0:
6,106,141567,1,0,0:0:0:0:
188,40,141706,1,0,3:0:0:0:
108,172,141845,5,0,3:0:0:0:
88,8,141984,1,0,0:0:0:0:
216,164,142123,2,0,P|212:204|188:244,1,85.0080001297119,0|0,0:0|0:0,0:0:0:0:
24,292,142401,1,8,0:0:0:0:
108,172,142540,1,0,3:0:0:0:
176,344,142678,1,0,3:0:0:0:
296,276,142817,1,0,0:0:0:0:
296,276,142887,1,0,0:0:0:0:
296,276,142956,86,0,P|360:316|464:308,1,170.016000259424,0|0,1:0|0:0,0:0:0:0:
424,72,143373,1,0,0:0:0:0:
392,232,143512,1,8,3:2:0:0:
456,96,143651,1,0,3:0:0:0:
484,292,143790,1,0,3:0:0:0:
392,52,143928,1,0,3:0:0:0:
296,276,144067,22,0,P|256:284|200:268,1,85.0080001297119,0|0,3:0|3:0,0:0:0:0:
180,248,144276,1,0,3:0:0:0:
180,248,144345,1,0,3:0:0:0:
88,324,144484,1,0,0:0:0:0:
180,76,144623,1,2,0:3:0:0:
296,276,144762,1,2,0:3:0:0:
24,204,144901,1,2,0:3:0:0:
312,244,145040,1,2,0:3:0:0:
84,104,145178,86,0,P|140:164|240:156,1,170.016000259424,4|0,1:0|0:0,0:0:0:0:
456,68,145595,2,0,L|364:72,1,85.0080001297119,0|8,3:0|0:0,0:0:0:0:
328,208,145873,2,0,L|420:212,1,85.0080001297119,0|0,0:0|0:0,0:0:0:0:
472,344,146151,2,0,L|380:348,1,85.0080001297119,0|0,0:0|0:0,0:0:0:0:
216,264,146428,21,0,3:0:0:0:
316,248,146567,1,0,3:0:0:0:
200,366,146706,2,0,P|131:321|116:240,1,170.016000259424,0|0,0:0|0:0,0:0:0:0:
188,164,147123,2,0,P|197:121|180:64,1,85.0080001297119,0|0,0:0|0:0,0:0:0:0:
8,36,147401,85,0,1:0:0:0:
96,124,147540,1,0,0:0:0:0:
216,64,147678,1,0,1:0:0:0:
8,72,147817,1,0,0:0:0:0:
93,229,147956,1,8,0:0:0:0:
244,47,148095,1,0,0:0:0:0:
12,180,148234,2,0,P|0:220|8:284,1,85.0080001297119,0|0,0:0|0:0,0:0:0:0:
213,344,148512,21,0,0:0:0:0:
110,329,148651,1,0,0:0:0:0:
93,229,148790,1,0,0:0:0:0:
184,180,148928,1,2,0:3:0:0:
184,180,148998,1,2,0:3:0:0:
184,180,149067,1,2,0:3:0:0:
256,252,149206,1,2,0:3:0:0:
256,252,149276,1,2,0:3:0:0:
256,252,149345,1,2,0:3:0:0:
110,329,149484,1,0,1:0:0:0:
416,344,149623,6,0,B|424:228|424:228|400:168,2,170.016000259424,4|0|8,1:0|1:0|0:0,0:0:0:0:
256,252,150456,1,0,0:0:0:0:
256,252,150595,1,0,3:0:0:0:
96,344,150734,54,0,B|88:228|88:228|112:168,2,170.016000259424,0|0|8,1:0|1:0|0:0,0:0:0:0:
256,156,151567,1,2,2:0:0:0:
456,232,151845,70,0,L|368:228,1,85.0080001297119,0|0,1:0|0:0,0:0:0:0:
72,72,152123,2,0,L|160:68,1,85.0080001297119,0|0,1:0|0:0,0:0:0:0:
112,264,152401,2,0,L|116:176,1,85.0080001297119,0|0,1:0|0:0,0:0:0:0:
408,20,152678,2,0,L|412:108,1,85.0080001297119,0|0,1:0|0:0,0:0:0:0:
184,313,152956,85,0,3:0:0:0:
259,273,153095,1,0,3:0:0:0:
341,250,153234,1,0,3:0:0:0:
426,245,153373,1,0,3:0:0:0:
510,257,153512,1,8,0:0:0:0:
120,368,153790,1,4,0:0:0:0:
40,340,154067,86,0,P|4:264|16:168,1,170.016000259424,4|0,1:0|3:0,0:0:0:0:
228,96,154484,1,0,0:0:0:0:
52,36,154623,1,8,0:0:0:0:
232,68,154762,1,0,0:0:0:0:
72,120,154901,1,0,0:0:0:0:
236,128,155040,1,0,3:0:0:0:
11,180,155178,53,0,3:0:0:0:
264,204,155317,1,0,0:0:0:0:
88,244,155456,1,0,0:0:0:0:
292,280,155595,1,0,0:0:0:0:
164,304,155734,1,8,0:0:0:0:
324,356,155873,1,0,3:0:0:0:
428,260,156012,2,0,L|440:160,1,85.0080001297119,0|0,3:0|0:0,0:0:0:0:
444,132,156220,1,0,0:0:0:0:
444,132,156290,53,0,1:0:0:0:
264,204,156428,1,0,0:0:0:0:
312,64,156567,1,0,0:0:0:0:
400,232,156706,1,0,0:0:0:0:
312,32,156845,1,8,0:0:0:0:
428,260,156984,1,0,3:0:0:0:
472,104,157123,1,0,0:0:0:0:
228,212,157262,1,0,3:0:0:0:
92,80,157401,54,0,P|136:84|180:104,1,85.0080001297119,0|0,1:0|0:0,0:0:0:0:
128,348,157678,2,0,P|120:304|96:252,1,85.0080001297119,0|0,1:0|0:0,0:0:0:0:
340,204,157956,2,0,P|324:243|325:285,1,85.0080001297119,8|0,0:0|0:0,0:0:0:0:
196,208,158234,1,0,0:0:0:0:
196,208,158303,1,0,0:0:0:0:
196,208,158373,1,0,1:0:0:0:
420,264,158512,54,0,P|472:208|476:104,1,170.016000259424,0|0,1:0|0:0,0:0:0:0:
420,36,158928,2,0,L|320:32,1,85.0080001297119,0|8,0:0|0:0,0:0:0:0:
136,132,159206,1,0,0:0:0:0:
224,32,159345,1,0,0:0:0:0:
136,131,159484,54,0,P|53:126|0:63,1,170.016000259424,0|0,1:0|3:0,0:0:0:0:
200,212,159901,2,0,L|208:320,1,85.0080001297119,0|0,3:0|0:0,0:0:0:0:
444,72,160178,1,8,0:0:0:0:
388,340,160317,1,0,0:0:0:0:
444,72,160456,1,8,0:0:0:0:
388,340,160595,1,0,0:0:0:0:
316,92,160734,53,8,0:0:0:0:
332,192,160873,1,0,3:0:0:0:
304,292,161012,1,0,3:0:0:0:
280,112,161151,53,8,0:0:0:0:
251,207,161290,1,0,3:0:0:0:
183,286,161428,1,0,3:0:0:0:
240,112,161567,53,8,0:0:0:0:
175,185,161706,1,0,3:0:0:0:
79,227,161845,1,0,3:0:0:0:
64,72,161984,53,2,0:3:0:0:
66,75,162053,1,2,0:3:0:0:
68,78,162123,1,2,0:3:0:0:
70,81,162192,1,2,0:3:0:0:
72,84,162262,1,2,0:3:0:0:
74,87,162331,1,2,0:3:0:0:
76,90,162401,1,2,0:3:0:0:
78,93,162470,1,2,0:3:0:0:
80,96,162540,1,2,0:3:0:0:
82,99,162609,1,2,0:3:0:0:
84,102,162678,1,2,0:3:0:0:
86,105,162748,1,2,0:3:0:0:
88,108,162817,1,2,0:3:0:0:
224,76,162956,5,4,1:0:0:0:
356,96,164061,5,4,1:0:0:0:
488,112,165168,101,4,1:0:0:0:
256,192,165307,12,0,167120,0:0:0:0:
256,192,167399,5,0,3:0:0:0:
282,290,167680,1,0,3:0:0:0:
157,165,167961,1,0,3:0:0:0:
328,119,168242,1,0,3:0:0:0:
183,264,168524,1,0,3:0:0:0:
229,93,168805,1,0,3:0:0:0:
354,218,169086,1,0,3:0:0:0:
82,166,169649,102,0,L|212:148,1,132,8|0,0:1|0:0,0:0:0:0:
213,147,170215,2,0,P|208:190|205:234,1,88,2|0,0:1|0:0,0:0:0:0:
221,325,170639,1,2,0:1:0:0:
309,208,171064,1,2,0:1:0:0:
491,323,171347,2,0,P|436:287|372:293,1,132,2|2,0:1|0:1,0:0:0:0:
309,208,171913,21,2,0:1:0:0:
309,208,172196,1,2,0:1:0:0:
243,112,172479,2,0,P|286:108|330:102,1,88,2|0,0:1|0:0,0:0:0:0:
428,61,172903,1,2,0:1:0:0:
430,82,173045,1,2,0:1:0:0:
212,222,173328,1,2,0:1:0:0:
217,330,173611,2,0,L|209:242,1,88,2|2,0:1|0:1,0:0:0:0:
295,157,174035,1,2,0:1:0:0:
287,69,174177,86,0,L|294:156,1,88,2|0,0:1|0:0,0:0:0:0:
185,132,174743,2,0,P|133:106|61:107,1,132,2|2,0:1|0:1,0:0:0:0:
60,107,175309,2,0,P|68:150|70:194,1,88,2|2,0:1|0:1,0:0:0:0:
221,27,175875,2,0,P|263:37|307:41,1,88,2|2,0:1|0:0,0:0:0:0:
307,41,176299,22,0,L|312:186,1,132,2|2,0:1|0:1,0:0:0:0:
408,104,177007,1,2,0:1:0:0:
215,299,177290,1,2,0:1:0:0:
212,276,177432,1,2,0:0:0:0:
210,254,177573,1,2,0:1:0:0:
318,261,177856,1,2,0:1:0:0:
142,157,178139,2,0,P|185:152|228:140,1,88,2|0,0:1|0:0,0:0:0:0:
439,294,178705,38,0,P|384:260|319:261,1,132,8|0,0:1|0:0,0:0:0:0:
318,261,179271,2,0,L|310:348,1,88,4|2,0:0|0:1,0:0:0:0:
98,314,179696,1,2,0:1:0:0:
97,292,179837,1,4,0:3:0:0:
201,307,180120,1,4,0:3:0:0:
41,177,180403,2,0,P|105:185|163:155,1,132,6|2,0:2|0:1,0:0:0:0:
163,155,180969,6,0,L|163:242,1,88,0|2,3:0|0:0,0:0:0:0:
407,324,181535,2,0,L|410:274,1,44,4|2,0:0|0:1,0:0:0:0:
421,183,181818,1,2,0:0:0:0:
287,75,182101,2,0,L|290:174,1,88,4|4,0:3|0:3,0:0:0:0:
289,162,182667,2,0,P|231:131|166:136,1,132,4|0,0:2|0:0,0:0:0:0:
107,217,183233,101,0,3:0:0:0:
107,217,183516,1,2,0:1:0:0:
213,231,183799,2,0,P|222:273|221:317,1,88,4|2,0:0|0:1,0:0:0:0:
289,162,184224,1,2,0:0:0:0:
395,71,184365,2,0,P|351:70|309:58,1,88,4|4,0:3|0:3,0:0:0:0:
48,122,184932,2,0,L|189:112,1,132,4|2,0:0|0:1,0:0:0:0:
179,112,185498,21,4,0:1:0:0:
149,304,185781,1,0,3:0:0:0:
164,208,185922,1,0,3:0:0:0:
179,112,186064,1,8,0:0:0:0:
246,274,186347,85,2,0:1:0:0:
335,310,186488,2,0,L|396:315,1,44,0|0,3:0|0:0,0:0:0:0:
90,148,186771,21,8,0:0:0:0:
179,112,186912,2,0,L|240:107,1,44,0|0,3:0|0:0,0:0:0:0:
448,194,187196,6,0,B|387:176|382:210|317:194,1,132,8|0,0:0|0:0,0:0:0:0:
247,259,187762,1,0,1:0:0:0:
415,71,188045,101,8,0:0:0:0:
97,71,188328,1,8,0:0:0:0:
415,71,188611,53,8,0:0:0:0:
97,71,188894,2,0,L|103:125,1,50.2857142857143,0|0,0:0|0:0,0:0:0:0:
423,35,190026,6,0,B|326:20|326:20|269:26|257:135,1,176,4|0,0:0|3:0,0:0:0:0:
328,289,190450,1,2,0:0:0:0:
354,113,190592,2,0,L|339:224,1,88,8|0,0:0|0:0,0:0:0:0:
415,292,190875,22,0,P|413:268|395:239,1,44,12|0,0:0|0:0,0:0:0:0:
328,289,191299,69,0,0:0:0:0:
304,284,191369,1,0,0:0:0:0:
283,273,191440,1,0,0:0:0:0:
266,257,191511,1,0,0:0:0:0:
253,236,191582,1,0,0:0:0:0:
247,213,191652,1,0,0:0:0:0:
247,190,191723,53,0,3:0:0:0:
111,284,191865,2,0,L|102:306,2,22,8|0|2,0:0|0:0|0:0,0:0:0:0:
184,111,192149,1,0,3:0:0:0:
33,236,192290,70,0,P|72:202|116:190,1,88,12|0,0:0|0:0,0:0:0:0:
284,15,192573,21,0,3:0:0:0:
275,100,192715,2,0,P|314:134|358:146,1,88,12|2,0:0|0:0,0:0:0:0:
442,272,192998,85,0,3:0:0:0:
245,332,193139,2,0,P|233:289|238:246,1,88,12|2,0:0|0:0,0:0:0:0:
441,180,193422,21,0,3:0:0:0:
318,271,193564,1,0,3:0:0:0:
335,279,193634,1,0,3:0:0:0:
353,279,193705,1,0,0:0:0:0:
359,194,193847,1,0,3:0:0:0:
154,254,193988,6,0,P|175:184|259:167,1,132,2|0,0:0|0:0,0:0:0:0:
224,161,194271,2,0,P|165:178|101:116,1,132,2|0,0:0|0:0,0:0:0:0:
32,67,194554,70,0,B|121:50|121:50|138:58|138:58|214:42,1,176,12|0,0:0|0:0,0:0:0:0:
318,173,194979,1,12,0:0:0:0:
318,13,195120,2,0,P|283:67|279:126,1,88,2|0,0:0|3:0,0:0:0:0:
406,337,195403,22,0,B|487:309|487:309|381:293,1,176,12|0,0:0|3:0,0:0:0:0:
92,346,195828,69,0,0:0:0:0:
36,330,195898,1,0,0:0:0:0:
5,282,195969,1,0,0:0:0:0:
13,225,196040,1,0,0:0:0:0:
56,188,196111,1,0,0:0:0:0:
113,188,196181,1,0,0:0:0:0:
157,227,196252,85,2,0:0:0:0:
150,236,196394,5,8,0:0:0:0:
144,244,196535,5,8,0:0:0:0:
303,189,196677,70,0,L|240:180,1,44,2|2,0:0|0:0,0:0:0:0:
52,97,196818,2,0,L|175:77,1,88,12|0,0:0|0:0,0:0:0:0:
340,266,197101,22,0,L|277:275,1,44,2|0,0:0|3:0,0:0:0:0:
89,334,197243,2,0,L|212:354,1,88,12|0,0:0|0:0,0:0:0:0:
224,111,197526,86,0,P|194:134|181:169,1,44,2|0,0:0|3:0,0:0:0:0:
422,246,197667,2,0,P|432:185|367:116,1,132,12|0,0:0|0:0,0:0:0:0:
458,72,197950,1,2,3:2:0:0:
40,245,198233,102,0,P|64:194|71:151,1,88,2|0,0:0|0:0,0:0:0:0:
37,38,198516,53,8,0:3:0:0:
89,88,198610,53,8,0:3:0:0:
161,99,198704,53,8,0:3:0:0:
226,64,198799,53,8,0:3:0:0:
278,12,198894,53,8,0:3:0:0:
350,2,198988,53,8,0:3:0:0:
415,36,199083,5,12,0:0:0:0:
309,99,199224,1,0,3:0:0:0:
321,225,199365,1,0,3:0:0:0:
425,162,199507,21,12,0:0:0:0:
401,152,199649,1,2,0:0:0:0:
379,157,199790,1,0,3:0:0:0:
376,289,199932,85,14,0:0:0:0:
189,359,200073,1,2,0:0:0:0:
104,179,200215,1,0,3:0:0:0:
173,238,200356,21,2,0:0:0:0:
22,210,200498,1,0,3:0:0:0:
123,97,200639,1,2,0:0:0:0:
501,84,200781,70,0,L|483:78,1,11,2|0,0:0|0:0,0:0:0:0:
361,140,200922,54,0,L|343:134,1,11,8|0,0:0|0:0,0:0:0:0:
263,41,201064,54,0,L|245:35,1,11,8|0,0:0|0:0,0:0:0:0:
123,97,201205,54,0,L|105:91,1,11,8|0,0:0|0:0,0:0:0:0:
76,361,201347,69,12,0:0:0:0:
243,291,201488,1,2,0:0:0:0:
211,111,201630,1,0,3:0:0:0:
46,217,201771,21,12,0:0:0:0:
100,283,201913,1,2,0:0:0:0:
168,239,202054,1,0,3:0:0:0:
175,30,202196,85,8,0:0:0:0:
172,334,202337,1,2,0:0:0:0:
438,182,202479,1,12,0:0:0:0:
371,127,202620,21,2,0:0:0:0:
353,159,202762,1,0,3:0:0:0:
357,201,202903,1,12,0:0:0:0:
497,270,203045,22,0,B|502:294|502:294|480:267|431:256|399:279,1,132,2|0,0:0|3:0,0:0:0:0:
332,361,203611,53,12,0:0:0:0:
181,249,203752,1,2,0:0:0:0:
239,68,203894,1,0,3:0:0:0:
362,122,204035,21,12,0:0:0:0:
324,145,204177,1,2,0:0:0:0:
285,143,204318,1,0,3:0:0:0:
428,58,204460,85,12,0:0:0:0:
335,271,204601,1,2,0:0:0:0:
107,234,204743,1,0,3:0:0:0:
151,156,204884,21,0,3:0:0:0:
158,306,205026,1,2,0:0:0:0:
26,250,205167,1,8,0:0:0:0:
114,39,205309,85,2,3:2:0:0:
284,166,205450,1,0,3:0:0:0:
284,187,205521,1,0,3:0:0:0:
276,208,205592,1,0,3:0:0:0:
73,321,205733,1,8,0:0:0:0:
51,105,205875,21,10,0:0:0:0:
224,110,206016,1,0,3:0:0:0:
361,0,206158,1,0,3:0:0:0:
165,43,206299,85,12,0:0:0:0:
142,125,206441,1,2,0:0:0:0:
200,194,206582,1,0,3:0:0:0:
512,181,206724,21,12,0:0:0:0:
386,78,206865,1,2,0:0:0:0:
224,110,207007,1,0,3:0:0:0:
348,349,207149,85,2,0:0:0:0:
454,242,207290,1,4,3:0:0:0:
316,207,207432,1,4,0:0:0:0:
210,314,207573,21,4,3:0:0:0:
374,272,207715,1,2,0:0:0:0:
153,254,207856,85,4,3:0:0:0:
430,331,207998,1,2,0:0:0:0:
27,345,208139,37,8,1:2:0:0:
489,244,208564,1,8,1:2:0:0:
27,345,208988,53,8,1:2:0:0:
104,123,209271,2,0,L|115:178,1,50.2857142857143,12|0,0:0|0:0,0:0:0:0:
374,272,210403,70,0,L|388:197,1,66.0000025177003,4|0,0:0|0:0,0:0:0:0:
409,112,210969,1,0,0:0:0:0:
321,141,211252,1,0,0:0:0:0:
478,181,211394,1,0,0:0:0:0:
478,181,211465,1,0,0:0:0:0:
478,181,211535,2,0,P|500:138|498:81,2,99.0000037765504,2|0|2,0:0|0:0|0:0,0:0:0:0:
335,50,212667,2,0,L|227:65,2,99.0000037765504,2|0|0,0:0|0:0|0:0,0:0:0:0:
386,207,213799,2,0,P|341:228|261:216,1,132.000005035401,2|0,0:0|0:0,0:0:0:0:
196,147,214649,1,0,0:0:0:0:
136,235,214932,86,0,L|196:243,2,33.0000012588501,2|0|0,0:0|0:0|0:0,0:0:0:0:
98,144,215498,2,0,L|37:152,2,33.0000012588501,0|0|0,0:0|0:0|0:0,0:0:0:0:
202,82,216064,2,0,L|195:162,1,66.0000025177003,2|0,0:0|0:0,0:0:0:0:
178,325,216630,2,0,P|205:320|229:302,2,33.0000012588501,0|0|0,0:0|0:0|0:0,0:0:0:0:
41,232,217196,101,2,0:0:0:0:
249,234,217762,1,2,0:0:0:0:
192,364,218045,2,0,L|173:313,2,41.7999988838196,0|2|0,0:0|0:0|0:0,0:0:0:0:
125,188,218469,1,0,0:0:0:0:
133,209,218611,1,0,0:0:0:0:
249,234,218894,2,0,L|268:183,2,41.7999988838196,2|0|0,0:0|0:0|0:0,0:0:0:0:
178,325,219460,54,0,P|130:316|92:280,1,83.5999977676392,2|0,0:0|0:0,0:0:0:0:
119,126,220026,2,0,L|134:215,1,83.5999977676392,2|0,0:0|0:0,0:0:0:0:
107,299,220450,1,0,0:0:0:0:
107,299,220592,1,0,0:0:0:0:
46,229,220733,2,0,L|32:146,1,83.5999977676392,2|0,0:0|0:0,0:0:0:0:
61,60,221158,2,0,P|95:42|154:46,1,83.5999977676392,2|0,0:0|0:0,0:0:0:0:
201,105,221582,1,0,0:0:0:0:
132,208,221724,54,0,L|118:125,2,83.5999977676392,2|0|2,0:0|0:0|0:0,0:0:0:0:
139,41,222573,1,0,0:0:0:0:
139,41,222715,1,0,0:0:0:0:
118,125,222856,1,0,0:0:0:0:
201,105,222998,2,0,P|242:104|279:86,1,83.5999977676392,2|0,0:0|0:0,0:0:0:0:
351,25,223422,2,0,L|364:107,1,83.5999977676392,2|0,0:0|3:0,0:0:0:0:
214,198,223988,22,0,B|190:156|190:156|201:105,1,101.200001930237,4|0,0:0|0:0,0:0:0:0:
303,171,224413,1,0,0:0:0:0:
303,171,224554,2,0,L|291:240,1,50.6000009651184,2|0,3:2|0:0,0:0:0:0:
233,281,224837,2,0,L|244:350,1,50.6000009651184,2|0,0:0|0:0,0:0:0:0:
84,224,225120,2,0,L|153:212,1,50.6000009651184,2|0,3:2|0:0,0:0:0:0:
215,199,225403,1,2,0:1:0:0:
94,30,225686,86,0,B|118:72|118:72|107:123,1,101.200001930237,2|2,3:2|0:1,0:0:0:0:
84,224,226111,1,2,3:0:0:0:
16,152,226252,22,0,L|2:90,1,50.6000009651184,2|0,3:2|0:0,0:0:0:0:
84,224,226535,2,0,L|72:273,1,50.6000009651184,2|0,0:0|0:0,0:0:0:0:
183,190,226818,2,0,L|213:149,1,50.6000009651184,2|0,3:2|0:0,0:0:0:0:
119,74,227101,22,0,L|108:124,1,50.6000009651184,2|0,0:0|0:0,0:0:0:0:
223,281,227384,2,0,L|267:257,1,50.6000009651184,2|0,3:2|0:0,0:0:0:0:
348,208,227667,1,2,0:1:0:0:
214,150,227950,1,2,0:0:0:0:
314,346,228233,2,0,P|334:331|349:311,1,50.6000009651184,2|2,0:1|0:1,0:0:0:0:
412,96,228516,85,6,0:0:0:0:
360,297,228799,1,0,1:0:0:0:
214,150,229082,1,2,1:0:0:0:
449,207,229365,1,8,0:0:0:0:
348,208,229507,1,0,0:0:0:0:
267,257,229649,2,0,L|210:273,2,50.6000009651184,2|2|0,3:1|3:1|3:0,0:0:0:0:
459,302,230215,1,8,0:0:0:0:
412,96,230498,1,8,1:2:0:0:
267,257,230781,21,2,0:0:0:0:
267,257,230922,2,0,P|249:202|254:144,1,101.200001930237,4|4,3:0|3:0,0:0:0:0:
164,56,231347,2,0,P|164:106|148:154,1,101.200001930237,4|4,3:0|3:0,0:0:0:0:
79,310,231913,1,2,0:0:0:0:
79,310,232479,2,0,L|145:313,1,50.6000009651184,2|2,0:0|0:0,0:0:0:0:
496,48,233045,54,0,P|410:57|355:170,1,158.399995166016,4|0,0:0|0:0,0:0:0:0:
325,176,233469,1,4,3:0:0:0:
276,109,233611,2,0,P|292:161|339:200,1,79.1999975830079,8|2,0:0|0:1,0:0:0:0:
457,226,233894,1,2,3:1:0:0:
512,137,234035,53,4,3:0:0:0:
512,137,234106,1,0,0:0:0:0:
512,137,234177,1,2,0:0:0:0:
365,272,234318,1,8,0:0:0:0:
471,303,234460,2,0,L|457:226,1,79.1999975830079,4|0,3:3|0:0,0:0:0:0:
325,176,234743,1,8,0:0:0:0:
44,382,235026,69,2,0:1:0:0:
79,310,235167,1,8,0:0:0:0:
151,273,235309,2,0,P|206:327|283:332,1,158.399995166016,4|0,3:0|0:0,0:0:0:0:
365,272,235733,1,4,3:0:0:0:
364,365,235875,2,0,P|376:323|371:262,1,79.1999975830079,8|0,0:0|0:0,0:0:0:0:
236,158,236158,2,0,L|253:267,1,79.1999975830079,4|2,3:0|0:1,0:0:0:0:
133,381,236441,21,2,3:1:0:0:
159,180,236582,1,8,0:0:0:0:
0,277,236724,1,4,3:0:0:0:
0,277,237007,2,0,L|94:297,1,79.1999975830079,8|0,0:0|0:0,0:0:0:0:
159,180,237290,2,0,P|156:115|108:47,1,118.799996374512,8|0,0:0|0:0,0:0:0:0:
19,29,237573,70,0,L|47:213,1,158.399995166016,6|2,3:2|0:0,0:0:0:0:
258,69,237998,1,4,3:0:0:0:
248,236,238139,2,0,L|271:79,1,158.399995166016,8|4,0:0|3:0,0:0:0:0:
144,45,238564,53,0,3:0:0:0:
144,45,238634,1,0,0:0:0:0:
144,45,238705,1,0,0:0:0:0:
302,156,238847,1,8,0:0:0:0:
82,162,238988,2,0,P|124:167|170:185,1,79.1999975830079,4|0,3:0|0:0,0:0:0:0:
334,51,239271,2,0,P|296:63|257:68,1,79.1999975830079,8|0,0:0|0:0,0:0:0:0:
37,11,239554,1,12,0:0:0:0:
37,11,239837,86,0,L|50:93,1,79.1999975830079,4|0,0:0|0:0,0:0:0:0:
235,226,240120,101,0,3:0:0:0:
246,147,240261,1,8,0:0:0:0:
258,69,240403,1,0,3:0:0:0:
347,34,240545,101,0,3:0:0:0:
128,134,240686,1,8,0:0:0:0:
333,219,240828,1,2,0:1:0:0:
184,309,240969,5,4,0:0:0:0:
364,365,241111,1,8,0:0:0:0:
402,357,241181,1,0,0:0:0:0:
435,336,241252,1,8,0:0:0:0:
458,304,241323,1,0,0:0:0:0:
468,266,241394,1,8,0:0:0:0:
462,227,241464,1,0,0:0:0:0:
442,193,241535,102,0,L|407:198,1,19.799999395752,8|0,0:0|0:0,0:0:0:0:
334,51,241677,2,0,L|353:48,1,19.799999395752,8|0,0:0|0:0,0:0:0:0:
365,272,241818,6,0,L|329:276,1,19.799999395752,8|0,0:0|0:0,0:0:0:0:
227,31,241960,2,0,L|246:28,1,19.799999395752,8|0,0:0|0:0,0:0:0:0:
184,309,242101,102,0,B|229:277|229:277|202:126,1,167.199995535278,4|0,0:0|0:0,0:0:0:0:
152,103,242526,1,0,3:0:0:0:
126,190,242667,2,0,L|140:112,1,79.1999975830079,8|0,0:0|0:0,0:0:0:0:
227,31,242950,1,2,0:1:0:0:
39,230,243092,53,0,3:0:0:0:
39,230,243163,1,0,0:0:0:0:
39,230,243233,1,2,0:0:0:0:
15,146,243375,1,8,0:0:0:0:
76,84,243516,2,0,P|122:89|175:121,1,79.1999975830079,0|0,3:0|0:0,0:0:0:0:
269,351,243799,69,8,0:0:0:0:
269,351,244082,2,0,L|362:336,1,79.1999975830079,2|8,0:1|0:0,0:0:0:0:
427,370,244365,2,0,P|471:289|429:184,1,158.399995166016,4|0,3:0|0:0,0:0:0:0:
395,182,244790,1,0,0:0:0:0:
427,105,244932,2,0,P|393:139|385:205,1,79.1999975830079,8|0,0:0|0:0,0:0:0:0:
299,151,245215,2,0,P|303:198|348:247,1,79.1999975830079,0|2,1:0|3:1,0:0:0:0:
488,310,245498,21,0,0:0:0:0:
395,182,245639,1,8,0:0:0:0:
256,369,245781,1,0,3:0:0:0:
256,369,246064,2,0,L|152:353,1,79.1999975830079,8|0,0:0|0:0,0:0:0:0:
0,311,246347,2,0,L|146:288,1,118.799996374512,12|2,0:0|0:1,0:0:0:0:
115,165,246630,70,0,B|161:122|161:122|261:180|197:289,1,237.599992749024,0|0,3:0|3:0,0:0:0:0:
328,367,247196,2,0,P|294:298|318:224,1,158.399995166016,8|2,0:0|0:1,0:0:0:0:
377,161,247620,2,0,P|400:202|393:261,1,79.1999975830079,0|0,3:0|3:0,0:0:0:0:
251,345,247903,53,8,0:0:0:0:
294,134,248045,1,4,3:0:0:0:
294,134,248115,1,0,0:0:0:0:
294,134,248186,1,0,0:0:0:0:
464,328,248328,2,0,L|387:310,1,79.1999975830079,12|0,0:0|0:0,0:0:0:0:
207,269,248611,2,0,P|210:229|231:196,1,79.1999975830079,4|0,0:0|0:0,0:0:0:0:
401,49,248894,102,0,B|435:15|435:15|460:169,1,158.399995166016,4|0,0:0|0:0,0:0:0:0:
395,182,249318,1,8,0:0:0:0:
395,182,249389,1,0,0:0:0:0:
395,182,249460,1,0,0:0:0:0:
187,59,249601,1,0,0:0:0:0:
231,198,249743,2,0,L|242:119,1,79.1999975830079,8|0,0:0|0:0,0:0:0:0:
311,37,250026,21,4,0:1:0:0:
159,150,250167,1,8,0:0:0:0:
120,162,250237,1,0,0:0:0:0:
81,161,250308,1,0,1:0:0:0:
45,145,250379,1,0,0:0:0:0:
16,117,250450,1,8,0:0:0:0:
1,80,250520,1,0,0:0:0:0:
0,41,250591,69,0,1:0:0:0:
113,330,250733,1,0,1:0:0:0:
241,119,250875,5,8,0:0:0:0:
193,365,251016,1,8,0:0:0:0:
62,250,251158,102,0,B|211:215|122:308|304:259,1,237.599992749024,4|0,0:0|3:0,0:0:0:0:
380,264,251724,2,0,P|373:226|353:192,1,79.1999975830079,8|0,0:0|0:0,0:0:0:0:
241,119,252007,1,2,0:0:0:0:
197,285,252149,54,0,P|194:325|193:365,1,79.1999975830079,0|0,0:0|3:0,0:0:0:0:
6,272,252432,1,8,0:0:0:0:
6,272,252502,1,0,3:0:0:0:
6,272,252573,2,0,P|96:265|143:158,1,158.399995166016,4|8,3:0|0:0,0:0:0:0:
58,31,252998,1,0,3:0:0:0:
0,84,253139,2,0,P|1:124|4:164,1,79.1999975830079,12|0,0:0|0:0,0:0:0:0:
95,368,253422,86,0,L|172:353,1,79.1999975830079,4|0,1:2|0:0,0:0:0:0:
176,126,253705,2,0,L|78:144,1,79.1999975830079,8|0,0:0|0:0,0:0:0:0:
275,384,253988,86,0,L|352:369,1,79.1999975830079,4|0,3:0|0:0,0:0:0:0:
355,80,254271,2,0,L|278:95,1,79.1999975830079,8|2,0:0|0:0,0:0:0:0:
437,370,254554,38,0,P|453:342|460:293,1,66.0000025177003,0|0,3:0|0:0,0:0:0:0:
384,283,254837,2,0,P|372:252|339:215,1,66.0000025177003,8|0,0:0|0:0,0:0:0:0:
331,19,255120,54,0,P|347:47|354:96,1,66.0000025177003,8|0,0:0|0:0,0:0:0:0:
278,106,255403,2,0,P|266:136|233:173,1,66.0000025177003,8|0,0:0|0:0,0:0:0:0:
46,194,255686,5,12,0:0:0:0:
113,364,255969,1,0,0:0:0:0:
133,179,256111,21,8,0:0:0:0:
113,364,256394,1,0,0:0:0:0:
213,210,256535,22,0,P|232:139|209:90,1,99.0000037765504,8|0,0:0|0:0,0:0:0:0:
167,57,256818,2,0,L|82:54,1,66.0000025177003,0|8,0:0|0:0,0:0:0:0:
304,18,257101,2,0,L|389:15,1,66.0000025177003,0|0,0:0|0:0,0:0:0:0:
27,34,257384,53,8,0:0:0:0:
191,49,257526,1,0,0:0:0:0:
354,64,257667,1,8,0:0:0:0:
505,78,257809,1,0,0:0:0:0:
346,172,257950,38,0,P|333:206|346:249,2,66.0000025177003,12|0|0,0:0|0:0|3:0,0:0:0:0:
463,268,258375,2,0,P|476:302|463:345,2,66.0000025177003,8|0|0,0:0|3:0|0:0,0:0:0:0:
299,322,258799,2,0,L|194:327,1,99.0000037765504,8|0,0:0|0:0,0:0:0:0:
188,337,259082,85,12,0:0:0:0:
20,264,259224,1,0,0:0:0:0:
201,250,259365,1,8,0:0:0:0:
48,347,259507,1,0,0:0:0:0:
188,236,259649,22,0,P|197:189|186:153,1,66.0000025177003,8|8,0:0|0:0,0:0:0:0:
168,86,259932,2,0,P|152:53|120:31,1,66.0000025177003,8|8,0:0|0:0,0:0:0:0:
44,51,260215,102,0,L|188:42,1,132.000005035401,4|0,3:2|0:0,0:0:0:0:
268,60,260639,1,8,0:0:0:0:
481,114,260781,2,0,L|337:105,1,132.000005035401,0|8,3:0|0:0,0:0:0:0:
64,203,261347,22,0,P|48:270|86:339,1,132.000005035401,8|0,3:2|0:0,0:0:0:0:
226,313,261771,2,0,P|242:246|204:177,1,132.000005035401,8|0,0:0|0:0,0:0:0:0:
146,257,262196,1,8,0:0:0:0:
146,257,262479,86,0,P|224:251|293:253,1,132.000005035401,4|0,0:0|3:0,0:0:0:0:
317,116,262903,2,0,P|384:117|463:131,1,132.000005035401,8|0,0:0|0:0,0:0:0:0:
483,262,263328,1,0,3:0:0:0:
483,262,263611,86,0,L|495:195,1,66.0000025177003,2|0,3:1|0:0,0:0:0:0:
347,290,263894,2,0,L|358:354,1,66.0000025177003,2|8,3:1|0:0,0:0:0:0:
223,201,264177,2,0,L|235:134,1,66.0000025177003,2|0,3:1|0:0,0:0:0:0:
87,229,264460,2,0,L|98:293,1,66.0000025177003,8|0,0:0|0:0,0:0:0:0:
170,360,264743,102,0,P|244:331|265:276,1,132.000005035401,6|0,0:0|0:0,0:0:0:0:
359,49,265309,2,0,P|351:131|352:204,1,132.000005035401,2|8,0:0|0:0,0:0:0:0:
408,268,265733,1,0,0:0:0:0:
342,181,265875,2,0,P|343:115|351:50,1,132.000005035401,0|0,3:0|3:0,0:0:0:0:
153,49,266441,22,0,P|161:131|160:204,1,132.000005035401,6|8,0:0|0:0,0:0:0:0:
104,268,266865,1,8,0:0:0:0:
169,181,267007,2,0,P|168:115|161:50,1,132.000005035401,0|0,3:0|3:0,0:0:0:0:
20,60,267432,2,0,P|20:125|28:191,1,132.000005035401,8|0,0:0|0:0,0:0:0:0:
104,268,267856,1,2,3:1:0:0:
104,268,267927,1,2,3:1:0:0:
104,268,267998,1,2,3:1:0:0:
43,332,268139,69,12,0:0:0:0:
191,270,268281,1,8,0:0:0:0:
321,312,268422,1,0,3:0:0:0:
469,250,268564,1,8,0:0:0:0:
465,365,268705,54,0,P|420:346|404:321,1,66.0000025177003,0|0,3:0|0:0,0:0:0:0:
350,230,268988,2,0,P|344:187|346:160,1,66.0000025177003,8|0,0:0|0:0,0:0:0:0:
485,92,269271,70,0,P|464:129|441:139,1,66.0000025177003,4|0,0:0|0:0,0:0:0:0:
304,46,269554,2,0,P|325:9|348:-1,1,66.0000025177003,0|8,3:0|0:0,0:0:0:0:
394,66,269837,1,0,0:0:0:0:
92,78,270120,2,0,L|222:74,1,99.0000037765504,8|0,0:0|0:0,0:0:0:0:
16,27,270403,1,0,3:0:0:0:
16,27,270686,21,0,3:0:0:0:
104,158,270828,1,8,0:0:0:0:
266,111,270969,2,0,P|279:72|277:39,1,66.0000025177003,0|0,0:0|0:0,0:0:0:0:
454,9,271252,2,0,P|476:62|458:151,1,132.000005035401,8|4,0:0|0:0,0:0:0:0:
122,235,271818,5,0,3:0:0:0:
226,215,271960,1,8,0:0:0:0:
188,313,272101,2,0,P|153:318|109:314,1,66.0000025177003,0|0,3:0|0:0,0:0:0:0:
331,249,272384,2,0,P|366:244|410:248,1,66.0000025177003,8|0,0:0|0:0,0:0:0:0:
495,375,272667,2,0,P|514:297|499:178,1,198.000007553101,4|0,0:0|0:0,0:0:0:0:
402,140,273233,86,0,P|343:149|316:163,1,66.0000025177003,8|0,0:0|0:0,0:0:0:0:
147,220,273516,2,0,P|206:229|233:243,1,66.0000025177003,0|0,3:0|0:0,0:0:0:0:
27,292,273799,102,0,P|48:255|71:245,1,66.0000025177003,12|0,0:0|0:0,0:0:0:0:
208,338,274082,2,0,P|187:375|164:385,1,66.0000025177003,0|8,3:0|0:0,0:0:0:0:
118,318,274365,1,0,3:0:0:0:
420,306,274648,2,0,L|290:310,1,99.0000037765504,8|0,0:0|0:0,0:0:0:0:
496,357,274931,1,4,3:2:0:0:
496,357,275215,21,0,3:0:0:0:
412,228,275356,1,8,0:0:0:0:
472,102,275498,2,0,P|477:66|468:33,1,66.0000025177003,8|0,0:0|0:0,0:0:0:0:
317,31,275781,2,0,P|306:65|340:153,1,132.000005035401,8|4,0:0|0:0,0:0:0:0:
40,102,276347,6,0,P|35:66|44:33,1,66.0000025177003,2|0,0:1|0:0,0:0:0:0:
195,31,276630,2,0,P|206:65|172:153,1,132.000005035401,0|0,3:0|3:0,0:0:0:0:
84,182,277054,1,0,0:0:0:0:
302,360,277196,54,0,L|371:351,1,66.0000025177003,8|0,3:2|0:0,0:0:0:0:
197,269,277479,2,0,L|128:260,1,66.0000025177003,8|0,0:0|0:0,0:0:0:0:
435,200,277762,2,0,P|471:142|448:15,1,198.000007553101,8|0,0:0|0:0,0:0:0:0:
289,121,278328,5,4,0:0:0:0:
289,121,278611,2,0,L|305:206,1,66.0000025177003,2|0,0:0|0:0,0:0:0:0:
317,305,278894,2,2,B|212:344|235:256|126:301,1,198.000007553101,8|2,0:0|0:1,0:0:0:0:
334,51,279460,2,0,P|367:90|369:119,1,66.0000025177003,2|8,0:0|0:0,0:0:0:0:
205,156,279743,2,0,P|200:98|263:32,2,132.000005035401,4|8|2,3:0|0:0|0:0,0:0:0:0:
317,305,280450,2,0,L|326:358,1,33.0000012588501,0|0,1:0|1:0,0:0:0:0:
194,358,280592,22,2,B|221:287|221:287|392:256|392:256|453:310,1,330.000012588501,4|2,3:0|0:1,0:0:0:0:
501,184,281441,1,2,0:0:0:0:
446,108,281582,1,0,0:0:0:0:
498,31,281724,2,0,L|421:13,1,66.0000025177003,2|8,3:2|0:0,0:0:0:0:
149,20,282007,2,0,L|213:35,1,66.0000025177003,0|0,3:0|0:0,0:0:0:0:
304,53,282290,1,12,0:0:0:0:
242,122,282432,1,0,0:0:0:0:
287,201,282573,1,12,0:0:0:0:
262,319,282715,2,0,L|269:286,1,33.0000012588501,0|0,1:0|1:0,0:0:0:0:
287,201,282856,5,4,3:0:0:0:
138,337,283139,2,2,P|99:353|54:352,1,66.0000025177003,2|2,0:1|0:1,0:0:0:0:
0,144,283422,2,2,P|72:206|165:185,1,198.000007553101,8|2,0:0|0:1,0:0:0:0:
207,103,283988,2,0,L|192:22,1,66.0000025177003,2|8,0:0|0:0,0:0:0:0:
287,201,284271,2,0,L|317:344,2,132.000005035401,4|12|2,3:0|0:0|0:0,0:0:0:0:
344,12,284979,2,0,L|336:44,1,33.0000012588501,0|0,1:0|1:0,0:0:0:0:
411,192,285120,86,0,L|396:119,1,74.8000014266968,4|0,3:0|0:0,0:0:0:0:
303,339,285403,2,0,L|368:302,1,74.8000014266968,4|0,3:0|0:0,0:0:0:0:
130,283,285686,2,0,L|185:333,1,74.8000014266968,8|0,0:2|0:0,0:0:0:0:
130,100,285969,2,0,L|99:168,1,74.8000014266968,2|8,0:0|0:0,0:0:0:0:
304,44,286252,85,8,0:0:0:0:
308,58,286323,1,0,0:0:0:0:
312,72,286394,1,8,0:0:0:0:
316,86,286465,1,0,0:0:0:0:
320,100,286535,1,8,0:0:0:0:
512,158,286677,1,8,0:0:0:0:
407,281,286818,1,8,0:0:0:0:
246,231,286960,1,0,1:0:0:0:
398,194,287101,1,0,1:0:0:0:
327,261,287243,1,0,1:0:0:0:
353,346,287384,5,4,0:0:0:0:
353,346,287667,2,2,P|406:367|438:358,1,66.0000025177003,0|0,0:1|3:1,0:0:0:0:
246,231,287950,2,2,P|161:214|81:291,1,198.000007553101,10|2,0:0|0:1,0:0:0:0:
327,261,288516,2,2,P|328:207|313:181,1,66.0000025177003,0|8,3:0|0:0,0:0:0:0:
188,112,288799,2,0,P|235:135|266:131,1,66.0000025177003,4|0,3:0|0:0,0:0:0:0:
379,55,289082,2,0,P|335:84|322:113,1,66.0000025177003,8|0,0:0|0:0,0:0:0:0:
327,261,289365,1,2,0:0:0:0:
404,205,289507,2,0,L|450:190,1,33.0000012588501,0|0,1:0|1:0,0:0:0:0:
512,324,289649,22,2,B|400:288|400:288|320:340|320:340|208:304,1,330.000012588501,2|2,3:1|0:1,0:0:0:0:
64,294,290498,1,2,0:0:0:0:
122,360,290639,1,4,3:0:0:0:
139,253,290781,2,0,L|122:169,1,66.0000025177003,2|8,3:2|0:0,0:0:0:0:
0,96,291064,2,0,L|81:123,1,66.0000025177003,0|0,3:0|0:0,0:0:0:0:
233,32,291347,1,12,0:0:0:0:
157,99,291488,1,0,0:0:0:0:
252,135,291630,1,8,0:0:0:0:
122,10,291771,2,0,L|84:-2,1,33.0000012588501,0|0,1:0|1:0,0:0:0:0:
233,32,291913,5,4,3:0:0:0:
233,32,292196,2,2,L|296:11,1,66.0000025177003,2|2,0:2|3:1,0:0:0:0:
381,100,292479,2,2,B|424:215|343:181|377:291,1,198.000007553101,10|4,0:0|3:0,0:0:0:0:
252,135,293045,2,0,L|315:156,1,66.0000025177003,2|8,0:0|0:0,0:0:0:0:
512,225,293328,2,0,L|449:246,1,66.0000025177003,2|0,3:2|0:0,0:0:0:0:
239,324,293611,2,0,L|302:345,1,66.0000025177003,12|0,0:0|0:0,0:0:0:0:
376,290,293894,1,2,0:1:0:0:
370,276,294035,1,2,0:1:0:0:
356,15,294177,54,0,L|381:100,1,88,12|0,0:0|0:0,0:0:0:0:
239,234,294460,1,0,3:0:0:0:
405,183,294601,1,12,0:0:0:0:
122,106,294743,6,0,L|97:190,1,88,2|0,0:0|3:0,0:0:0:0:
239,324,295026,1,12,0:0:0:0:
73,273,295167,1,0,0:0:0:0:
324,209,295309,101,4,3:0:0:0:
155,298,295450,1,0,0:0:0:0:
155,298,295521,1,0,0:0:0:0:
155,298,295592,1,0,0:0:0:0:
279,34,295733,1,8,0:0:0:0:
360,357,295875,5,4,1:3:0:0:
405,183,296016,1,8,0:0:0:0:
152,357,296158,101,0,1:0:0:0:
107,183,296299,1,0,1:0:0:0:
35,285,296441,22,0,L|222:267,1,158.399995166016,2|0,0:1|0:1,0:0:0:0:
192,269,297007,2,0,L|155:215,1,52.7999983886719,2|0,0:1|0:1,0:0:0:0:
100,140,297290,6,0,L|22:310,1,158.399995166016,2|2,0:1|0:0,0:0:0:0:
34,284,297856,1,2,0:1:0:0:
100,140,298139,1,2,0:1:0:0:
192,269,298422,1,2,0:1:0:0:
443,299,298705,102,0,L|256:281,1,158.399995166016,2|2,0:1|0:1,0:0:0:0:
286,283,299271,2,0,L|323:229,1,52.7999983886719,2|0,0:1|0:0,0:0:0:0:
378,154,299554,6,0,L|455:324,1,158.399995166016,2|2,0:1|0:0,0:0:0:0:
444,298,300120,1,2,0:1:0:0:
378,154,300403,1,2,0:1:0:0:
286,283,300686,1,0,0:0:0:0:
52,165,300969,102,0,L|239:147,1,158.399995166016,2|2,0:1|0:1,0:0:0:0:
209,149,301535,2,0,L|172:95,1,52.7999983886719,2|0,0:1|0:0,0:0:0:0:
117,20,301818,6,0,L|39:190,1,158.399995166016,2|2,0:1|0:0,0:0:0:0:
51,164,302384,1,0,0:1:0:0:
117,20,302667,1,2,0:1:0:0:
209,149,302950,1,0,0:0:0:0:
463,29,303233,102,0,L|353:33,1,105.599996777344,0|2,0:1|0:1,0:0:0:0:
386,168,303799,6,0,L|466:24,1,158.399995166016,2|2,0:1|0:0,0:0:0:0:
306,37,304365,102,0,L|358:116,1,52.7999983886719,2|0,0:1|0:0,0:0:0:0:
386,168,304649,1,2,0:1:0:0:
464,30,304932,6,0,L|266:38,1,158.399995166016,2|2,0:1|0:1,0:0:0:0:
54,52,305498,38,0,B|7:150|7:150|107:145|107:145|91:120,1,237.599992749024,2|2,0:0|0:1,0:0:0:0:
54,52,306064,1,2,0:1:0:0:
207,359,306347,54,0,B|253:260|253:260|153:265|153:265|167:289,1,237.599992749024,2|2,0:0|0:1,0:0:0:0:
207,359,306913,1,2,0:1:0:0:
384,62,307196,54,0,B|446:66|446:66|377:182,1,176,2|0,0:0|0:0,0:0:0:0:
387,163,307479,2,0,B|327:60|327:60|415:64,1,176,2|0,0:0|0:0,0:0:0:0:
486,172,307762,54,0,B|381:336|381:336|277:149,1,396.000015106202,2|0,0:0|0:0,0:0:0:0:
283,160,308328,2,0,L|406:165,1,105.599996777344,2|0,0:0|0:0,0:0:0:0:
485,171,308611,54,0,B|388:-4|388:-4|283:160,1,396.000015106202,2|0,0:0|0:0,0:0:0:0:
283,160,309177,2,0,L|407:166,1,105.599996777344,2|0,0:0|0:0,0:0:0:0:
485,171,309460,1,2,0:0:0:0:
283,160,309743,1,0,0:0:0:0:
485,171,310026,54,0,L|240:157,1,201.960009090912,2|0,0:0|0:0,0:0:0:0:
373,339,310592,54,0,L|510:132,1,201.959991409859,2|0,0:0|0:0,0:0:0:0:
283,159,310875,54,0,L|393:378,1,201.960009090912,2|0,0:0|0:0,0:0:0:0:
485,171,311441,54,0,L|235:155,1,201.959991409859,2|0,0:0|0:0,0:0:0:0:
373,339,311724,1,2,0:0:0:0:
384,63,312007,1,0,0:0:0:0:
121,219,312290,102,0,B|32:251|32:251|57:-7|57:-7|253:166,1,616,2|0,0:0|0:0,0:0:0:0:
5,341,313422,6,0,B|321:224|321:224|57:-7|57:-7|32:251|32:251|179:198|179:198|115:141,1,1188.00004531861,2|0,0:0|0:0,0:0:0:0:
