osu file format v14

[General]
AudioFilename: audio.mp3
AudioLeadIn: 0
PreviewTime: 40480
Countdown: 0
SampleSet: Soft
StackLeniency: 0.7
Mode: 2
LetterboxInBreaks: 0
WidescreenStoryboard: 0

[Editor]
DistanceSpacing: 3.1
BeatDivisor: 4
GridSize: 32
TimelineZoom: 1.9

[Metadata]
Title:Tsuki to Hanataba
TitleUnicode:月と花束
Artist:Sayuri
ArtistUnicode:さユり
Creator:e0486
Version:Rose
Source:Fate/EXTRA Last Encore
Tags:Neoskylove ending tv size testo
BeatmapID:1559144
BeatmapSetID:738781

[Difficulty]
HPDrainRate:5
CircleSize:4
OverallDifficulty:6
ApproachRate:9.5
SliderMultiplier:1.9
SliderTickRate:1

[Events]
//Background and Video events
0,0,"xw5xnNX.jpg",0,0
//Break Periods
//Storyboard Layer 0 (Background)
//Storyboard Layer 1 (Fail)
//Storyboard Layer 2 (Pass)
//Storyboard Layer 3 (Foreground)
//Storyboard Sound Samples

[TimingPoints]
14,545.454545454546,4,2,1,60,1,0
559,-111.111111111111,4,2,1,60,0,0
1104,-83.3333333333333,4,2,1,60,0,0
18538,342.857142857143,4,3,1,60,1,0
19052,-117.647058823529,4,2,1,60,0,0
29509,-105.263157894737,4,2,1,60,0,0
34995,-117.64705882353,4,2,1,60,0,0
39795,-200,4,2,1,60,0,0
40480,-90.9090909090909,4,2,1,75,0,1
45966,-90.9090909090909,4,2,1,75,0,0
51452,-90.9090909090909,4,2,1,75,0,1
56938,-90.9090909090909,4,2,1,75,0,0
65166,-90.9090909090909,4,2,1,75,0,1
67909,-90.9090909090909,4,2,1,75,0,0
70652,-90.9090909090909,4,2,1,75,0,1
73738,-90.9090909090909,4,2,1,75,0,0

[HitObjects]
95,113,559,6,0,P|128:160|160:160,1,85.4999973907472
224,50,1104,2,0,P|288:96|288:128,1,113.999996520996,2|0,0:0|0:0,0:0:0:0:
94,146,1650,1,0,0:0:0:0:
223,240,1923,1,0,0:0:0:0:
48,306,2195,2,0,P|94:345|172:346,1,113.999996520996,2|0,0:0|0:0,0:0:0:0:
416,288,2741,5,0,0:0:0:0:
256,192,3014,1,0,0:0:0:0:
160,192,3286,2,0,P|128:128|160:96,1,113.999996520996,2|0,0:0|0:0,0:0:0:0:
320,64,3832,1,0,0:0:0:0:
160,0,4104,1,0,0:0:0:0:
384,0,4377,2,0,P|313:-6|271:4,1,113.999996520996,2|0,0:0|0:0,0:0:0:0:
110,194,4923,6,0,P|158:237|207:245,1,113.999996520996
415,148,5468,2,0,P|356:111|295:108,1,113.999996520996,2|0,0:0|0:0,0:0:0:0:
126,147,6014,1,0,0:0:0:0:
288,242,6286,1,0,0:0:0:0:
128,320,6559,2,0,P|192:352|256:352,1,113.999996520996,2|0,0:0|0:0,0:0:0:0:
320,32,7104,1,0,0:0:0:0:
160,224,7377,1,0,0:0:0:0:
416,242,7650,2,0,P|384:192|320:160,1,113.999996520996,2|0,0:0|0:0,0:0:0:0:
150,224,8195,2,0,L|267:223,1,113.999996520996
427,308,8741,2,0,L|310:308,1,113.999996520996,2|0,0:0|0:0,0:0:0:0:
220,347,9286,6,0,L|346:346,1,113.999996520996
114,347,9832,2,0,L|-19:347,1,113.999996520996,2|0,0:0|0:0,0:0:0:0:
217,290,10377,2,0,L|257:169,1,113.999996520996
77,45,10923,2,0,L|23:170,1,113.999996520996,2|0,0:0|0:0,0:0:0:0:
171,358,11468,6,0,P|228:375|299:377,1,113.999996520996
449,193,12014,2,0,B|482:147|482:147|418:179|321:97,1,227.999993041992,2|0,0:0|0:0,0:0:0:0:
192,128,12832,1,0,0:0:0:0:
320,224,13104,2,0,P|256:288|192:288,1,113.999996520996,2|0,0:0|0:0,0:0:0:0:
32,224,13650,5,0,0:0:0:0:
192,160,13923,1,0,0:0:0:0:
128,352,14195,1,2,0:0:0:0:
32,96,14468,1,0,0:0:0:0:
192,32,14741,6,0,P|133:18|75:40,1,113.999996520996
243,350,15286,2,0,P|297:366|352:352,1,113.999996520996,2|0,0:0|0:0,0:0:0:0:
448,128,15832,2,0,P|389:114|331:136,1,113.999996520996
268,243,16377,1,2,0:0:0:0:
256,192,16514,12,4,18538,0:0:0:0:
384,160,18880,5,0,3:0:0:0:
275,257,19052,2,0,P|329:288|381:289,1,80.750001540184,0|0,0:0|3:0,0:0:0:0:
480,96,19395,2,0,P|429:70|311:67,1,161.500003080368
192,128,19909,6,0,B|160:192|224:224|160:320,1,161.500003080368,4|0,3:2|3:0,0:0:0:0:
64,352,20423,1,0,0:0:0:0:
192,352,20595,2,0,L|288:352,1,80.750001540184,0|0,3:0|0:0,0:0:0:0:
448,288,20938,2,0,L|352:288,1,80.750001540184,0|0,3:0|0:0,0:0:0:0:
192,288,21280,6,0,P|160:224|192:128,1,161.500003080368,4|0,3:0|0:0,3:0:0:0:
288,96,21795,1,0,0:0:0:0:
416,192,21966,2,0,L|442:285,1,80.750001540184,0|0,3:0|0:0,0:0:0:0:
370,345,22309,2,0,L|345:261,1,80.750001540184,0|0,3:0|0:0,0:0:0:0:
165,40,22652,6,0,P|252:23|324:42,1,161.500003080368,4|0,3:2|3:0,0:0:0:0:
160,192,23166,1,0,0:0:0:0:
288,128,23338,2,0,P|320:160|320:224,1,80.750001540184,0|0,3:0|0:0,0:0:0:0:
192,288,23680,2,0,P|175:340|198:373,1,80.750001540184,0|0,3:0|0:0,0:0:0:0:
352,352,24023,6,0,P|308:350|246:358,1,80.750001540184,4|0,3:2|0:0,0:0:0:0:
96,352,24366,1,0,3:0:0:0:
169,275,24538,2,0,B|234:238|264:266|337:256,1,161.500003080368
192,128,25052,1,0,3:0:0:0:
400,199,25223,1,0,0:0:0:0:
400,199,25309,1,0,0:0:0:0:
400,199,25395,1,4,3:0:0:0:
205,204,25738,6,0,L|301:204,1,80.750001540184,0|0,3:0|0:0,0:0:0:0:
481,313,26080,2,0,L|347:313,1,121.125002310276,0|0,3:0|0:0,0:0:0:0:
160,317,26423,2,0,L|256:317,1,80.750001540184,0|0,3:0|0:0,0:0:0:0:
383,192,26766,6,0,P|352:160|256:128,1,121.125002310276,4|0,3:2|0:0,0:0:0:0:
142,319,27109,2,0,P|176:362|208:365,1,80.750001540184,0|0,3:0|0:0,0:0:0:0:
372,217,27452,6,0,L|249:183,1,121.125002310276,0|0,3:0|0:0,0:0:0:0:
96,272,27795,2,0,L|193:306,1,80.750001540184,0|0,3:0|0:0,0:0:0:0:
275,375,28138,6,0,L|130:374,1,121.125002310276,4|0,3:2|0:0,0:0:0:0:
46,373,28480,2,0,P|32:320|32:288,1,80.750001540184,0|0,3:0|0:0,0:0:0:0:
224,128,28823,1,0,3:0:0:0:
320,320,28995,1,2,3:0:0:0:
32,288,29166,1,2,3:0:0:0:
146,239,29509,6,0,B|192:160|192:160|128:64,1,180.49999518013,4|0,0:0|3:0,0:0:0:0:
0,160,30023,1,8,0:0:0:0:
125,313,30195,2,0,P|175:327|223:324,1,90.2499975900651,0|0,0:0|3:0,0:0:0:0:
303,98,30538,1,8,0:0:0:0:
128,192,30709,1,0,0:0:0:0:
320,288,30880,6,0,P|288:320|160:320,1,180.49999518013,4|0,3:0|0:0,0:0:0:0:
256,64,31395,1,8,0:0:0:0:
96,128,31566,2,0,L|192:64,1,90.2499975900651,0|0,0:0|3:0,0:0:0:0:
416,128,31909,2,0,L|320:64,1,90.2499975900651,8|0,0:0|0:0,0:0:0:0:
64,192,32252,6,0,B|128:224|160:192|256:192,1,180.49999518013,4|0,0:0|3:0,0:0:0:0:
384,256,32766,1,8,0:0:0:0:
128,320,32938,2,0,P|188:352|230:350,1,90.2499975900651,0|0,0:0|3:0,0:0:0:0:
384,256,33280,2,0,P|347:230|303:222,1,90.2499975900651,8|0,0:0|0:0,0:0:0:0:
191,267,33623,2,0,B|224:192|160:192|215:103,1,135.374996385098,4|0,3:0|0:0,0:0:0:0:
320,96,33966,1,0,3:0:0:0:
96,192,34138,1,8,0:0:0:0:
352,320,34309,5,0,0:0:0:0:
160,64,34480,1,0,3:0:0:0:
224,352,34652,1,8,0:0:0:0:
32,320,34823,1,0,0:0:0:0:
128,224,34995,6,0,P|141:181|115:132,1,80.750001540184,0|0,1:0|0:0,0:0:0:0:
256,64,35338,1,0,3:0:0:0:
485,357,35509,2,0,P|417:385|333:339,1,161.500003080368,8|0,0:0|3:0,0:0:0:0:
416,256,36023,2,0,L|440:170,1,80.750001540184,8|0,0:0|0:0,0:0:0:0:
192,128,36366,5,0,1:0:0:0:
382,30,36538,1,0,0:0:0:0:
320,256,36709,1,0,0:0:0:0:
236,23,36880,1,8,0:0:0:0:
444,163,37052,5,0,3:0:0:0:
320,224,37223,1,0,3:0:0:0:
448,320,37395,2,0,P|416:352|352:352,1,80.750001540184,8|0,0:0|0:0,0:0:0:0:
96,352,37738,5,12,0:0:0:0:
384,256,37909,1,0,3:0:0:0:
113,129,38080,1,0,0:0:0:0:
401,39,38252,1,0,3:0:0:0:
128,192,38423,1,2,0:0:0:0:
352,320,38595,1,0,3:0:0:0:
160,352,38766,2,0,P|211:374|260:375,1,80.750001540184,8|0,0:0|0:0,0:0:0:0:
288,96,39109,5,2,1:0:0:0:
192,320,39280,1,2,1:0:0:0:
416,256,39452,1,2,1:0:0:0:
288,224,39623,1,2,1:0:0:0:
160,224,39795,2,0,P|115:263|160:320,1,142.5
346,321,40480,6,0,L|282:321,1,52.2500015945435,4|0,3:2|0:0,0:0:0:0:
225,322,40652,1,0,1:0:0:0:
128,320,40823,1,0,3:0:0:0:
416,320,40995,1,8,0:0:0:0:
64,320,41166,1,0,3:0:0:0:
448,320,41338,1,0,0:0:0:0:
256,192,41509,2,0,L|384:192,1,104.500003189087,8|0,0:0|0:0,0:0:0:0:
512,192,41852,6,0,L|448:192,1,52.2500015945435,4|0,3:2|0:0,0:0:0:0:
408,192,42023,1,0,2:0:0:0:
192,128,42195,1,0,3:0:0:0:
352,384,42366,1,8,0:0:0:0:
96,320,42538,1,0,3:0:0:0:
256,224,42709,1,0,0:0:0:0:
384,256,42880,2,0,P|431:207|432:162,1,104.500003189087,8|0,0:0|0:0,0:0:0:0:
32,192,43223,6,0,L|96:192,1,52.2500015945435,4|0,3:2|0:0,0:0:0:0:
160,192,43395,1,0,1:0:0:0:
320,192,43566,1,0,3:0:0:0:
192,32,43738,1,8,0:0:0:0:
96,128,43909,2,0,P|84:195|98:236,1,104.500003189087,0|0,3:0|0:0,0:0:0:0:
224,192,44252,2,0,P|241:253|221:303,1,104.500003189087,8|0,0:0|0:0,0:0:0:0:
22,335,44595,2,0,P|78:364|245:371,1,209.000006378174,4|0,3:2|3:0,0:0:0:0:
384,32,45109,6,0,P|330:20|268:37,1,104.500003189087,8|0,0:0|3:0,0:0:0:0:
128,128,45452,1,0,3:0:0:0:
192,160,45538,1,0,3:0:0:0:
256,192,45623,1,8,3:2:0:0:
320,224,45709,1,0,3:0:0:0:
256,192,45795,1,0,3:0:0:0:
192,160,45880,1,0,3:0:0:0:
39,205,45966,6,0,P|101:173|143:165,1,104.500003189087,4|0,3:2|0:0,0:0:0:0:
259,250,46309,1,0,3:0:0:0:
159,359,46480,2,0,P|109:345|64:320,1,104.500003189087,8|0,0:0|3:0,0:0:0:0:
384,64,46823,1,0,0:0:0:0:
160,224,46995,1,8,0:0:0:0:
416,320,47166,1,0,0:0:0:0:
256,160,47338,6,0,L|224:288,1,104.500003189087,0|0,3:0|0:0,0:0:0:0:
320,352,47680,2,0,L|352:224,1,104.500003189087,0|8,3:0|0:0,0:0:0:0:
288,64,48023,1,0,3:0:0:0:
448,256,48195,1,0,0:0:0:0:
224,288,48366,1,8,0:0:0:0:
384,352,48538,1,0,3:0:0:0:
342,376,48623,1,0,3:0:0:0:
306,384,48709,6,0,P|206:394|94:379,1,209.000006378174,4|0,3:2|3:0,3:0:0:0:
384,160,49223,1,8,0:0:0:0:
155,198,49395,6,0,L|180:327,1,104.500003189087,0|0,3:0|3:0,3:0:0:0:
416,320,49738,1,0,3:0:0:0:
256,128,49909,1,8,0:0:0:0:
97,239,50080,1,0,3:0:0:0:
128,256,50166,2,0,L|141:319,1,52.2500015945435,0|8,3:0|3:2,3:0:0:0:
352,288,50338,1,0,3:0:0:0:
321,305,50424,2,0,L|308:368,1,52.2500015945435,8|0,3:2|3:0,3:0:0:0:
0,377,50595,2,0,L|96:377,1,52.2500015945435,8|0,3:2|3:0,3:0:0:0:
512,377,50766,2,0,L|416:377,1,52.2500015945435,8|0,3:2|3:0,3:0:0:0:
160,384,50938,1,8,3:2:0:0:
128,320,51023,1,0,3:0:0:0:
96,256,51109,1,8,3:2:0:0:
192,256,51195,1,0,3:0:0:0:
224,320,51280,1,8,3:2:0:0:
256,384,51366,1,0,3:0:0:0:
320,192,51452,6,0,L|256:192,1,52.2500015945435,4|0,3:2|0:0,0:0:0:0:
160,224,51623,1,0,1:0:0:0:
320,320,51795,1,0,3:0:0:0:
128,384,51966,1,8,0:0:0:0:
303,260,52138,2,0,L|335:388,1,104.500003189087,0|0,3:0|0:0,0:0:0:0:
240,305,52480,2,0,L|215:204,1,104.500003189087,8|0,0:0|0:0,0:0:0:0:
384,128,52823,6,0,L|320:96,1,52.2500015945435,4|0,3:2|0:0,0:0:0:0:
224,96,52995,1,0,1:0:0:0:
32,160,53166,1,0,3:0:0:0:
192,224,53338,1,8,0:0:0:0:
32,320,53509,2,0,L|160:320,1,104.500003189087,0|0,3:0|0:0,0:0:0:0:
224,352,53852,2,0,L|96:352,1,104.500003189087,8|0,0:0|0:0,0:0:0:0:
416,352,54195,6,0,L|416:256,1,52.2500015945435,4|0,3:2|0:0,0:0:0:0:
288,224,54366,1,0,1:0:0:0:
448,96,54538,1,0,3:0:0:0:
224,32,54709,1,8,0:0:0:0:
105,234,54880,2,0,P|166:243|213:234,1,104.500003189087,0|0,3:0|0:0,0:0:0:0:
320,96,55223,1,8,0:0:0:0:
384,288,55395,1,8,3:0:0:0:
192,352,55566,6,0,L|183:239,1,104.500003189087,4|0,3:2|0:0,0:0:0:0:
288,96,55909,1,0,3:0:0:0:
320,128,55995,2,0,L|332:217,1,52.2500015945435,0|8,3:0|3:2,3:0:0:0:
128,224,56166,1,0,3:0:0:0:
160,256,56252,2,0,L|192:352,1,52.2500015945435,8|0,3:2|3:0,3:0:0:0:
281,375,56423,2,0,L|258:305,1,52.2500015945435,8|0,3:2|3:0,3:0:0:0:
128,32,56595,1,8,3:2:0:0:
154,14,56680,1,0,3:0:0:0:
186,8,56766,1,8,3:2:0:0:
213,8,56852,1,0,3:0:0:0:
352,96,56938,6,0,P|300:108|236:101,1,104.500003189087,4|0,3:2|0:0,0:0:0:0:
416,32,57280,1,0,3:0:0:0:
160,224,57452,2,0,P|236:237|278:227,1,104.500003189087,8|0,0:0|3:0,0:0:0:0:
185,113,57795,1,0,3:0:0:0:
320,352,57966,1,8,0:0:0:0:
96,192,58138,1,0,0:0:0:0:
257,279,58309,6,0,P|202:305|146:290,1,104.500003189087,4|0,3:2|0:0,0:0:0:0:
32,96,58652,2,0,P|83:90|128:115,1,104.500003189087,0|8,0:0|0:0,0:0:0:0:
0,224,58995,1,0,0:0:0:0:
191,258,59166,1,0,0:0:0:0:
416,192,59338,2,0,L|288:192,1,104.500003189087,8|0,0:0|0:0,0:0:0:0:
256,192,59680,6,0,L|384:192,1,104.500003189087,4|0,3:2|0:0,0:0:0:0:
448,192,60023,1,0,3:0:0:0:
192,192,60195,2,0,P|183:256|215:285,1,104.500003189087,8|0,0:0|3:0,0:0:0:0:
320,224,60538,1,0,0:0:0:0:
143,383,60709,2,0,P|87:391|43:373,1,104.500003189087,8|0,0:0|0:0,0:0:0:0:
229,128,61052,6,0,P|285:120|329:138,1,104.500003189087,4|0,3:2|0:0,0:0:0:0:
480,256,61395,1,0,3:0:0:0:
288,384,61566,2,0,L|272:263,1,104.500003189087,8|0,0:0|3:0,0:0:0:0:
384,64,61909,1,12,0:0:0:0:
96,192,62080,6,0,L|224:192,1,104.500003189087,8|0,0:0|3:0,0:0:0:0:
416,192,62423,2,0,L|288:192,1,104.500003189087,4|0,3:2|0:0,0:0:0:0:
160,96,62766,1,0,1:0:0:0:
384,288,62938,1,8,3:2:0:0:
160,352,63109,5,0,3:0:0:0:
320,96,63280,1,0,1:0:0:0:
64,224,63452,1,8,3:2:0:0:
224,288,63623,1,0,3:0:0:0:
32,384,63795,6,0,L|160:384,1,104.500003189087,4|0,3:2|0:0,0:0:0:0:
303,64,64138,1,0,0:0:0:0:
303,64,64223,2,0,L|384:64,1,52.2500015945435,0|8,0:0|3:2,0:0:0:0:
480,128,64395,1,0,3:0:0:0:
416,160,64480,2,0,L|480:160,1,52.2500015945435,8|0,3:2|3:0,3:0:0:0:
256,211,64652,2,0,L|169:227,1,52.2500015945435,8|0,3:2|3:0,3:0:0:0:
390,322,64823,2,0,L|477:338,1,52.2500015945435,8|0,3:2|3:0,3:0:0:0:
320,32,64995,1,8,3:2:0:0:
289,12,65080,1,0,3:0:0:0:
259,2,65166,6,0,P|207:-1|149:15,1,104.500003189087,4|0,3:2|0:0,0:0:0:0:
32,128,65509,1,0,3:0:0:0:
224,160,65680,2,0,B|299:241|299:241|192:320,1,209.000006378174,12|0,0:0|0:0,0:0:0:0:
64,320,66195,1,8,3:2:0:0:
384,352,66366,1,0,3:0:0:0:
276,274,66538,2,0,P|261:222|286:162,1,104.500003189087,0|0,3:0|0:0,0:0:0:0:
384,96,66880,1,0,3:0:0:0:
144,46,67052,1,8,0:0:0:0:
275,175,67223,6,0,P|218:190|169:189,1,104.500003189087,0|0,3:0|0:0,0:0:0:0:
32,224,67566,1,8,0:0:0:0:
320,256,67738,1,0,3:0:0:0:
96,352,67909,6,0,P|153:362|219:355,1,104.500003189087,4|0,3:2|0:0,0:0:0:0:
384,288,68252,1,0,3:0:0:0:
256,224,68423,2,0,B|352:160|384:192|480:160,1,209.000006378174,12|0,0:0|0:0,0:0:0:0:
256,32,68938,1,0,3:0:0:0:
494,84,69109,1,8,3:2:0:0:
192,127,69280,6,0,L|183:239,1,104.500003189087,4|8,0:0|0:0,0:0:0:0:
64,288,69623,1,0,3:0:0:0:
352,320,69795,1,8,3:0:0:0:
352,320,69880,1,0,3:0:0:0:
224,224,69966,2,0,L|256:148,1,52.2500015945435,8|0,3:0|3:0,3:0:0:0:
384,160,70138,2,0,L|352:84,1,52.2500015945435,8|0,3:0|3:0,3:0:0:0:
160,96,70309,1,8,3:0:0:0:
193,63,70395,1,0,3:0:0:0:
239,55,70480,1,8,3:0:0:0:
279,56,70566,1,0,3:0:0:0:
32,192,70652,1,14,3:0:0:0:
256,192,70738,12,0,73738,0:0:0:0:
