osu file format v14

[General]
AudioFilename: audio.mp3
AudioLeadIn: 0
PreviewTime: 732
Countdown: 1
SampleSet: None
StackLeniency: 0.7
Mode: 0
LetterboxInBreaks: 0
WidescreenStoryboard: 1

[Editor]
Bookmarks: 1278,16550,18724,29695,40666,51638,70838,73210,76324
DistanceSpacing: 2.2
BeatDivisor: 4
GridSize: 4
TimelineZoom: 1.5

[Metadata]
Title:Tsuki to Hanataba
TitleUnicode:月と花束
Artist:Sayuri
ArtistUnicode:さユり
Creator:Kin
Version:EXTRA
Source:Fate/EXTRA Last Encore
Tags:-アニメ「Fate/EXTRA Last Encore」EDver.- Ending “酸欠少女 Sanketsu Shoujo
BeatmapID:1571312
BeatmapSetID:745315

[Difficulty]
HPDrainRate:6
CircleSize:4.3
OverallDifficulty:8.4
ApproachRate:9
SliderMultiplier:0.899999999999999
SliderTickRate:1

[Events]
//Background and Video events
0,0,"send nudes.jpg",0,0
Video,-1080,"video kek.avi"
//Break Periods
//Storyboard Layer 0 (Background)
//Storyboard Layer 1 (Fail)
//Storyboard Layer 2 (Pass)
//Storyboard Layer 3 (Foreground)
//Storyboard Sound Samples

[TimingPoints]
1278,545.454545454546,4,2,1,35,1,0
16550,588.235294117647,4,2,1,35,1,0
16550,-92.7299703264095,4,2,1,35,0,0
18724,342.857142857143,4,2,1,70,1,0
29695,-100,4,2,1,80,0,0
39466,-88.2355536339813,4,2,1,80,0,0
39638,-78.9477839357049,4,2,1,80,0,0
39809,-71.4285714285714,4,2,1,80,0,0
40666,-100,4,2,1,100,0,1
50266,-100,4,2,1,100,0,0
51638,-100,4,2,1,100,0,1
70838,-100,4,2,1,100,0,0
70924,-100,4,2,1,70,0,0
72895,315.789473684211,4,2,1,70,1,8
72895,-108.571738776396,4,2,1,70,0,8
73210,342.857142857143,4,2,1,70,1,8
73552,312.5,4,2,1,70,1,0
73552,-109.72130787799,4,2,1,70,0,0
74177,337.078651685393,4,2,1,70,1,8
74177,-101.714913440609,4,2,1,70,0,8
75525,337.078651685393,4,2,1,70,1,8
75525,-101.714913440609,4,2,1,70,0,8
75779,545.454545454546,4,2,1,40,1,8
76325,545.454545454546,4,2,1,40,1,0
82597,652.173913043478,4,2,1,40,1,8
82597,-83.6400133824021,4,2,1,40,0,8
82923,643.776824034335,4,2,1,40,1,0
82923,-84.7314014573801,4,2,1,40,0,0
83888,681.818181818182,4,2,1,40,1,8
83888,-133.333333333333,4,2,1,40,0,8

[HitObjects]
228,116,1278,6,0,P|252:120|292:116,1,45
376,88,1823,1,0,0:0:0:0:
396,84,2096,1,0,0:0:0:0:
284,200,2368,2,0,P|276:236|276:264,1,45
312,348,2914,5,0,0:0:0:0:
316,368,3187,1,0,0:0:0:0:
448,276,3459,2,0,P|456:240|456:212,1,45
428,128,4005,1,0,0:0:0:0:
424,108,4278,1,0,0:0:0:0:
268,148,4550,2,0,P|240:152|212:148,1,45
324,48,5096,5,0,0:0:0:0:
352,152,5368,1,0,0:0:0:0:
324,256,5641,1,0,0:0:0:0:
352,360,5914,1,0,0:0:0:0:
428,284,6187,1,0,0:0:0:0:
264,328,6459,1,0,0:0:0:0:
308,164,6732,1,0,0:0:0:0:
428,284,7005,1,0,0:0:0:0:
228,232,7278,1,0,0:0:0:0:
372,84,7550,1,0,0:0:0:0:
428,284,7823,2,0,B|392:279|392:279|382:283|382:283|373:277|373:277|336:272,1,89.9999999999999
228,232,8641,5,0,0:0:0:0:
428,284,8914,2,0,B|394:269|394:269|383:271|383:271|376:263|376:263|342:248,1,89.9999999999999
292,96,9732,5,0,0:0:0:0:
452,128,10005,1,0,0:0:0:0:
380,212,10278,1,0,0:0:0:0:
388,40,10550,1,0,0:0:0:0:
452,128,10823,1,0,0:0:0:0:
292,96,11096,2,0,L|244:100,1,45
152,52,11641,5,0,0:0:0:0:
76,196,11914,2,0,P|72:232|76:260,1,45
40,84,12459,1,0,0:0:0:0:
184,160,12732,1,0,0:0:0:0:
152,52,13005,1,0,0:0:0:0:
76,196,13278,2,0,P|72:232|76:260,1,45
104,344,13823,5,0,0:0:0:0:
112,364,14096,1,0,0:0:0:0:
236,256,14368,1,0,0:0:0:0:
72,240,14641,1,0,0:0:0:0:
160,176,14914,1,0,0:0:0:0:
236,256,15187,1,0,0:0:0:0:
72,240,15459,1,0,0:0:0:0:
264,152,15732,1,0,0:0:0:0:
60,132,16005,1,0,0:0:0:0:
236,256,16278,1,0,0:0:0:0:
172,52,16550,6,0,B|168:76|152:96|152:96|164:108|164:108|140:136|144:168|160:192,1,145.58399605473
272,172,17726,2,0,B|292:160|292:160|216:152,1,97.0559973698203
68,140,18724,5,0,0:0:0:0:
256,80,18895,1,0,0:0:0:0:
172,12,19066,1,0,0:0:0:0:
168,16,19238,2,0,P|156:36|148:68,1,45
200,212,19581,2,0,P|214:230|242:248,1,45
68,140,19924,1,0,0:0:0:0:
220,92,20095,6,0,B|253:94|253:94|264:91|264:91|276:94|276:94|309:91,2,89.9999999999999
124,44,20952,1,0,0:0:0:0:
188,196,21124,2,0,P|196:224|196:256,1,45
68,140,21466,5,0,0:0:0:0:
256,80,21638,1,0,0:0:0:0:
152,56,21809,2,0,B|159:93|159:93|158:103|158:103|164:109|164:109|176:148,1,89.9999999999999
272,188,22324,1,0,0:0:0:0:
108,172,22495,2,0,P|84:173|60:178,1,45
256,96,22838,2,0,B|259:62|259:62|263:53|263:53|260:45|260:45|256:8,2,89.9999999999999
188,192,23695,1,0,0:0:0:0:
348,168,23866,2,0,L|400:172,1,45
284,292,24209,5,0,0:0:0:0:
256,96,24381,1,0,0:0:0:0:
340,164,24552,1,0,0:0:0:0:
348,168,24724,2,0,L|400:172,1,45
192,132,25066,2,0,P|172:120|152:100,1,45
292,56,25409,1,0,0:0:0:0:
248,232,25581,6,0,P|244:264|248:292,1,45
356,92,25924,2,0,B|379:66|379:66|382:57|382:57|393:58|393:58|440:40,1,89.9999999999999
448,148,26438,1,0,0:0:0:0:
272,40,26609,2,0,L|216:48,1,45
120,24,26952,5,0,0:0:0:0:
264,148,27124,1,0,0:0:0:0:
272,40,27295,2,0,L|216:48,1,45
140,112,27638,2,0,L|196:120,1,45
364,184,27981,2,0,L|308:192,1,45
76,260,28324,6,0,B|109:264|109:264|122:261|122:261|132:266|132:266|176:272,1,89.9999999999999
112,364,28838,1,0,0:0:0:0:
44,188,29009,2,0,P|40:160|44:124,1,45
12,304,29352,1,0,0:0:0:0:
76,260,29695,6,0,B|109:264|109:264|122:261|122:261|132:266|132:266|176:272,1,89.9999999999999
256,212,30209,1,0,0:0:0:0:
152,76,30381,1,0,0:0:0:0:
152,184,30552,1,0,0:0:0:0:
308,72,30724,2,0,L|368:76,1,45
448,24,31066,5,0,0:0:0:0:
200,108,31238,1,0,0:0:0:0:
224,4,31409,1,0,0:0:0:0:
280,184,31581,2,0,L|276:236,1,45
200,108,31924,1,0,0:0:0:0:
232,292,32095,2,0,L|192:325,1,45
380,172,32438,6,0,L|370:120,1,45
292,52,32781,1,0,0:0:0:0:
200,184,32952,2,0,L|190:235,1,45
176,76,33295,1,0,0:0:0:0:
335,174,33466,2,0,L|399:170,1,45
464,240,33809,5,0,0:0:0:0:
252,132,33981,2,0,L|188:136,1,45
456,0,34324,2,0,P|464:32|464:60,1,45
356,36,34666,1,0,0:0:0:0:
424,184,34838,2,0,P|412:214|396:237,1,45
148,312,35181,6,0,B|184:313|184:313|193:309|193:309|202:313|202:313|248:312,1,89.9999999999999
84,260,35695,1,0,0:0:0:0:
312,336,35866,1,0,0:0:0:0:
28,320,36038,1,0,0:0:0:0:
376,276,36209,2,0,L|420:272,1,45
280,172,36552,5,0,0:0:0:0:
235,310,36724,1,0,0:0:0:0:
376,276,36895,1,0,0:0:0:0:
136,204,37066,1,0,0:0:0:0:
279,128,37238,2,0,P|284:150|280:172,1,45
137,247,37581,2,0,P|132:225|136:203,1,45
368,84,37924,5,0,0:0:0:0:
424,176,38095,2,0,L|416:232,1,45
368,316,38438,2,0,L|376:372,1,45
468,304,38781,1,0,0:0:0:0:
252,212,38952,2,0,L|192:216,1,45
336,116,39295,5,0,0:0:0:0:
144,340,39466,1,0,0:0:0:0:
232,8,39638,1,0,0:0:0:0:
500,256,39809,1,0,0:0:0:0:
500,256,40666,5,0,0:0:0:0:
364,64,40838,1,0,0:0:0:0:
408,312,41009,1,0,0:0:0:0:
472,68,41181,1,0,0:0:0:0:
312,260,41352,2,0,P|300:300|304:332,1,45
472,68,41695,2,0,P|484:28|480:-4,1,45
260,100,42038,5,0,0:0:0:0:
492,220,42209,1,0,0:0:0:0:
232,264,42381,1,0,0:0:0:0:
416,80,42552,1,0,0:0:0:0:
376,340,42724,2,0,P|356:320|344:300,1,45
260,100,43066,2,0,P|260:71|265:49,1,45
108,320,43409,5,0,0:0:0:0:
344,184,43581,1,0,0:0:0:0:
112,48,43752,1,0,0:0:0:0:
228,252,43924,1,0,0:0:0:0:
344,52,44095,2,0,P|312:56|280:56,1,45
228,252,44438,2,0,P|196:248|164:248,1,45
388,204,44781,6,0,B|416:220|416:220|428:220|428:220|436:228|436:228|480:236,1,89.9999999999999
364,76,45295,1,0,0:0:0:0:
308,276,45466,2,0,L|313:320,1,45
164,128,45809,1,0,0:0:0:0:
148,236,45981,1,0,0:0:0:0:
364,76,46152,6,0,B|400:72|400:72|408:68|408:68|416:72|416:72|452:76,1,89.9999999999999
296,204,46666,1,0,0:0:0:0:
292,208,46752,1,0,0:0:0:0:
288,212,46838,1,0,0:0:0:0:
260,108,47009,1,0,0:0:0:0:
396,200,47181,1,0,0:0:0:0:
180,180,47352,1,0,0:0:0:0:
476,128,47524,6,0,L|520:132,1,45
352,300,47866,1,0,0:0:0:0:
288,212,48038,1,0,0:0:0:0:
476,128,48209,2,0,L|520:132,1,45
244,312,48552,2,0,L|200:316,1,45
476,128,48895,6,0,B|480:92|480:92|484:84|484:84|480:76|480:76|476:40,1,89.9999999999999
228,152,49409,1,0,0:0:0:0:
448,312,49581,1,0,0:0:0:0:
364,244,49752,1,0,0:0:0:0:
324,144,49924,1,0,0:0:0:0:
512,136,50095,1,0,0:0:0:0:
448,312,50266,6,0,L|408:308,3,22.5
324,144,50609,6,0,L|347:111,1,22.5
512,136,50781,2,0,L|528:172,1,22.5
432,336,50952,5,0,0:0:0:0:
388,324,51038,1,0,0:0:0:0:
344,320,51124,1,0,0:0:0:0:
300,320,51209,1,0,0:0:0:0:
256,328,51295,6,0,L|216:336,1,22.5
64,224,51466,2,0,L|104:232,1,22.5
256,120,51638,6,0,P|264:152|264:184,1,45
112,84,51981,1,0,0:0:0:0:
204,32,52152,1,0,0:0:0:0:
148,260,52324,2,0,P|144:288|148:320,1,45
364,124,52666,2,0,P|368:96|364:64,1,45
140,24,53009,5,0,0:0:0:0:
280,236,53181,1,0,0:0:0:0:
284,24,53352,1,0,0:0:0:0:
144,236,53524,1,0,0:0:0:0:
140,24,53695,2,0,P|152:52|168:76,1,45
280,236,54038,2,0,P|316:232|344:232,1,45
100,116,54381,5,0,0:0:0:0:
112,368,54552,1,0,0:0:0:0:
216,168,54724,1,0,0:0:0:0:
104,244,54895,1,0,0:0:0:0:
224,304,55066,2,0,P|228:284|228:256,1,45
100,116,55409,2,0,P|96:96|96:68,1,45
344,200,55752,6,0,P|317:205|289:201,1,45
216,168,56009,1,0,0:0:0:0:
200,148,56095,2,0,L|204:112,1,22.5
224,264,56266,2,0,L|228:300,1,22.5
300,104,56438,5,0,0:0:0:0:
277,60,56524,1,0,0:0:0:0:
236,32,56609,1,0,0:0:0:0:
188,27,56695,1,0,0:0:0:0:
142,45,56781,6,0,L|146:85,1,22.5
224,263,56952,2,0,L|228:303,1,22.5
12,216,57124,6,0,B|48:220|48:220|56:224|56:224|64:220|64:220|100:216,1,89.9999999999999
56,116,57638,1,0,0:0:0:0:
140,312,57809,1,0,0:0:0:0:
268,140,57981,1,0,0:0:0:0:
56,116,58152,1,0,0:0:0:0:
264,256,58324,1,0,0:0:0:0:
180,60,58495,6,0,L|140:112,1,45
52,232,58838,2,0,L|117:240,1,45
264,256,59181,2,0,P|272:232|272:208,1,45
88,124,59524,2,0,P|63:129|42:141,1,45
61,342,59866,6,0,B|80:360|84:376|84:376|100:368|136:376,1,89.9999999999999
368,280,60381,1,0,0:0:0:0:
264,256,60552,2,0,P|260:236|256:200,1,45
428,152,60895,2,0,P|432:172|436:208,1,45
176,280,61238,6,0,B|140:276|140:276|132:272|132:272|124:276|124:276|88:280,1,89.9999999999999
256,211,61752,1,0,0:0:0:0:
280,316,61924,2,0,L|272:372,1,45
160,200,62266,1,0,0:0:0:0:
360,224,62438,1,0,0:0:0:0:
88,279,62609,6,0,L|40:275,1,45
160,200,62952,1,0,0:0:0:0:
16,360,63124,1,0,0:0:0:0:
72,152,63295,2,0,P|84:136|112:112,1,45
224,304,63638,2,0,P|236:320|264:344,1,45
376,152,63981,6,0,P|383:133|390:97,1,45
168,96,64324,6,0,P|148:99|113:111,1,45
300,228,64667,1,0,0:0:0:0:
120,280,64838,1,0,0:0:0:0:
320,84,65009,1,0,0:0:0:0:
360,65,65095,1,0,0:0:0:0:
404,67,65181,1,0,0:0:0:0:
442,91,65266,1,0,0:0:0:0:
464,129,65352,6,0,B|471:164|471:164|475:172|475:172|472:180|472:180|471:216,1,89.9999999999999
288,112,65866,1,0,0:0:0:0:
448,296,66038,2,0,L|424:334,1,45
164,300,66381,2,0,P|196:304|220:300,1,45
340,68,66724,6,0,B|336:104|336:104|332:112|332:112|336:120|336:120|340:156,1,89.9999999999999
416,12,67238,1,0,0:0:0:0:
264,184,67409,2,0,P|260:212|260:248,1,45
488,132,67752,2,0,P|492:104|492:68,1,45
180,216,68095,6,0,B|176:252|176:252|172:260|172:260|176:268|176:268|180:304,1,89.9999999999999
336,152,68609,1,0,0:0:0:0:
76,260,68781,2,0,L|28:256,1,45
288,336,69124,2,0,L|336:332,1,45
224,160,69466,1,0,0:0:0:0:
176,316,69638,5,0,0:0:0:0:
174,320,69724,1,0,0:0:0:0:
172,324,69809,2,0,L|162:358,1,22.5
116,204,69981,5,0,0:0:0:0:
113,200,70066,1,0,0:0:0:0:
111,196,70152,2,0,L|86:170,1,22.5
239,204,70324,5,0,0:0:0:0:
244,203,70409,1,0,0:0:0:0:
249,203,70495,2,0,L|283:194,1,22.5
80,296,70666,6,0,L|46:287,1,22.5
276,344,70838,5,0,0:0:0:0:
256,192,70924,8,0,73552,0:0:0:0:
256,192,73864,12,0,75779,0:0:0:0:
180,84,76325,6,0,P|208:88|228:88,1,45
328,52,76870,1,0,0:0:0:0:
348,36,77143,1,0,0:0:0:0:
304,156,77415,2,0,P|300:184|300:212,1,45
328,304,77961,1,0,0:0:0:0:
344,324,78234,1,0,0:0:0:0:
224,272,78506,6,0,P|188:268|160:268,1,45
299,200,79052,1,0,0:0:0:0:
328,304,79325,1,0,0:0:0:0:
179,267,79597,2,0,P|148:268|120:272,1,45
299,200,80143,5,0,0:0:0:0:
328,304,80416,1,0,0:0:0:0:
224,272,80688,1,0,0:0:0:0:
364,236,80961,5,0,0:0:0:0:
260,336,81234,1,0,0:0:0:0:
224,196,81506,1,0,0:0:0:0:
284,256,81779,5,0,0:0:0:0:
203,278,82052,1,0,0:0:0:0:
224,196,82325,1,0,0:0:0:0:
252,290,82597,1,0,0:0:0:0:
156,267,82923,2,0,P|131:230|130:166,1,106.218002408446
194,105,83888,5,0,0:0:0:0:
156,267,84228,2,0,P|131:230|201:104,1,202.500007724762
