osu file format v14

[General]
AudioFilename: audio.mp3
AudioLeadIn: 0
PreviewTime: 39965
Countdown: 0
SampleSet: None
StackLeniency: 0.7
Mode: 0
LetterboxInBreaks: 0
WidescreenStoryboard: 1

[Editor]
DistanceSpacing: 0.8
BeatDivisor: 2
GridSize: 4
TimelineZoom: 1.6

[Metadata]
Title:Tsuki to Hanataba
TitleUnicode:月と花束-アニメ「Fate/EXTRA Last Encore」EDver.-
Artist:Sayuri
ArtistUnicode:さユり
Creator:I love Emilia
Version:Normal
Source:
Tags:
BeatmapID:1706452
BeatmapSetID:813709

[Difficulty]
HPDrainRate:3
CircleSize:3
OverallDifficulty:4
ApproachRate:4
SliderMultiplier:0.8
SliderTickRate:1

[Events]
//Background and Video events
0,0,"owo.png",0,0
//Break Periods
//Storyboard Layer 0 (Background)
//Storyboard Layer 1 (Fail)
//Storyboard Layer 2 (Pass)
//Storyboard Layer 3 (Foreground)
//Storyboard Sound Samples

[TimingPoints]
1276,545.454545454546,4,2,1,60,1,0
1276,-100,4,2,1,20,0,0
16548,588.235294117647,4,2,1,60,1,0
16548,-100,4,2,1,10,0,0
18708,342.857142857143,4,2,1,60,1,0
20079,-142.857142857143,4,2,1,60,0,0
22136,-100,4,2,1,60,0,0
22822,-142.857142857143,4,2,1,60,0,0
23508,-100,4,2,1,60,0,0
25908,-142.857142857143,4,2,1,60,0,0
26936,-100,4,2,1,60,0,0
28308,-142.857142857143,4,2,1,60,0,0
29679,-100,4,2,1,60,0,0
31050,-83.3333333333333,4,2,1,60,0,0
38936,-100,4,2,1,60,0,0
40650,-66.6666666666667,4,2,1,80,0,1
50250,-83.3333333333333,4,2,1,60,0,1
52308,-62.5,4,2,1,60,0,1
55736,-100,4,2,1,60,0,1
56079,-83.3333333333333,4,2,1,60,0,1
56422,-71.4285714285714,4,2,1,60,0,1
56593,-83.3333333333333,4,2,1,60,0,1
56765,-100,4,2,1,60,0,1
57108,-71.4285714285714,4,2,1,60,0,1
57793,-62.5,4,2,1,60,0,1
64908,-83.3333333333333,4,2,1,60,0,1
65079,-71.4285714285714,4,2,1,60,0,1
65336,-62.5,4,2,1,60,0,1
70136,-62.5,4,2,1,60,0,1
70308,-71.4285714285714,4,2,1,60,0,1
70822,-71.4285714285714,4,2,1,60,0,0
72880,315.789473684211,4,2,1,60,1,0
73195,342.857142857143,4,2,1,40,1,0
73537,312.5,4,2,1,20,1,0
73849,-66.6666666666667,4,2,1,60,0,0
74162,337.078651685393,4,2,1,60,1,0
75510,337.078651685393,4,2,1,60,1,0
75764,545.454545454546,4,2,1,60,1,0
76310,545.454545454546,4,2,1,60,1,0
76855,-100,4,2,1,20,0,0
82582,652.173913043478,4,2,1,60,1,0
82908,643.776824034335,4,2,1,60,1,0
83873,681.818181818182,4,2,1,60,1,0
83873,-100,4,2,1,30,0,0
84213,-333.333333333333,4,2,1,10,0,0

[Colours]
Combo1 : 176,96,255
Combo2 : 255,96,171

[HitObjects]
326,221,1276,5,0,0:0:0:0:
326,221,1821,2,0,P|256:210|244:202,1,80
324,119,2912,6,0,P|345:98|352:78,2,40
225,182,4003,2,0,P|187:199|157:233,1,80
228,264,5094,6,0,P|197:236|137:229,1,80
153,101,6185,2,0,P|184:129|244:136,1,80
326,94,7276,1,0,0:0:0:0:
478,133,7821,2,0,P|447:131|397:155,1,80
333,244,8912,1,0,0:0:0:0:
333,244,9457,6,0,P|377:255|415:245,1,80
452,133,10548,1,0,0:0:0:0:
347,161,11094,1,0,0:0:0:0:
335,278,11639,5,0,0:0:0:0:
335,278,11912,2,0,P|298:246|263:237,1,80
143,247,13003,1,0,0:0:0:0:
143,247,13276,1,0,0:0:0:0:
225,123,13821,6,0,P|236:175|228:211,1,80
329,56,14912,2,0,P|324:103|334:134,1,80
432,100,16003,2,0,P|443:152|435:188,1,80
256,192,16695,12,0,18459,0:0:0:0:
152,175,18708,5,0,0:0:0:0:
203,255,19050,2,0,P|236:222|243:182,2,80
337,320,20079,2,0,P|310:295|298:263,3,55.9999982910157
329,174,21450,6,0,P|326:236|299:283,1,111.999996582031
192,315,22479,1,0,0:0:0:0:
136,221,22822,2,0,P|123:184|103:161,3,55.9999982910157
98,70,24193,6,0,P|142:80|180:71,1,80
212,161,24879,2,0,P|256:171|294:162,1,80
376,108,25565,1,0,0:0:0:0:
328,224,25908,6,0,P|325:266|331:285,2,55.9999982910157
376,108,26936,2,0,P|319:128|270:121,1,80
209,80,27622,2,0,P|152:60|103:67,1,80
139,152,28308,2,0,P|120:179|108:222,3,55.9999982910157
37,280,29679,6,0,P|26:226|3:196,1,80
109,180,30365,2,0,P|120:126|143:96,1,80
239,123,31050,2,0,P|228:69|191:30,3,95.9999970703126
333,24,32422,6,0,P|344:78|386:117,1,95.9999970703126
478,101,33108,2,0,P|467:155|425:194,2,95.9999970703126
427,15,34136,1,0,0:0:0:0:
369,104,34479,2,0,P|315:135|301:174,1,95.9999970703126
200,237,35165,2,0,P|202:188|170:126,1,95.9999970703126
99,74,35850,1,0,0:0:0:0:
188,149,36193,6,0,P|221:103|260:83,1,95.9999970703126
373,64,36879,2,0,P|340:18|301:-2,1,95.9999970703126
182,23,37565,1,0,0:0:0:0:
256,192,37908,12,0,39965,0:0:0:0:
99,125,40650,6,0,P|70:190|69:249,2,120.000004577637
187,50,41679,1,0,0:0:0:0:
278,119,42022,6,0,P|307:184|311:244,2,120.000004577637
189,51,43050,1,0,0:0:0:0:
110,133,43393,6,0,P|163:162|237:148,1,120.000004577637
275,278,44079,2,0,P|222:249|148:263,1,120.000004577637
71,330,44765,5,0,0:0:0:0:
44,231,45108,1,0,0:0:0:0:
72,133,45450,1,0,0:0:0:0:
156,74,45793,1,0,0:0:0:0:
188,164,46136,6,0,P|137:226|140:278,1,120.000004577637
231,248,46822,2,0,P|238:327|277:362,1,120.000004577637
351,314,47508,1,0,0:0:0:0:
416,244,47850,1,0,0:0:0:0:
463,160,48193,1,0,0:0:0:0:
471,64,48536,1,0,0:0:0:0:
381,98,48879,6,0,P|354:167|299:205,1,120.000004577637
236,146,49565,2,0,P|263:77|318:39,1,120.000004577637
408,79,50250,2,0,L|443:90,2,23.9999992675781
427,112,50593,2,0,L|462:123,2,23.9999992675781
444,146,50936,2,0,L|479:157,8,23.9999992675781
388,231,51965,6,0,P|352:193|342:127,1,95.9999970703126
349,49,52650,1,0,0:0:0:0:
264,107,52993,6,0,P|190:137|109:117,1,128
57,76,53679,1,0,0:0:0:0:
57,76,54022,1,0,0:0:0:0:
58,178,54365,6,0,P|125:222|200:212,1,128
262,176,55050,1,0,0:0:0:0:
262,176,55393,1,0,0:0:0:0:
204,106,55736,2,0,L|183:81,2,20
165,99,56079,2,0,L|132:68,2,23.9999992675781
120,105,56422,2,0,L|81:68,8,27.9999991455078
70,192,57450,5,0,0:0:0:0:
70,192,57793,2,0,P|133:238|203:233,1,128
285,270,58479,1,0,0:0:0:0:
325,180,58822,1,0,0:0:0:0:
412,219,59165,1,0,0:0:0:0:
378,306,59508,1,0,0:0:0:0:
285,270,59850,6,0,P|238:238|165:236,1,128
138,333,60536,2,0,P|185:365|258:367,1,128
254,265,61222,2,0,P|192:224|301:224,1,256
361,273,62250,5,0,0:0:0:0:
428,196,62593,2,0,P|400:134|339:89,1,128
252,93,63279,2,0,P|280:155|341:200,1,128
427,193,63965,1,0,0:0:0:0:
372,106,64308,1,0,0:0:0:0:
270,97,64650,2,0,L|223:101,8,32
157,173,65850,5,0,0:0:0:0:
302,222,66365,1,0,0:0:0:0:
391,171,66708,2,0,P|417:194|431:234,4,64
295,134,67736,1,0,0:0:0:0:
205,183,68079,2,0,P|139:210|76:209,1,128
63,109,68765,2,0,P|129:82|192:83,1,128
281,116,69450,2,0,L|306:137,2,32
272,166,69793,2,0,L|297:187,2,32
267,217,70136,2,0,L|288:244,8,32
256,192,70908,12,0,76309,0:0:0:0:
151,140,76855,6,0,P|125:155|111:170,2,40
248,123,77946,1,0,0:0:0:0:
298,204,78491,1,0,0:0:0:0:
394,211,79037,2,0,P|420:226|434:241,2,40
346,299,80128,2,0,P|311:287|280:243,1,80
293,155,81219,2,0,P|328:167|359:211,1,80
373,313,82310,1,0,0:0:0:0:
256,192,82908,12,0,87282,0:0:0:0:
