osu file format v14

[General]
AudioFilename: audio.mp3
AudioLeadIn: 0
PreviewTime: 39965
Countdown: 0
SampleSet: None
StackLeniency: 0.7
Mode: 0
LetterboxInBreaks: 0
WidescreenStoryboard: 0

[Editor]
DistanceSpacing: 3.3
BeatDivisor: 4
GridSize: 4
TimelineZoom: 1.6

[Metadata]
Title:Tsuki to Hanataba
TitleUnicode:月と花束-アニメ「Fate/EXTRA Last Encore」EDver.-
Artist:Sayuri
ArtistUnicode:さユり
Creator:I love Emilia
Version:Master
Source:
Tags:
BeatmapID:1706451
BeatmapSetID:813709

[Difficulty]
HPDrainRate:6
CircleSize:3.8
OverallDifficulty:8.5
ApproachRate:8.5
SliderMultiplier:1.4
SliderTickRate:1

[Events]
//Background and Video events
0,0,"owo.png",0,0
//Break Periods
//Storyboard Layer 0 (Background)
//Storyboard Layer 1 (Fail)
//Storyboard Layer 2 (Pass)
//Storyboard Layer 3 (Foreground)
//Storyboard Sound Samples

[TimingPoints]
1276,545.454545454546,4,2,1,60,1,0
1276,-100,4,2,1,20,0,0
16548,588.235294117647,4,2,1,60,1,0
16548,-100,4,2,1,10,0,0
18708,342.857142857143,4,2,1,60,1,0
20079,-142.857142857143,4,2,1,60,0,0
22136,-100,4,2,1,60,0,0
22822,-142.857142857143,4,2,1,60,0,0
23508,-100,4,2,1,60,0,0
25908,-142.857142857143,4,2,1,60,0,0
26936,-100,4,2,1,60,0,0
28308,-142.857142857143,4,2,1,60,0,0
29679,-100,4,2,1,60,0,0
31050,-83.3333333333333,4,2,1,60,0,0
38936,-100,4,2,1,60,0,0
40650,-62.5,4,2,1,80,0,1
50250,-83.3333333333333,4,2,1,60,0,1
52308,-62.5,4,2,1,60,0,1
55736,-100,4,2,1,60,0,1
56079,-83.3333333333333,4,2,1,60,0,1
56422,-71.4285714285714,4,2,1,60,0,1
56593,-83.3333333333333,4,2,1,60,0,1
56765,-100,4,2,1,60,0,1
57108,-71.4285714285714,4,2,1,60,0,1
57793,-62.5,4,2,1,60,0,1
64908,-83.3333333333333,4,2,1,60,0,1
65079,-71.4285714285714,4,2,1,60,0,1
65336,-62.5,4,2,1,60,0,1
70136,-62.5,4,2,1,60,0,1
70308,-71.4285714285714,4,2,1,60,0,1
70822,-71.4285714285714,4,2,1,60,0,0
72880,315.789473684211,4,2,1,60,1,0
73195,342.857142857143,4,2,1,40,1,0
73537,312.5,4,2,1,20,1,0
73849,-66.6666666666667,4,2,1,60,0,0
74162,337.078651685393,4,2,1,60,1,0
75510,337.078651685393,4,2,1,60,1,0
75764,545.454545454546,4,2,1,60,1,0
76310,545.454545454546,4,2,1,60,1,0
76855,-100,4,2,1,20,0,0
82582,652.173913043478,4,2,1,60,1,0
82908,643.776824034335,4,2,1,60,1,0
83873,681.818181818182,4,2,1,60,1,0
83873,-100,4,2,1,30,0,0
84213,-333.333333333333,4,2,1,10,0,0

[Colours]
Combo1 : 176,96,255
Combo2 : 255,96,171

[HitObjects]
130,133,1276,6,0,P|166:178|195:192,1,70
302,181,1821,1,0,0:0:0:0:
238,70,2094,1,0,0:0:0:0:
374,37,2366,1,0,0:0:0:0:
449,157,2912,6,0,P|414:154|376:173,1,70
371,261,3457,2,0,P|335:224|250:201,1,140
124,254,4276,1,0,0:0:0:0:
266,316,4548,1,0,0:0:0:0:
207,234,5094,6,0,P|177:199|171:154,1,70
258,49,5639,2,0,P|288:84|294:129,1,70
216,249,6185,1,0,0:0:0:0:
149,182,6457,1,0,0:0:0:0:
216,115,6730,1,0,0:0:0:0:
282,182,7003,1,0,0:0:0:0:
204,265,7276,1,0,0:0:0:0:
118,179,7548,1,0,0:0:0:0:
204,93,7821,2,0,P|243:120|263:221,1,140
231,318,8639,1,0,0:0:0:0:
336,281,8912,2,0,P|378:266|405:266,1,70
488,146,9457,6,0,P|446:161|419:161,1,70
262,74,10003,2,0,P|304:59|331:59,1,70
278,200,10548,2,0,P|236:215|209:215,1,70
104,137,11094,1,0,0:0:0:0:
281,154,11639,5,0,0:0:0:0:
290,277,11912,2,0,P|250:238|211:228,1,70
98,193,12457,2,0,P|138:154|177:144,1,70
297,106,13003,1,0,0:0:0:0:
201,245,13276,1,0,0:0:0:0:
338,278,13821,5,0,0:0:0:0:
428,188,14094,1,0,0:0:0:0:
338,99,14366,2,0,P|310:132|309:171,1,70
202,203,14912,2,0,P|230:236|231:275,1,70
152,343,15457,1,0,0:0:0:0:
70,261,15730,1,0,0:0:0:0:
152,179,16003,1,0,0:0:0:0:
233,261,16276,1,0,0:0:0:0:
151,340,16548,2,0,P|153:297|25:200,1,210
256,192,17724,12,0,18459,0:0:0:0:
310,135,18708,5,0,0:0:0:0:
290,282,18879,1,0,0:0:0:0:
202,219,19050,2,0,P|169:196|107:190,1,70
0,244,19393,2,0,P|33:267|95:273,1,70
202,219,19736,6,0,P|235:196|297:190,1,70
404,244,20079,2,0,P|371:267|295:272,1,97.9999970092774
191,196,20593,2,0,P|234:167|300:170,1,97.9999970092774
410,232,21108,5,0,0:0:0:0:
259,235,21279,1,0,0:0:0:0:
416,344,21450,2,0,P|385:308|335:293,1,97.9999970092774
198,318,21965,1,0,0:0:0:0:
273,220,22136,2,0,P|297:187|301:149,1,70
180,137,22479,2,0,P|156:104|152:66,1,70
310,16,22822,6,0,P|278:64|236:83,1,97.9999970092774
120,62,23336,1,0,0:0:0:0:
46,158,23508,2,0,P|93:176|135:171,1,70
253,245,23850,2,0,P|206:263|164:258,1,70
46,158,24193,5,0,0:0:0:0:
232,156,24365,1,0,0:0:0:0:
76,262,24536,2,0,P|103:236|135:222,1,70
309,232,24879,2,0,P|282:258|250:272,1,70
69,166,25222,2,0,P|96:140|128:126,1,70
302,136,25565,1,0,0:0:0:0:
148,216,25908,6,0,P|187:198|296:220,1,146.999995513916
268,346,26593,1,0,0:0:0:0:
268,346,26765,1,0,0:0:0:0:
212,287,26936,2,0,P|166:263|146:232,1,70
321,282,27279,2,0,P|367:258|387:227,1,70
203,187,27622,2,0,P|187:137|195:101,1,70
312,182,27965,2,0,P|327:132|319:96,1,70
178,60,28308,2,0,P|200:110|243:127,1,97.9999970092774
393,56,28822,2,0,P|371:106|328:123,1,97.9999970092774
218,51,29336,1,0,0:0:0:0:
153,148,29508,1,0,0:0:0:0:
259,213,29679,6,0,P|296:233|333:335,1,140
410,226,30193,1,0,0:0:0:0:
317,115,30365,2,0,P|367:123|456:80,1,140
410,226,30879,1,0,0:0:0:0:
403,364,31050,2,0,P|362:323|317:313,1,83.9999974365235
259,174,31393,2,0,P|218:214|173:224,1,83.9999974365235
361,383,31736,2,0,P|338:330|300:304,1,83.9999974365235
300,154,32079,2,0,P|247:176|201:168,1,83.9999974365235
106,67,32422,6,0,P|158:44|204:52,1,83.9999974365235
107,213,32765,2,0,P|128:159|166:133,1,83.9999974365235
231,306,33108,2,0,P|208:253|216:207,1,83.9999974365235
377,305,33451,2,0,P|323:283|297:245,1,83.9999974365235
271,127,33793,1,0,0:0:0:0:
393,223,33965,1,0,0:0:0:0:
197,204,34136,1,0,0:0:0:0:
407,224,34308,1,0,0:0:0:0:
212,206,34479,5,0,0:0:0:0:
370,118,34650,1,0,0:0:0:0:
279,291,34822,1,0,0:0:0:0:
361,136,34993,1,0,0:0:0:0:
269,309,35165,5,0,0:0:0:0:
264,137,35508,5,0,0:0:0:0:
264,137,35679,2,0,P|229:161|206:220,1,83.9999974365235
223,333,36193,1,0,0:0:0:0:
380,226,36536,6,0,P|354:262|314:281,1,83.9999974365235
132,226,36879,2,0,P|158:262|198:281,1,83.9999974365235
384,282,37222,2,0,P|340:289|298:274,1,83.9999974365235
208,106,37565,2,0,P|200:149|215:191,1,83.9999974365235
427,80,37908,1,0,0:0:0:0:
349,211,38079,1,0,0:0:0:0:
361,237,38422,1,0,0:0:0:0:
375,263,38765,1,0,0:0:0:0:
375,263,38936,2,0,P|374:304|348:337,1,70
142,139,39279,5,0,0:0:0:0:
321,85,39450,1,0,0:0:0:0:
375,263,39622,1,0,0:0:0:0:
198,317,39793,1,0,0:0:0:0:
256,192,39879,12,0,40479,0:0:0:0:
302,93,40650,6,0,P|315:161|299:209,1,112
148,283,40993,2,0,P|135:215|151:167,1,112
257,67,41336,1,0,0:0:0:0:
249,265,41508,1,0,0:0:0:0:
257,53,41679,1,0,0:0:0:0:
247,278,41850,1,0,0:0:0:0:
430,293,42022,6,0,P|362:306|314:290,1,112
240,139,42365,2,0,P|308:126|356:142,1,112
456,248,42708,1,0,0:0:0:0:
258,240,42880,1,0,0:0:0:0:
473,248,43051,1,0,0:0:0:0:
275,240,43222,1,0,0:0:0:0:
467,148,43393,6,0,P|440:201|380:234,1,112
217,195,43736,2,0,P|244:142|304:109,1,112
447,76,44079,1,0,0:0:0:0:
333,239,44250,1,0,0:0:0:0:
336,27,44422,2,0,P|372:77|374:150,1,112
333,239,44765,1,0,0:0:0:0:
232,101,44936,1,0,0:0:0:0:
394,153,45108,1,0,0:0:0:0:
232,206,45279,1,0,0:0:0:0:
401,149,45450,5,0,0:0:0:0:
220,212,45622,1,0,0:0:0:0:
319,68,45793,1,0,0:0:0:0:
319,276,45965,1,0,0:0:0:0:
201,105,46136,6,0,P|238:158|229:70,1,224
101,69,46650,5,0,0:0:0:0:
159,274,46822,2,0,P|158:218|128:167,1,112
261,196,47165,5,0,0:0:0:0:
101,69,47336,1,0,0:0:0:0:
184,31,47508,2,0,P|171:89|191:154,1,112
366,109,47850,6,0,P|302:85|238:94,1,112
250,263,48193,2,0,P|290:210|292:144,1,112
147,83,48536,2,0,P|179:167|225:194,1,112
288,25,48879,2,0,P|253:88|327:44,1,224
327,44,49393,5,0,0:0:0:0:
368,223,49565,2,0,P|387:152|426:117,1,112
474,296,49908,5,0,0:0:0:0:
407,125,50079,1,0,0:0:0:0:
358,335,50250,5,0,0:0:0:0:
380,300,50335,1,0,0:0:0:0:
386,258,50421,1,0,0:0:0:0:
189,329,50593,5,0,0:0:0:0:
237,318,50678,1,0,0:0:0:0:
275,288,50764,1,0,0:0:0:0:
68,196,50936,5,0,0:0:0:0:
112,224,51021,1,0,0:0:0:0:
166,231,51108,1,0,2:0:0:0:
217,222,51193,1,0,2:0:0:0:
262,191,51279,2,0,L|301:154,3,41.9999987182618
331,36,51622,5,0,0:0:0:0:
185,158,51793,1,0,0:0:0:0:
404,153,51965,5,0,0:0:0:0:
194,48,52136,1,0,0:0:0:0:
327,239,52308,6,0,P|325:176|281:107,1,112
118,66,52650,2,0,P|120:129|164:198,1,112
256,283,52993,5,0,0:0:0:0:
196,96,53165,1,0,0:0:0:0:
150,310,53336,5,0,0:0:0:0:
269,139,53508,1,0,0:0:0:0:
248,360,53679,6,0,P|228:299|229:238,1,112
348,104,54022,2,0,P|368:165|367:226,1,112
268,306,54365,5,0,0:0:0:0:
174,104,54536,1,0,0:0:0:0:
368,212,54708,1,0,0:0:0:0:
147,239,54879,1,0,0:0:0:0:
310,87,55050,2,0,P|262:129|203:139,1,112
461,264,55393,2,0,P|413:222|354:212,1,112
264,71,55736,5,0,0:0:0:0:
248,101,55821,1,0,0:0:0:0:
220,123,55907,1,0,0:0:0:0:
435,139,56079,5,0,0:0:0:0:
393,141,56164,1,0,0:0:0:0:
352,132,56250,1,0,0:0:0:0:
469,319,56422,5,0,0:0:0:0:
430,288,56507,1,0,0:0:0:0:
405,246,56593,1,0,0:0:0:0:
399,204,56678,1,0,0:0:0:0:
412,164,56764,1,0,0:0:0:0:
435,139,56850,1,0,0:0:0:0:
447,106,56936,1,0,0:0:0:0:
447,71,57022,1,0,0:0:0:0:
433,39,57108,2,0,P|350:44|426:103,1,195.999994018555
390,115,57622,1,0,0:0:0:0:
190,181,57793,2,0,P|250:159|306:159,1,112
193,352,58136,2,0,P|219:294|259:254,1,112
395,198,58479,5,0,0:0:0:0:
293,356,58650,1,0,0:0:0:0:
508,242,58822,5,0,0:0:0:0:
336,335,58993,1,0,0:0:0:0:
356,116,59165,5,0,0:0:0:0:
473,298,59336,1,0,0:0:0:0:
225,166,59508,5,0,0:0:0:0:
424,273,59679,1,0,0:0:0:0:
343,356,59850,6,0,P|334:275|295:233,1,112
185,153,60193,1,0,0:0:0:0:
254,328,60365,1,0,0:0:0:0:
269,135,60536,6,0,P|278:216|317:258,1,112
358,162,60879,1,0,0:0:0:0:
427,338,61050,1,0,0:0:0:0:
459,147,61222,6,0,P|444:219|401:263,1,112
211,250,61565,2,0,P|226:178|269:134,1,112
397,319,61908,2,0,P|325:304|281:261,1,112
294,71,62250,5,0,0:0:0:0:
459,147,62422,1,0,0:0:0:0:
502,33,62593,2,0,P|455:64|400:71,1,112
463,189,62936,2,0,P|407:196|361:227,1,112
175,121,63279,2,0,P|221:152|276:159,1,112
214,277,63622,6,0,P|269:284|315:315,1,112
463,189,63965,2,0,P|407:196|361:227,1,112
175,121,64308,5,0,0:0:0:0:
223,127,64393,1,0,0:0:0:0:
264,154,64479,1,0,0:0:0:0:
422,81,64650,5,0,0:0:0:0:
422,81,64736,1,0,0:0:0:0:
422,81,64822,1,0,0:0:0:0:
422,81,64908,1,0,0:0:0:0:
382,94,64993,1,0,0:0:0:0:
340,97,65079,5,0,0:0:0:0:
295,79,65164,1,0,0:0:0:0:
246,77,65250,1,0,0:0:0:0:
199,90,65336,2,0,P|152:123|117:195,1,112
171,309,65679,1,0,0:0:0:0:
218,169,65850,1,0,0:0:0:0:
333,347,66022,6,0,P|289:289|279:242,1,112
341,117,66365,1,0,0:0:0:0:
403,272,66536,1,0,0:0:0:0:
237,171,66708,5,0,0:0:0:0:
478,214,66879,1,0,0:0:0:0:
237,171,67050,1,0,0:0:0:0:
478,214,67222,1,0,0:0:0:0:
471,87,67393,6,0,P|428:139|360:163,1,112
196,103,67736,1,0,0:0:0:0:
377,71,67908,1,0,0:0:0:0:
475,222,68079,6,0,P|423:169|356:156,1,112
205,238,68422,1,0,0:0:0:0:
403,280,68593,1,0,0:0:0:0:
267,129,68765,1,0,0:0:0:0:
288,332,68936,1,0,0:0:0:0:
266,118,69108,1,0,0:0:0:0:
289,341,69279,1,0,0:0:0:0:
390,155,69450,5,0,0:0:0:0:
340,179,69535,1,0,0:0:0:0:
305,222,69621,1,0,0:0:0:0:
361,363,69793,5,0,0:0:0:0:
400,342,69878,1,0,0:0:0:0:
430,307,69964,1,0,0:0:0:0:
390,155,70136,1,0,0:0:0:0:
340,178,70221,1,0,0:0:0:0:
304,221,70307,1,0,0:0:0:0:
270,256,70393,1,0,0:0:0:0:
223,268,70479,2,0,P|195:267|167:252,1,48.9999985046387
103,126,70650,2,0,P|131:127|159:142,1,48.9999985046387
235,180,70822,1,0,0:0:0:0:
256,192,70908,12,0,71850,0:0:0:0:
256,193,72022,5,0,0:0:0:0:
160,265,72880,5,0,0:0:0:0:
188,301,72985,1,0,0:0:0:0:
229,322,73090,1,0,0:0:0:0:
275,324,73195,2,0,L|338:309,2,46.6666666666667
376,215,73537,2,0,L|439:229,2,46.6666666666667
393,354,73849,1,0,0:0:0:0:
346,302,73953,1,0,0:0:0:0:
282,275,74057,1,0,0:0:0:0:
212,275,74161,1,0,0:0:0:0:
256,192,74246,12,0,76309,0:0:0:0:
145,243,76855,5,0,0:0:0:0:
126,141,77128,1,0,0:0:0:0:
275,256,77400,2,0,P|243:227|225:186,1,70
238,70,77946,5,0,0:0:0:0:
355,77,78219,1,0,0:0:0:0:
364,202,78491,6,0,P|330:161|287:145,1,70
184,174,79037,1,0,0:0:0:0:
275,289,79310,1,0,0:0:0:0:
316,153,79582,1,0,0:0:0:0:
275,289,80128,6,0,P|252:249|217:224,1,70
371,282,80673,2,0,P|394:242|429:217,1,70
316,153,81219,5,0,0:0:0:0:
373,279,81491,1,0,0:0:0:0:
460,175,81764,1,0,0:0:0:0:
329,316,82037,5,0,0:0:0:0:
458,364,82309,5,0,0:0:0:0:
446,229,82582,5,0,0:0:0:0:
273,356,82908,6,0,P|313:338|348:238,1,140
266,139,83873,1,0,0:0:0:0:
127,191,84213,6,0,P|166:254|274:274,1,188.999994232178
