osu file format v14

[General]
AudioFilename: audio.mp3
AudioLeadIn: 0
PreviewTime: 81130
Countdown: 0
SampleSet: Soft
StackLeniency: 0.2
Mode: 0
LetterboxInBreaks: 0
WidescreenStoryboard: 0

[Editor]
Bookmarks: 92539,155332,222532,247218,263675
DistanceSpacing: 2.5
BeatDivisor: 4
GridSize: 32
TimelineZoom: 2.499999

[Metadata]
Title:Tsuki to Hanataba
TitleUnicode:月と花束
Artist:Sayuri
ArtistUnicode:さユり
Creator:Hishiro Chizuru
Version:Yukibb1d3x's Insane
Source:Fate/EXTRA Last Encore
Tags:-アニメ「Fate/EXTRA Last Encore」EDver.- Ending 酸欠少女 Sanketsu Shoujo ver version full ending amb1d3x yukiyo kibbleru fate extra encore
BeatmapID:1757052
BeatmapSetID:839330

[Difficulty]
HPDrainRate:5
CircleSize:4
OverallDifficulty:7
ApproachRate:9
SliderMultiplier:2
SliderTickRate:1

[Events]
//Background and Video events
0,0,"big umu.jpg",0,0
//Break Periods
//Storyboard Layer 0 (Background)
//Storyboard Layer 1 (Fail)
//Storyboard Layer 2 (Pass)
//Storyboard Layer 3 (Foreground)
//Storyboard Sound Samples

[TimingPoints]
1363,545.454545454546,4,2,1,40,1,0
1363,-200,4,2,1,40,0,0
16635,588.235294117647,4,2,1,40,1,0
17811,689.655172413793,4,2,1,40,1,0
18500,576.923076923077,4,2,1,5,1,0
18788,342.857142857143,4,2,1,60,1,0
18788,-133.333333333333,4,2,1,60,0,0
20416,-133.333333333333,4,2,1,5,0,0
20502,-133.333333333333,4,2,1,60,0,0
23159,-133.333333333333,4,2,1,5,0,0
23245,-133.333333333333,4,2,1,60,0,0
25902,-133.333333333333,4,2,1,5,0,0
25988,-133.333333333333,4,2,1,60,0,0
28645,-133.333333333333,4,2,1,5,0,0
28730,-133.333333333333,4,2,1,60,0,0
40730,-100,4,2,3,60,0,0
40902,-100,4,2,1,60,0,0
42102,-100,4,2,3,60,0,0
42274,-100,4,2,1,60,0,0
43473,-100,4,2,3,60,0,0
43645,-100,4,2,1,60,0,0
44845,-100,4,2,3,60,0,0
45017,-100,4,2,1,60,0,0
45530,-133.333333333333,4,2,1,60,0,0
45873,-133.333333333333,4,2,1,80,0,0
46216,-100,4,2,3,60,0,0
46388,-100,4,2,1,60,0,0
47588,-100,4,2,3,60,0,0
47760,-100,4,2,1,60,0,0
48959,-100,4,2,3,60,0,0
49131,-100,4,2,1,60,0,0
50673,-100,4,2,1,70,0,0
51016,-100,4,2,1,80,0,0
51359,-100,4,2,1,90,0,0
51702,-90.9090909090909,4,2,3,60,0,0
51874,-90.9090909090909,4,2,1,60,0,0
53073,-90.9090909090909,4,2,3,60,0,0
53245,-90.9090909090909,4,2,1,60,0,0
54445,-90.9090909090909,4,2,3,60,0,0
54617,-90.9090909090909,4,2,1,60,0,0
56159,-100,4,2,1,70,0,0
56502,-100,4,2,1,80,0,0
56845,-100,4,2,1,90,0,0
57188,-90.9090909090909,4,2,3,60,0,0
57360,-90.9090909090909,4,2,1,60,0,0
58559,-90.9090909090909,4,2,3,60,0,0
58731,-90.9090909090909,4,2,1,60,0,0
59930,-90.9090909090909,4,2,3,60,0,0
60102,-90.9090909090909,4,2,1,60,0,0
61302,-90.9090909090909,4,2,3,60,0,0
61474,-90.9090909090909,4,2,1,60,0,0
61988,-133.333333333333,4,2,1,60,0,0
62330,-133.333333333333,4,2,1,80,0,0
62673,-90.9090909090909,4,2,3,60,0,0
62845,-90.9090909090909,4,2,1,60,0,0
63359,-133.333333333333,4,2,1,60,0,0
63702,-90.9090909090909,4,2,1,60,0,0
64045,-90.9090909090909,4,2,3,60,0,0
64217,-90.9090909090909,4,2,1,60,0,0
65416,-90.9090909090909,4,2,3,60,0,0
65588,-90.9090909090909,4,2,1,60,0,0
66788,-90.9090909090909,4,2,3,60,0,0
66960,-90.9090909090909,4,2,1,60,0,0
68159,-90.9090909090909,4,2,3,60,0,0
68331,-90.9090909090909,4,2,1,60,0,0
69530,-90.9090909090909,4,2,3,60,0,0
69702,-90.9090909090909,4,2,1,60,0,0
70216,-117.647058823529,4,2,1,60,0,0
70559,-117.647058823529,4,2,1,80,0,0
70902,-83.3333333333333,4,2,1,60,0,0
74416,-90.9090909090909,4,2,1,5,0,0
74502,-133.333333333333,4,2,1,70,0,0
75016,-83.3333333333333,4,2,1,70,0,0
76388,-83.3333333333333,4,2,1,70,0,0
78530,-90.9090909090909,4,2,1,5,0,0
78616,-90.9090909090909,4,2,1,70,0,0
79130,-83.3333333333333,4,2,1,70,0,0
81873,333.333333333333,4,2,1,60,1,0
81873,-200,4,2,1,60,0,0
87539,-333.333333333333,4,2,1,60,0,0
88539,-200,4,2,1,60,0,0
93539,-100,4,2,1,60,0,0
94541,342.857142857143,4,2,1,80,1,0
95226,342.857142857143,4,2,1,80,1,0
95569,297.029702970297,4,2,1,80,1,0
95866,333.333333333333,4,2,1,80,1,0
97200,342.857142857143,4,2,1,80,1,0
97885,333.333333333333,4,2,1,70,1,0
97885,-125,4,2,1,70,0,0
103218,342.857142857143,4,2,1,70,1,0
103218,-125,4,2,1,70,0,0
113846,-181.818181818181,4,2,1,70,0,0
114189,-125,4,2,1,70,0,0
125160,-100,4,2,3,70,0,0
125332,-100,4,2,1,70,0,0
126532,-100,4,2,3,70,0,0
126704,-100,4,2,1,70,0,0
127903,-100,4,2,3,70,0,0
128075,-100,4,2,1,70,0,0
129275,-100,4,2,3,70,0,0
129447,-100,4,2,1,70,0,0
129618,-100,4,2,1,80,0,0
129960,-100,4,2,1,90,0,0
130475,-100,4,2,1,100,0,0
130646,-100,4,2,3,70,0,0
130818,-100,4,2,1,70,0,0
132018,-100,4,2,3,70,0,0
132190,-100,4,2,1,70,0,0
133389,-100,4,2,3,70,0,0
133561,-100,4,2,1,70,0,0
135103,-100,4,2,1,80,0,0
135446,-100,4,2,1,90,0,0
135789,-100,4,2,1,100,0,0
136132,-100,4,2,3,70,0,0
136304,-100,4,2,1,70,0,0
137503,-100,4,2,3,70,0,0
137675,-100,4,2,1,70,0,0
138875,-100,4,2,3,70,0,0
139047,-100,4,2,1,70,0,0
140589,-100,4,2,1,80,0,0
140932,-100,4,2,1,90,0,0
141275,-100,4,2,1,100,0,0
141618,-100,4,2,3,70,0,0
141790,-100,4,2,1,70,0,0
142989,-100,4,2,3,70,0,0
143161,-100,4,2,1,70,0,0
144360,-100,4,2,3,70,0,0
144532,-100,4,2,1,70,0,0
145732,-100,4,2,3,70,0,0
145904,-100,4,2,1,70,0,0
147103,-100,4,2,3,70,0,0
147275,-100,4,2,1,70,0,0
148475,-100,4,2,3,70,0,0
148647,-100,4,2,1,70,0,0
149846,-100,4,2,3,70,0,0
150018,-100,4,2,1,70,0,0
151218,-100,4,2,3,70,0,0
151390,-100,4,2,1,70,0,0
152589,-100,4,2,3,70,0,0
152761,-100,4,2,1,70,0,0
154646,-100,4,2,1,70,0,0
154732,-100,4,2,1,65,0,0
154818,-100,4,2,1,60,0,0
154903,-100,4,2,1,55,0,0
154989,-100,4,2,1,50,0,0
155075,-100,4,2,1,45,0,0
155160,-100,4,2,1,40,0,0
155246,-100,4,2,1,35,0,0
155332,-90.9090909090909,4,2,1,70,0,0
156875,-90.9090909090909,4,2,1,70,0,0
157132,-90.9090909090909,4,2,1,5,0,0
157218,-90.9090909090909,4,2,1,70,0,0
157475,-90.9090909090909,4,2,1,5,0,0
157561,-90.9090909090909,4,2,1,70,0,0
159189,-90.9090909090909,4,2,1,5,0,0
159275,-90.9090909090909,4,2,1,70,0,0
159618,-90.9090909090909,4,2,1,40,0,0
159960,-90.9090909090909,4,2,1,50,0,0
160303,-90.9090909090909,4,2,1,60,0,0
160646,-90.9090909090909,4,2,1,70,0,0
162618,-90.9090909090909,4,2,1,5,0,0
162704,-90.9090909090909,4,2,1,70,0,0
162960,-90.9090909090909,4,2,1,5,0,0
163046,-90.9090909090909,4,2,1,70,0,0
165275,-133.333333333333,4,2,1,70,0,0
165618,-133.333333333333,4,2,1,70,0,0
166303,-333.333333333333,4,2,1,50,0,0
171103,-333.333333333333,4,2,1,26,0,0
171146,-333.333333333333,4,2,1,31,0,0
171189,-333.333333333333,4,2,1,36,0,0
171232,-333.333333333333,4,2,1,55,0,0
171275,-333.333333333333,4,2,1,55,0,0
171318,-333.333333333333,4,2,1,61,0,0
171360,-333.333333333333,4,2,1,66,0,0
171403,-333.333333333333,4,2,1,70,0,0
171446,-333.333333333333,4,2,1,75,0,0
171789,-333.333333333333,4,2,1,55,0,0
176589,-111.111111111111,4,2,1,70,0,0
177275,-133.333333333333,4,2,1,70,0,0
188246,-117.647058823529,4,2,1,70,0,0
190989,-100,4,2,1,70,0,0
191332,-166.666666666667,4,2,1,30,0,0
191675,-166.666666666667,4,2,1,40,0,0
192018,-166.666666666667,4,2,1,45,0,0
192360,-133.333333333333,4,2,1,50,0,0
192703,-133.333333333333,4,2,1,60,0,0
193046,-133.333333333333,4,2,1,70,0,0
193389,-117.647058823529,4,2,1,80,0,0
193732,-117.647058823529,4,2,1,70,0,0
200589,-333.333333333333,4,2,1,70,0,0
210189,-500,4,2,1,70,0,0
210875,-200,4,2,1,70,0,0
211560,-142.857142857143,4,2,1,70,0,0
218418,-142.857142857143,4,2,1,70,0,0
218589,-142.857142857143,4,2,1,30,0,0
218760,-142.857142857143,4,2,1,70,0,0
218932,-142.857142857143,4,2,1,35,0,0
219103,-142.857142857143,4,2,1,70,0,0
219275,-142.857142857143,4,2,1,40,0,0
219446,-142.857142857143,4,2,1,70,0,0
219618,-142.857142857143,4,2,1,50,0,0
219789,-142.857142857143,4,2,1,70,0,0
219960,-142.857142857143,4,2,1,60,0,0
220132,-142.857142857143,4,2,1,70,0,0
220303,-142.857142857143,4,2,1,70,0,0
220475,-142.857142857143,4,2,1,70,0,0
220646,-142.857142857143,4,2,1,80,0,0
220818,-142.857142857143,4,2,1,70,0,0
222532,-142.857142857143,4,2,1,70,0,1
222875,-142.857142857143,4,2,2,70,0,1
223218,-83.3333333333334,4,2,2,70,0,1
223560,-83.3333333333334,4,2,2,70,0,1
223732,-83.3333333333334,4,2,2,70,0,1
223903,-83.3333333333334,4,2,2,70,0,1
224075,-100,4,2,2,70,0,1
224246,-100,4,2,2,70,0,1
224418,-100,4,2,2,70,0,1
224503,-100,4,2,2,70,0,1
224589,-100,4,2,2,70,0,1
224760,-100,4,2,2,70,0,1
224932,-100,4,2,2,70,0,1
225018,-100,4,2,2,70,0,1
225189,-100,4,2,2,70,0,1
225275,-100,4,2,2,70,0,1
225446,-100,4,2,2,60,0,1
225618,-100,4,2,2,50,0,1
225789,-100,4,2,2,60,0,1
225960,-100,4,2,2,70,0,1
226132,-100,4,2,2,80,0,1
226303,-100,4,2,2,70,0,1
226475,-100,4,2,2,75,0,1
226646,-83.3333333333333,4,2,2,80,0,1
226818,-76.9230769230769,4,2,2,85,0,1
226989,-76.9230769230769,4,2,2,90,0,1
227160,-76.9230769230769,4,2,2,95,0,1
227332,-71.4285714285714,4,2,2,100,0,1
227503,-71.4285714285714,4,2,2,100,0,1
227675,-66.6666666666667,4,2,2,100,0,1
227846,-66.6666666666667,4,2,2,100,0,1
228018,-100,4,2,3,90,0,0
228190,-100,4,2,1,90,0,0
229389,-100,4,2,3,90,0,0
229475,-100,4,2,1,90,0,0
230760,-100,4,2,3,90,0,0
230932,-100,4,2,1,90,0,0
231446,-125,4,2,1,90,0,0
231789,-111.111111111111,4,2,1,90,0,0
232132,-99.9999999999999,4,2,1,90,0,0
233503,-166.666666666667,4,2,3,90,0,0
234018,-100,4,2,1,90,0,0
234875,-100,4,2,3,90,0,0
235218,-100,4,2,1,90,0,0
236246,-100,4,2,3,90,0,0
236589,-100,4,2,1,90,0,0
237618,-100,4,2,3,90,0,0
237875,-100,4,2,1,90,0,0
238989,-200,4,2,3,90,0,0
239075,-100,4,2,1,90,0,0
239675,-100,4,2,1,90,0,0
240360,-100,4,2,3,90,0,0
240446,-100,4,2,1,90,0,0
241732,-100,4,2,3,90,0,0
241818,-100,4,2,1,90,0,0
243103,-100,4,2,3,90,0,0
243189,-100,4,2,1,90,0,0
244475,-100,4,2,3,90,0,0
244560,-100,4,2,1,90,0,0
245846,-100,4,2,3,90,0,0
245932,-100,4,2,1,90,0,0
247218,-111.111111111111,4,2,1,70,0,0
252703,-111.111111111111,4,2,3,70,0,0
252875,-111.111111111111,4,2,1,70,0,0
254075,-111.111111111111,4,2,3,70,0,0
254247,-111.111111111111,4,2,1,70,0,0
255446,-111.111111111111,4,2,1,70,0,0
255789,-111.111111111111,4,2,1,75,0,0
256132,-111.111111111111,4,2,1,80,0,0
256475,-111.111111111111,4,2,1,85,0,0
256818,-83.3333333333333,4,2,1,90,0,0
257160,-83.3333333333333,4,2,1,95,0,0
257503,-83.3333333333333,4,2,1,100,0,0
257846,-83.3333333333333,4,2,1,100,0,0
258189,-83.3333333333333,4,2,1,100,0,0
258275,-83.3333333333333,4,2,1,100,0,0
262818,-83.3333333333333,4,2,1,5,0,0
263675,545.454545454546,4,2,1,40,1,0
263675,-200,4,2,1,40,0,0
268038,-333.333333333333,4,2,1,40,0,0
270219,645.161290322581,4,2,1,40,1,0
270219,-400,4,2,1,40,0,0
271186,750,4,2,1,40,1,0
273811,833.333333333333,4,2,1,40,1,0
274644,-100,4,2,1,5,0,0

[Colours]
Combo1 : 255,192,0
Combo2 : 107,236,250
Combo3 : 185,187,85
Combo4 : 242,24,57

[HitObjects]
33,28,1363,6,0,L|100:33,1,50,2|2,0:0|0:0,0:0:0:0:
119,109,1908,2,0,L|182:103,1,50,2|0,0:0|0:0,0:0:0:0:
172,108,2453,1,2,0:0:0:0:
214,41,2999,2,0,L|277:35,1,50,2|0,0:0|0:0,0:0:0:0:
281,113,3544,6,0,L|275:180,1,50,2|2,0:0|0:0,0:0:0:0:
194,140,4090,2,0,L|199:207,1,50,2|2,0:0|0:0,0:0:0:0:
201,193,4635,1,2,0:0:0:0:
259,237,5181,2,0,L|254:304,1,50,2|2,0:0|0:0,0:0:0:0:
296,351,5726,6,0,L|363:346,1,50,2|2,0:0|0:0,0:0:0:0:
349,351,6272,1,2,0:0:0:0:
426,364,6817,2,0,L|493:369,1,50,2|2,0:0|0:0,0:0:0:0:
500,284,7363,2,0,L|433:289,1,50,2|2,0:0|0:0,0:0:0:0:
437,212,7908,6,0,L|441:156,1,50,2|2,0:0|0:0,0:0:0:0:
445,158,8453,1,2,0:0:0:0:
492,93,8999,2,0,L|487:37,1,50,2|2,0:0|0:0,0:0:0:0:
484,39,9544,1,2,0:0:0:0:
365,77,10090,5,2,0:0:0:0:
328,148,10363,1,2,0:0:0:0:
246,150,10635,1,2,0:0:0:0:
283,79,10908,1,2,0:0:0:0:
194,30,11181,2,0,L|201:101,1,50,2|2,0:0|0:0,0:0:0:0:
112,88,11726,1,2,0:0:0:0:
156,161,11999,1,2,0:0:0:0:
116,285,12544,6,0,L|111:334,2,50,2|2|2,0:0|0:0|0:0,0:0:0:0:
179,379,13363,2,0,L|230:374,1,50,2|2,0:0|0:0,0:0:0:0:
309,370,13908,1,2,0:0:0:0:
264,304,14181,1,2,0:0:0:0:
347,242,14453,6,0,L|343:292,1,50,2|2,0:0|0:0,0:0:0:0:
430,180,14999,2,0,L|434:229,1,50,2|2,0:0|0:0,0:0:0:0:
445,309,15544,1,2,0:0:0:0:
501,366,16090,1,2,0:0:0:0:
256,192,16635,12,0,18500,0:0:0:0:
33,28,18788,5,2,3:1:0:0:
19,101,18959,1,0,3:0:0:0:
165,69,19130,1,2,0:1:0:0:
173,77,19473,1,2,0:1:0:0:
181,85,19816,1,2,0:1:0:0:
189,93,20159,6,0,L|300:102,1,112.500004291535,2|0,0:1|0:0,0:0:0:0:
305,106,20502,1,2,0:1:0:0:
313,114,20845,1,2,0:1:0:0:
321,122,21188,1,2,0:1:0:0:
329,130,21530,5,2,3:1:0:0:
308,202,21702,1,0,3:0:0:0:
356,344,21873,1,2,0:1:0:0:
348,336,22216,1,2,0:1:0:0:
340,328,22559,1,2,0:1:0:0:
332,320,22902,6,0,L|220:329,1,112.500004291535,2|0,0:1|0:0,0:0:0:0:
215,325,23245,1,2,0:1:0:0:
207,317,23588,1,2,0:1:0:0:
199,309,23930,1,2,0:1:0:0:
33,356,24273,5,2,3:1:0:0:
19,283,24445,1,0,3:0:0:0:
90,151,24616,1,2,0:1:0:0:
98,143,24959,1,2,0:1:0:0:
106,135,25302,1,2,0:1:0:0:
114,127,25645,6,0,L|237:116,1,112.500004291535,2|0,0:1|0:0,0:0:0:0:
230,113,25988,1,2,0:1:0:0:
238,105,26330,1,2,0:1:0:0:
246,97,26673,1,2,0:1:0:0:
254,89,27016,5,2,3:1:0:0:
300,148,27188,1,0,3:0:0:0:
438,91,27359,1,2,0:1:0:0:
446,99,27702,1,2,0:1:0:0:
454,107,28045,1,2,0:1:0:0:
461,114,28388,6,0,L|450:229,1,112.500004291535,2|0,0:1|0:0,0:0:0:0:
447,230,28730,1,2,0:1:0:0:
439,238,29073,1,2,0:1:0:0:
463,309,29245,1,2,0:3:0:0:
314,292,29416,1,6,0:1:0:0:
104,359,29759,6,0,L|94:246,1,112.500004291535,4|0,3:2|0:0,0:0:0:0:
90,242,30102,1,0,3:0:0:0:
202,144,30273,2,0,L|195:219,1,75.0000028610231,8|0,0:0|0:0,0:0:0:0:
193,293,30616,1,0,3:0:0:0:
302,246,30788,2,0,L|295:166,1,75.0000028610231,8|0,0:0|0:0,0:0:0:0:
283,22,31130,5,0,3:2:0:0:
291,96,31302,2,0,L|370:102,1,75.0000028610231,0|0,3:0|0:0,0:0:0:0:
467,184,31645,2,0,L|387:190,1,75.0000028610231,8|0,0:0|0:0,0:0:0:0:
317,197,31988,1,0,3:0:0:0:
164,209,32159,2,0,L|243:203,1,75.0000028610231,8|0,0:0|0:0,0:0:0:0:
97,100,32502,6,0,L|86:223,1,112.500004291535,4|0,3:2|0:0,0:0:0:0:
83,216,32845,1,0,3:0:0:0:
204,278,33016,1,8,0:0:0:0:
132,355,33188,2,0,L|125:275,1,75.0000028610231,0|0,0:0|3:0,0:0:0:0:
282,279,33530,2,0,L|275:353,1,75.0000028610231,8|0,0:0|0:0,0:0:0:0:
415,258,33873,5,0,3:0:0:0:
341,229,34045,1,0,3:0:0:0:
392,98,34216,1,8,0:0:0:0:
476,174,34388,2,0,L|396:180,1,75.0000028610231,8|0,0:0|0:0,0:0:0:0:
341,229,34730,1,0,3:0:0:0:
254,144,34902,2,0,L|333:150,1,75.0000028610231,8|0,0:0|0:0,0:0:0:0:
160,42,35245,6,0,L|48:51,1,112.500004291535,4|0,3:2|0:0,0:0:0:0:
43,55,35588,1,0,3:0:0:0:
249,146,35759,2,0,L|175:141,1,75.0000028610231,8|0,0:0|0:0,0:0:0:0:
324,154,36102,1,0,3:0:0:0:
107,187,36273,2,0,L|27:193,1,75.0000028610231,8|0,0:0|0:0,0:0:0:0:
247,271,36616,5,0,3:0:0:0:
183,224,36788,1,4,0:1:0:0:
176,303,36959,1,8,0:3:0:0:
329,186,37130,2,0,L|249:192,1,75.0000028610231,8|0,0:0|0:0,0:0:0:0:
191,145,37473,1,0,3:0:0:0:
239,352,37645,2,0,L|318:358,1,75.0000028610231,8|0,0:0|0:0,0:0:0:0:
463,375,37988,5,8,0:0:0:0:
403,237,38159,1,0,3:0:0:0:
399,233,38330,1,8,0:0:0:0:
459,95,38502,1,0,3:0:0:0:
463,91,38673,1,8,0:0:0:0:
364,132,38845,1,0,3:0:0:0:
507,219,39016,2,0,L|391:229,1,112.500004291535,12|0,0:0|0:0,0:0:0:0:
390,224,39359,5,10,3:2:0:0:
310,325,39530,1,10,3:2:0:0:
111,311,39702,1,10,3:2:0:0:
12,91,39873,1,10,3:2:0:0:
11,91,40730,6,0,P|59:78|108:90,1,100,14|2,3:2|0:2,0:2:0:0:
240,147,41073,1,2,3:2:0:0:
260,48,41245,1,14,0:2:0:0:
303,241,41416,2,0,P|230:227|161:256,1,150,2|0,3:2|0:2,0:2:0:0:
157,260,41759,2,0,L|148:359,1,100,14|0,3:2|0:2,0:2:0:0:
388,315,42102,6,0,L|379:215,1,100,14|2,3:2|0:2,0:2:0:0:
355,57,42445,1,2,3:2:0:0:
270,110,42616,1,14,0:2:0:0:
492,87,42788,2,0,P|433:45|360:52,1,150,2|0,3:2|0:2,0:2:0:0:
355,57,43130,2,0,L|247:48,1,100,14|0,3:2|0:2,0:2:0:0:
38,50,43473,6,0,P|28:98|28:148,1,100,14|2,3:2|0:2,0:2:0:0:
98,289,43816,1,2,3:2:0:0:
0,245,43988,1,14,0:2:0:0:
213,177,44159,2,0,P|163:168|114:177,1,100,2|0,3:2|0:2,0:2:0:0:
271,238,44502,2,0,P|320:246|369:237,1,100,14|0,3:2|0:2,0:2:0:0:
191,255,44845,6,0,L|200:366,1,100,14|0,3:2|0:2,0:2:0:0:
80,280,45188,1,0,3:2:0:0:
292,162,45359,1,14,0:2:0:0:
118,139,45530,2,8,L|113:194,3,37.5000014305115,8|8|8|8,3:1|0:1|0:1|0:1,0:1:0:0:
212,75,45873,2,8,L|208:37,3,37.5000014305115,8|8|8|8,3:1|0:1|0:1|0:1,0:1:0:0:
216,79,46216,6,0,P|285:103|354:77,1,150,14|0,3:2|0:2,0:2:0:0:
358,72,46559,1,0,0:0:0:0:
444,122,46730,1,14,0:0:0:0:
395,284,46902,1,2,3:2:0:0:
449,208,47073,1,2,0:2:0:0:
298,225,47245,1,14,3:2:0:0:
485,292,47416,1,2,0:2:0:0:
287,139,47588,6,0,P|225:178|218:250,1,150,14|0,3:2|0:2,0:2:0:0:
222,254,47930,1,2,3:2:0:0:
370,176,48102,1,12,0:2:0:0:
375,311,48273,2,0,L|255:321,1,100,2|0,3:2|0:2,0:2:0:0:
42,262,48616,2,0,L|161:272,1,100,14|0,3:2|0:2,0:2:0:0:
36,30,48959,5,14,3:2:0:0:
44,38,49302,1,0,3:2:0:0:
88,211,49473,1,14,0:2:0:0:
66,125,49645,2,0,L|183:135,1,100,2|0,3:2|0:2,0:2:0:0:
255,143,49988,1,12,3:2:0:0:
92,215,50159,1,2,0:2:0:0:
218,59,50330,6,0,P|267:53|312:72,1,100,10|0,3:2|0:0,0:0:0:0:
368,137,50588,1,8,0:1:0:0:
372,141,50673,2,8,L|376:196,1,50,8|8,3:1|0:1,0:1:0:0:
340,266,50845,1,8,0:1:0:0:
336,270,50930,1,8,0:1:0:0:
332,274,51016,2,8,L|327:329,1,50,8|8,3:1|0:1,0:1:0:0:
295,196,51188,5,8,0:1:0:0:
246,186,51273,1,8,0:1:0:0:
197,197,51359,1,8,3:1:0:0:
160,215,51445,1,8,0:1:0:0:
111,224,51530,1,8,0:1:0:0:
67,203,51616,1,8,0:1:0:0:
34,154,51702,6,0,P|73:122|131:119,1,110.000003356934,14|2,3:2|0:2,0:2:0:0:
234,184,52045,1,2,3:2:0:0:
192,278,52216,1,14,0:2:0:0:
437,325,52388,2,0,P|381:266|301:266,1,165.000005035401,2|0,3:2|0:2,0:2:0:0:
298,272,52730,2,0,L|188:281,1,110.000003356934,14|0,3:2|0:2,0:2:0:0:
0,160,53073,6,0,B|29:152|60:157|44:179|79:189|107:178,1,110.000003356934,14|2,3:2|0:2,0:2:0:0:
271,201,53416,1,2,3:2:0:0:
100,271,53588,1,14,0:2:0:0:
26,47,53759,2,0,P|104:24|182:46,1,165.000005035401,2|0,3:2|0:2,0:2:0:0:
186,50,54102,2,0,L|196:169,1,110.000003356934,14|0,3:2|0:2,0:2:0:0:
222,356,54445,5,14,3:2:0:0:
226,360,54616,1,2,0:2:0:0:
384,232,54788,1,2,3:2:0:0:
250,227,54959,1,14,0:2:0:0:
313,346,55130,2,0,L|425:336,1,110.000003356934,2|0,3:2|0:2,0:2:0:0:
254,231,55473,1,14,3:2:0:0:
231,364,55644,1,0,0:2:0:0:
435,99,55816,6,0,L|323:108,1,110.000003356934,10|0,3:2|0:2,0:2:0:0:
256,179,56073,1,8,0:1:0:0:
252,183,56159,2,8,L|323:189,1,50,8|8,3:1|0:1,0:1:0:0:
404,262,56330,2,8,L|332:268,1,50,8|8,0:1|0:1,0:1:0:0:
259,339,56502,1,8,3:1:0:0:
129,159,56673,1,8,0:1:0:0:
125,213,56758,1,8,0:1:0:0:
120,268,56844,1,8,3:1:0:0:
248,187,57016,1,8,0:1:0:0:
139,60,57188,6,0,P|218:41|295:67,1,165.000005035401,14|0,3:2|0:2,0:2:0:0:
300,71,57530,1,0,3:2:0:0:
358,151,57702,1,14,0:2:0:0:
512,55,57873,2,0,L|392:65,1,110.000003356934,2|2,3:2|0:2,0:2:0:0:
150,152,58216,2,0,L|269:162,1,110.000003356934,14|2,3:2|0:2,0:2:0:0:
495,258,58559,6,0,P|414:250|341:287,1,165.000005035401,12|0,3:2|0:2,0:2:0:0:
338,291,58902,1,2,3:2:0:0:
282,372,59073,1,12,0:2:0:0:
131,275,59245,2,0,L|242:284,1,110.000003356934,2|0,3:2|0:2,0:2:0:0:
109,172,59588,2,0,L|-2:181,1,110.000003356934,14|0,3:2|0:2,0:2:0:0:
164,65,59930,6,0,B|209:54|240:76|246:76|251:77|282:101|340:84,1,165.000005035401,14|0,3:2|0:2,0:2:0:0:
329,84,60273,1,0,3:2:0:0:
402,15,60445,1,14,0:2:0:0:
487,166,60616,2,0,P|407:151|335:188,1,165.000005035401,2|0,3:2|0:2,0:2:0:0:
255,185,60959,2,0,P|331:212|375:280,1,165.000005035401,12|0,3:2|0:2,0:2:0:0:
379,284,61302,5,14,3:2:0:0:
387,292,61645,1,0,3:2:0:0:
259,344,61816,1,12,0:2:0:0:
177,275,61988,2,8,L|180:237,3,37.5000014305115,8|8|8|8,3:1|0:1|0:1|0:1,0:1:0:0:
94,338,62330,2,8,L|97:375,3,37.5000014305115,8|8|8|8,3:1|0:1|0:1|0:1,0:1:0:0:
46,216,62673,6,0,P|86:147|164:126,1,165.000005035401,14|0,3:2|0:2,0:2:0:0:
168,130,63016,1,2,3:2:0:0:
264,246,63188,1,12,0:2:0:0:
115,271,63359,2,0,L|194:278,1,75.0000028610231,2|0,3:2|0:2,0:2:0:0:
316,105,63702,2,0,P|397:100|465:145,1,165.000005035401,14|0,3:2|0:2,0:2:0:0:
469,149,64045,6,0,L|459:260,1,110.000003356934,14|0,3:2|0:2,0:2:0:0:
444,367,64388,1,2,3:2:0:0:
373,191,64559,1,12,0:2:0:0:
357,299,64730,1,2,3:2:0:0:
276,125,64902,2,8,L|221:130,1,55.0000016784668,8|8,0:1|0:1,0:1:0:0:
84,190,65073,2,8,L|139:195,1,55.0000016784668,8|8,0:1|0:1,0:1:0:0:
226,16,65245,1,8,0:1:0:0:
222,70,65330,1,8,0:1:0:0:
217,125,65416,5,12,3:2:0:0:
217,125,65759,1,0,3:0:0:0:
360,88,65930,1,12,0:0:0:0:
334,226,66102,1,0,3:0:0:0:
342,234,66445,1,12,3:2:0:0:
98,226,66788,5,12,3:2:0:0:
90,218,67130,1,0,3:2:0:0:
91,73,67302,1,12,0:2:0:0:
216,146,67473,1,0,3:2:0:0:
208,154,67816,1,12,3:2:0:0:
345,84,68159,5,12,3:2:0:0:
353,92,68502,1,0,3:2:0:0:
470,172,68673,1,12,0:2:0:0:
342,234,68845,1,0,3:2:0:0:
334,242,69188,1,12,3:2:0:0:
463,325,69359,1,0,0:2:0:0:
353,92,69530,5,4,3:2:0:0:
208,154,69702,1,8,0:2:0:0:
334,242,69873,1,0,3:2:0:0:
90,218,70045,1,8,0:1:0:0:
86,222,70130,1,8,0:1:0:0:
82,226,70216,2,8,L|77:281,3,42.5000008106232,8|8|8|8,0:1|0:1|0:1|0:1,0:1:0:0:
165,340,70559,2,8,L|161:297,3,42.5000008106232,8|8|8|8,0:1|0:1|0:1|0:1,0:1:0:0:
236,235,70902,6,0,P|294:223|351:238,2,119.999996337891,2|2|2,0:0|0:0|0:0,0:0:0:0:
397,311,71416,2,0,P|455:322|512:307,1,119.999996337891,2|2,0:0|0:0,0:0:0:0:
447,115,71759,2,0,L|435:250,1,119.999996337891,2|2,0:0|0:0,0:0:0:0:
374,62,72102,6,0,B|330:41|262:71|256:70|249:70|185:105|130:60,1,239.999992675781,2|2,0:0|0:0,0:0:0:0:
138,322,72788,2,0,B|182:343|250:313|255:313|262:313|327:279|382:324,1,239.999992675781,2|2,0:0|0:0,0:0:0:0:
441,367,73302,1,2,0:0:0:0:
419,29,73645,6,0,P|401:108|336:58,1,179.999994506836,2|2,0:0|0:0,0:0:0:0:
106,34,74159,2,0,P|122:113|187:63,1,179.999994506836,2|0,0:0|0:0,0:0:0:0:
191,74,74502,2,0,L|270:66,1,75.0000028610231,2|0,0:0|0:0,0:0:0:0:
257,317,75016,6,0,B|273:283|256:231|256:231|231:174|250:142,1,179.999994506836,2|2,0:0|0:0,0:0:0:0:
181,149,75530,2,0,P|260:211|202:93,1,359.999989013672,2|2,0:0|0:0,0:0:0:0:
342,129,76388,6,0,P|400:140|457:125,2,119.999996337891,2|2|2,0:0|0:0|0:0,0:0:0:0:
190,65,76902,2,0,P|131:53|74:68,1,119.999996337891,2|2,0:0|0:0,0:0:0:0:
156,331,77245,2,0,P|195:286|210:228,1,119.999996337891,2|2,0:0|0:0,0:0:0:0:
21,169,77588,6,0,P|42:267|122:205,1,239.999992675781,2|2,0:0|0:0,0:0:0:0:
480,165,78273,2,0,P|462:243|397:193,1,179.999994506836,2|0,0:0|0:0,0:0:0:0:
394,202,78616,1,2,0:0:0:0:
242,66,79130,6,0,B|232:90|242:146|262:123|280:188|261:240,1,179.999994506836,2|2,0:0|0:0,0:0:0:0:
221,318,79645,1,2,0:0:0:0:
510,311,79988,2,0,P|411:254|318:320,1,239.999992675781,2|2,0:0|0:0,0:0:0:0:
291,89,80502,2,0,P|316:171|263:240,1,179.999994506836,2|2,0:0|0:0,0:0:0:0:
222,154,81016,1,2,0:0:0:0:
33,28,81873,6,0,L|190:41,1,150,4|8,3:2|0:0,0:0:0:0:
256,48,82539,1,0,0:0:0:0:
213,110,82706,1,0,3:0:0:0:
297,169,82873,2,0,L|290:97,1,50,8|0,0:0|0:0,0:0:0:0:
385,64,83206,6,0,L|336:61,2,50,0|0|0,3:0|3:0|0:0,0:0:0:0:
377,143,83706,2,0,L|426:138,1,50,8|0,0:0|0:0,0:0:0:0:
501,135,84039,1,0,3:0:0:0:
457,73,84206,2,0,L|462:9,1,50,8|0,0:0|0:0,0:0:0:0:
332,84,84539,5,0,3:0:0:0:
297,150,84706,2,0,L|292:199,1,50,8|0,0:0|0:0,0:0:0:0:
402,141,85039,1,8,0:0:0:0:
402,141,85373,1,0,3:0:0:0:
368,272,85539,2,0,L|361:200,1,50,8|0,0:0|0:0,0:0:0:0:
223,109,85873,6,0,L|159:103,2,50,0|0|0,3:0|0:0|0:0,0:0:0:0:
295,142,86373,2,0,L|301:70,1,50,8|0,0:0|0:0,0:0:0:0:
340,211,86706,1,0,3:0:0:0:
266,218,86873,2,0,L|194:224,1,50,8|0,0:0|0:0,0:0:0:0:
37,265,87206,6,0,L|108:271,1,50,0|0,3:0|3:0,0:0:0:0:
205,354,87539,2,0,P|165:319|143:366,1,119.999996337891,2|0,0:0|0:0,0:0:0:0:
286,366,88539,6,0,L|296:246,1,100,0|0,3:0|0:0,0:0:0:0:
305,191,89039,1,8,0:0:0:0:
363,238,89206,1,0,0:0:0:0:
375,164,89372,1,0,3:0:0:0:
313,68,89539,2,0,L|318:131,1,50,8|0,0:0|0:0,0:0:0:0:
181,180,89872,6,0,L|252:186,1,50,8|0,0:2|3:0,0:0:0:0:
305,191,90206,1,0,0:0:0:0:
139,252,90372,2,0,L|210:258,1,50,8|0,0:0|0:0,0:0:0:0:
263,263,90706,1,0,3:0:0:0:
223,108,90872,2,0,L|294:114,1,50,8|0,0:0|0:0,0:0:0:0:
419,126,91206,6,0,P|427:164|425:205,1,75,0|8,3:0|0:1,0:0:0:0:
422,203,91539,1,8,0:1:0:0:
439,276,91706,1,0,3:0:0:0:
366,258,91872,2,0,L|363:282,3,25,2|2|4|4,0:3|0:3|0:3|0:3,0:1:0:0:
296,334,92206,2,8,L|292:296,3,25,8|8|8|8,0:1|0:1|0:1|0:1,0:1:0:0:
225,270,92539,5,0,3:0:0:0:
37,102,93372,6,2,L|37:116,3,12.5,2|0|2|2,0:0|0:0|0:0|0:0,0:0:0:0:
91,42,93539,6,0,P|66:111|108:170,1,150,14|0,0:2|0:0,0:0:0:0:
146,100,93872,1,0,3:0:0:0:
146,100,94039,6,0,B|129:171|129:171|150:223|150:223|131:291,1,200,6|0,0:0|3:0,0:0:0:0:
107,375,94541,5,2,0:0:0:0:
60,236,94712,1,2,0:3:0:0:
45,217,94798,1,4,0:3:0:0:
25,205,94883,1,8,0:3:0:0:
46,314,95055,1,4,0:1:0:0:
188,275,95226,6,0,L|253:263,2,66.6666666666667,2|4|8,0:3|0:3|0:3,0:0:0:0:
148,142,95569,2,0,L|134:209,1,66.6666666666667,2|4,0:3|0:3,0:0:0:0:
231,139,95791,5,8,0:1:0:0:
236,104,95866,2,0,L|218:47,2,50,8|0|0,0:1|0:1|0:0,0:0:0:0:
314,196,96116,1,8,0:1:0:0:
342,217,96199,2,0,L|400:230,2,50,8|0|0,0:1|0:1|0:0,0:0:0:0:
222,240,96449,1,8,0:1:0:0:
189,253,96532,2,0,L|149:297,1,50,8|0,0:1|0:1,0:0:0:0:
275,358,96699,5,8,0:1:0:0:
241,369,96782,1,8,0:1:0:0:
203,360,96866,1,8,0:1:0:0:
292,277,97032,1,8,3:1:0:0:
404,318,97200,6,8,L|392:372,1,50,8|8,0:1|0:1,0:1:0:0:
317,252,97371,1,8,0:1:0:0:
445,156,97542,5,8,0:1:0:0:
426,184,97628,1,8,0:1:0:0:
397,202,97714,1,8,0:1:0:0:
361,213,97800,1,8,0:1:0:0:
314,206,97885,6,0,P|295:202|275:202,1,40,0|0,3:0|0:0,0:0:0:0:
128,227,98051,1,0,3:0:0:0:
129,232,98385,2,0,P|152:178|150:118,1,120,8|0,0:0|0:0,0:0:0:0:
122,53,98718,1,0,3:0:0:0:
66,265,98885,2,0,L|210:285,1,120,8|0,0:0|0:0,0:0:0:0:
216,213,99218,6,0,L|220:252,1,40,0|0,3:0|0:0,0:0:0:0:
239,363,99385,1,0,3:0:0:0:
239,368,99718,2,0,P|291:340|350:334,1,120,8|0,0:0|0:0,0:0:0:0:
423,369,100051,1,0,3:0:0:0:
455,180,100218,2,0,P|426:232|417:291,1,120,8|0,0:0|0:0,0:0:0:0:
388,219,100551,6,0,P|383:200|372:184,1,40,0|0,3:0|0:0,0:0:0:0:
270,82,100718,1,0,3:0:0:0:
268,76,101051,2,0,P|290:131|293:191,1,120,8|0,0:0|0:0,0:0:0:0:
266,266,101385,1,0,3:0:0:0:
101,218,101551,2,0,B|159:197|159:197|216:204,1,120,8|0,0:0|0:0,0:0:0:0:
83,142,101885,6,0,B|66:187,1,40,0|0,3:0|0:0,0:0:0:0:
26,287,102051,1,2,3:3:0:0:
22,294,102135,1,2,0:3:0:0:
17,304,102218,2,0,L|39:336,3,40,4|4|8|8,0:3|0:3|0:3|0:3,0:3:0:0:
7,225,102551,5,8,0:1:0:0:
139,332,102718,1,8,0:1:0:0:
143,338,102801,1,8,0:1:0:0:
148,343,102885,2,8,L|197:347,1,40,8|8,0:1|0:1,0:1:0:0:
276,270,103051,2,8,L|229:276,1,40,8|8,0:1|0:1,0:1:0:0:
300,354,103218,6,4,L|379:363,1,80,4|0,0:2|3:2,0:0:0:0:
274,264,103560,1,8,0:0:0:0:
273,256,103732,2,0,L|352:265,1,80,0|0,3:0|0:0,0:0:0:0:
420,178,104075,2,0,L|341:187,1,80,0|0,3:0|0:0,0:0:0:0:
480,226,104418,5,8,0:0:0:0:
480,233,104589,2,0,P|501:179|479:124,1,120,0|0,3:0|3:0,0:0:0:0:
444,101,104932,1,8,0:0:0:0:
284,97,105103,2,0,L|363:106,1,80,0|0,3:0|0:0,0:0:0:0:
304,12,105446,2,0,L|225:21,1,80,0|0,3:0|0:0,0:0:0:0:
43,119,105789,5,8,0:0:0:0:
49,125,105960,2,0,P|108:132|166:119,1,120,0|0,3:0|3:0,0:0:0:0:
199,101,106303,1,8,0:0:0:0:
172,204,106475,2,0,L|152:281,1,80,0|0,3:0|0:0,0:0:0:0:
248,376,106818,2,0,L|228:298,1,80,0|0,3:0|0:0,0:0:0:0:
2,269,107160,5,8,0:0:0:0:
8,262,107331,2,0,P|67:254|125:267,1,120,0|0,3:0|3:0,0:0:0:0:
152,281,107675,1,8,0:0:0:0:
214,157,107846,2,0,P|221:196|218:235,2,80,0|0|8,3:0|0:0|0:0,0:0:0:0:
164,95,108360,1,0,3:0:0:0:
164,95,108703,6,0,P|219:118|279:119,1,120,0|0,3:0|3:0,0:0:0:0:
313,115,109046,1,8,0:0:0:0:
185,14,109218,2,0,P|146:14|110:30,1,80,0|0,3:0|0:0,0:0:0:0:
141,178,109560,2,0,P|161:144|165:104,1,80,0|0,3:0|0:0,0:0:0:0:
57,177,109903,1,8,0:0:0:0:
187,243,110075,6,0,L|338:259,1,120,0|0,3:0|3:0,0:0:0:0:
340,189,110418,2,0,P|339:257|403:234,1,160,8|0,0:0|0:0,0:0:0:0:
413,155,110932,1,0,3:0:0:0:
252,187,111103,1,0,0:0:0:0:
346,102,111275,5,8,0:0:0:0:
346,109,111446,2,0,P|289:93|242:56,1,120,0|0,3:0|3:0,0:0:0:0:
222,32,111789,1,8,0:0:0:0:
267,161,111960,1,0,3:0:0:0:
270,167,112132,2,0,P|277:223|264:270,1,80,0|0,0:0|3:0,0:0:0:0:
164,93,112475,2,0,P|157:149|170:196,1,80,0|8,0:0|0:0,0:0:0:0:
58,2,112818,6,0,P|65:61|51:119,1,120,0|0,3:0|3:0,0:0:0:0:
37,145,113160,1,8,0:0:0:0:
68,229,113332,1,0,0:0:0:0:
148,115,113503,1,4,0:3:0:0:
136,144,113589,1,4,0:3:0:0:
138,177,113675,1,8,0:3:0:0:
179,275,113846,6,0,L|170:192,1,82.5000025177003,4|0,0:0|0:0,0:0:0:0:
148,107,114189,6,0,P|190:173|264:198,1,160,12|0,0:0|0:0,0:0:0:0:
354,212,114703,1,0,3:0:0:0:
243,20,114875,2,0,P|239:98|285:161,1,160,0|12,3:0|0:0,0:0:0:0:
361,217,115389,1,0,3:0:0:0:
326,11,115560,6,0,P|314:48|316:88,1,80,8|0,0:0|0:0,0:0:0:0:
381,231,115903,2,0,P|393:193|391:153,1,80,0|0,0:0|3:0,0:0:0:0:
257,178,116246,2,0,P|255:217|267:255,1,80,0|0,0:0|3:0,0:0:0:0:
332,384,116589,2,0,P|344:346|342:306,1,80,12|0,0:0|0:0,0:0:0:0:
172,347,116932,6,0,L|251:339,1,80,8|0,0:0|0:0,0:0:0:0:
322,302,117275,1,8,0:3:0:0:
339,224,117446,1,4,0:1:0:0:
287,162,117618,1,8,0:3:0:0:
207,167,117789,1,4,0:1:0:0:
157,230,117960,2,0,P|128:256|90:267,1,80,12|0,0:0|0:0,0:0:0:0:
80,104,118303,6,0,L|90:184,1,80,8|0,0:0|0:0,0:0:0:0:
0,107,118646,1,0,3:0:0:0:
174,65,118818,2,0,L|164:144,1,80,8|0,0:0|0:0,0:0:0:0:
80,28,119160,1,8,0:1:0:0:
116,43,119245,1,8,0:1:0:0:
155,41,119331,1,8,0:1:0:0:
274,164,119503,5,8,0:1:0:0:
237,148,119588,1,8,0:1:0:0:
198,150,119675,2,0,P|158:180|141:216,1,80,4|0,3:2|3:0,0:0:0:0:
146,285,120018,1,4,0:1:0:0:
208,335,120189,1,8,0:0:0:0:
76,241,120360,5,8,0:3:0:0:
146,285,120532,1,4,0:1:0:0:
220,256,120703,1,8,0:0:0:0:
285,303,120875,1,0,3:0:0:0:
310,145,121046,6,0,L|294:223,1,80,0|4,3:0|0:1,0:0:0:0:
204,95,121389,2,0,L|219:173,1,80,8|8,0:3|0:0,0:0:0:0:
370,73,121732,2,0,P|339:97|301:110,1,80,8|4,0:3|0:1,0:0:0:0:
434,19,122075,2,0,P|471:31|503:56,1,80,8|8,0:0|0:3,0:0:0:0:
444,196,122418,5,4,3:2:0:0:
377,292,122760,1,0,3:0:0:0:
376,303,122932,1,8,0:0:0:0:
417,114,123103,1,0,3:0:0:0:
423,106,123275,1,8,0:0:0:0:
470,308,123446,1,0,3:0:0:0:
317,194,123618,1,0,3:2:0:0:
505,223,123789,5,10,3:2:0:0:
435,327,123960,1,10,3:2:0:0:
275,315,124132,1,10,3:2:0:0:
130,164,124303,6,0,B|113:40|113:40|93:87,1,160,8|8,3:2|0:1,0:0:0:0:
75,226,124732,1,8,0:1:0:0:
75,226,124818,2,0,P|129:246|183:224,1,120,8|0,0:1|0:0,0:0:0:0:
205,201,125160,5,14,3:2:0:0:
45,136,125332,1,2,0:2:0:0:
5,278,125503,1,2,3:2:0:0:
57,124,125675,1,14,0:2:0:0:
120,328,125846,5,2,3:2:0:0:
123,337,126189,1,14,3:2:0:0:
125,345,126532,5,14,3:2:0:0:
171,170,126703,1,2,0:2:0:0:
194,308,126875,1,2,3:2:0:0:
85,151,127046,1,14,0:2:0:0:
240,235,127218,5,2,3:2:0:0:
249,240,127560,1,14,3:2:0:0:
258,245,127903,5,14,3:2:0:0:
110,233,128075,1,2,0:2:0:0:
266,250,128246,1,2,3:2:0:0:
151,82,128418,1,14,0:2:0:0:
232,144,128589,2,0,P|281:138|322:110,1,100,2|0,3:2|0:2,0:2:0:0:
225,33,128932,2,0,P|183:5|134:0,1,100,14|0,3:2|0:2,0:2:0:0:
65,48,129275,5,14,3:2:0:0:
102,149,129446,1,8,0:1:0:0:
116,176,129532,1,8,0:1:0:0:
112,207,129618,1,8,3:1:0:0:
6,288,129789,1,8,0:1:0:0:
2,257,129875,1,8,0:1:0:0:
16,230,129961,1,8,3:1:0:0:
94,344,130132,1,8,0:1:0:0:
17,144,130303,1,8,3:1:0:0:
171,279,130475,5,8,0:1:0:0:
201,287,130560,1,8,0:1:0:0:
225,280,130646,2,0,P|251:272|332:283,2,100,14|0|0,3:2|0:2|3:2,0:2:0:0:
152,334,131160,1,14,0:2:0:0:
270,191,131332,2,0,P|284:144|278:95,1,100,2|0,3:2|0:2,0:2:0:0:
136,36,131675,1,14,3:2:0:0:
191,134,131846,1,2,0:2:0:0:
365,90,132018,6,0,L|483:80,1,100,14|0,3:2|0:2,0:2:0:0:
361,229,132360,2,0,L|243:219,1,100,2|12,3:2|0:2,0:2:0:0:
122,41,132703,2,0,L|221:49,1,100,2|0,3:2|0:2,0:2:0:0:
118,180,133046,2,0,L|10:188,1,100,14|0,3:2|0:2,0:2:0:0:
250,130,133389,6,0,P|260:204|234:274,1,150,14|0,3:2|0:2,0:2:0:0:
216,297,133732,1,0,3:2:0:0:
116,195,133903,1,14,0:2:0:0:
293,216,134075,1,2,3:2:0:0:
297,222,134246,1,0,0:2:0:0:
129,282,134418,1,12,3:2:0:0:
225,372,134589,1,2,0:2:0:0:
186,135,134760,5,10,3:1:0:0:
181,109,134846,1,8,0:1:0:0:
176,82,134932,2,8,L|165:14,5,50,8|8|8|8|8|8,0:1|0:1|3:1|0:1|0:1|0:1,0:1:0:0:
99,204,135446,6,8,L|110:136,3,50,8|8|8|8,3:1|0:1|0:1|0:1,0:1:0:0:
179,327,135789,2,8,L|168:259,3,50,8|8|8|8,3:1|0:1|0:1|0:1,0:1:0:0:
109,372,136132,5,14,3:2:0:0:
273,258,136303,1,2,0:2:0:0:
95,360,136475,1,2,3:2:0:0:
213,187,136646,1,14,0:2:0:0:
255,343,136818,5,2,3:2:0:0:
258,354,137160,1,14,3:2:0:0:
217,116,137503,5,14,3:2:0:0:
263,347,137675,1,2,0:2:0:0:
210,125,137846,1,2,3:2:0:0:
143,332,138018,1,14,0:2:0:0:
333,182,138189,5,2,3:2:0:0:
325,194,138532,1,14,3:2:0:0:
91,229,138875,5,14,3:2:0:0:
169,355,139046,1,2,0:2:0:0:
196,163,139218,2,0,L|295:153,1,100,2|12,3:2|0:2,0:2:0:0:
99,80,139560,2,0,L|-25:68,1,100,2|0,3:2|0:2,0:2:0:0:
98,222,139903,1,14,3:2:0:0:
184,58,140075,1,2,0:2:0:0:
315,143,140246,6,0,P|322:193|318:243,1,100,10|0,3:2|0:2,0:2:0:0:
312,264,140503,1,8,0:1:0:0:
304,280,140589,1,8,3:1:0:0:
221,202,140760,1,10,0:1:0:0:
408,244,140932,1,10,3:1:0:0:
386,101,141103,1,8,0:1:0:0:
375,84,141189,1,8,0:1:0:0:
359,71,141275,1,8,3:1:0:0:
217,41,141446,1,8,0:1:0:0:
320,169,141618,6,0,B|364:150|417:177|417:177|462:200|513:186,1,200,14|0,3:2|0:2,0:2:0:0:
362,253,142132,1,14,0:2:0:0:
240,69,142303,2,0,L|142:45,1,100,2|2,3:2|0:2,0:2:0:0:
0,184,142646,2,0,L|97:160,1,100,14|2,3:2|3:2,0:2:0:0:
277,157,142989,6,0,P|230:142|183:157,1,100,14|0,3:2|0:2,0:2:0:0:
336,318,143332,2,0,P|350:271|335:224,1,100,2|12,3:2|0:2,0:2:0:0:
174,369,143675,2,0,P|221:384|268:369,1,100,2|0,3:2|0:2,0:2:0:0:
116,208,144018,2,0,P|101:255|116:302,1,100,14|0,3:2|0:2,0:2:0:0:
206,27,144360,6,0,P|234:95|217:166,1,150,14|0,3:2|0:2,0:2:0:0:
205,190,144703,1,0,3:2:0:0:
122,62,144875,1,12,0:2:0:0:
301,146,145046,2,0,P|356:158|430:137,1,100,2|0,3:2|0:2,0:2:0:0:
276,36,145389,1,12,3:2:0:0:
130,173,145560,5,0,0:2:0:0:
126,180,145732,2,0,L|139:290,1,100,14|0,3:2|0:2,0:2:0:0:
42,219,146075,1,0,3:2:0:0:
237,108,146246,2,0,L|224:218,1,100,12|0,0:2|3:2,0:2:0:0:
211,291,146589,1,0,0:2:0:0:
141,92,146760,5,14,3:2:0:0:
139,85,147103,6,2,L|248:90,1,100,14|2,3:2|0:2,0:2:0:0:
405,33,147446,2,0,L|296:38,1,100,2|12,3:2|0:2,0:2:0:0:
301,251,147789,2,0,P|323:207|331:158,1,100,2|0,3:2|0:2,0:2:0:0:
175,313,148132,2,0,P|152:268|144:219,1,100,14|0,3:2|0:2,0:2:0:0:
331,228,148475,6,0,P|383:237|449:211,1,100,14|0,3:2|0:2,0:2:0:0:
313,80,148818,1,2,3:2:0:0:
317,87,148989,1,12,0:2:0:0:
247,209,149160,1,2,3:2:0:0:
374,307,149332,1,0,0:2:0:0:
379,314,149503,5,8,3:1:0:0:
340,315,149589,1,8,0:1:0:0:
299,329,149675,1,8,0:1:0:0:
256,319,149760,1,8,0:1:0:0:
213,330,149846,2,0,L|102:321,1,100,12|0,3:2|0:2,0:2:0:0:
8,307,150189,1,0,3:2:0:0:
203,244,150360,1,12,0:2:0:0:
205,258,150875,1,12,3:2:0:0:
207,273,151218,6,0,L|223:142,1,100,12|0,3:2|0:2,0:2:0:0:
231,89,151560,1,0,3:2:0:0:
63,196,151732,1,12,0:2:0:0:
63,208,152246,1,12,3:2:0:0:
63,220,152589,6,0,L|52:99,1,100,12|0,3:2|0:2,0:2:0:0:
43,36,152932,1,0,3:2:0:0:
224,127,153103,1,12,0:2:0:0:
226,138,153618,1,12,3:2:0:0:
126,81,153789,1,0,0:2:0:0:
228,220,153960,6,0,P|274:205|303:165,1,100,8|0,3:2|0:2,0:2:0:0:
310,149,154218,1,8,0:1:0:0:
310,133,154303,1,8,3:1:0:0:
144,206,154475,1,8,0:1:0:0:
143,225,154560,1,8,0:1:0:0:
143,248,154646,2,2,L|151:291,14,25,2|2|2|2|2|2|2|2|2|2|2|2|2|2|2,0:2|0:2|0:2|0:2|0:2|0:2|0:2|0:2|0:2|0:2|0:2|0:2|0:2|0:2|0:2,0:2:0:0:
203,332,155332,5,6,0:2:0:0:
206,336,155503,2,0,P|297:278|404:291,1,220.000006713867,2|2,0:0|0:0,0:0:0:0:
459,358,156018,2,0,B|426:307|444:248|444:248|468:173|441:133,1,220.000006713867,2|2,0:0|0:0,0:0:0:0:
415,57,156532,6,0,L|295:46,1,110.000003356934,2|6,0:0|0:0,0:0:0:0:
156,74,156875,2,0,P|229:73|227:147,1,165.000005035401,2|0,0:0|0:0,0:0:0:0:
191,167,157218,2,0,P|187:249|249:293,1,165.000005035401,2|0,0:0|0:0,0:0:0:0:
298,292,157560,2,0,B|304:212|304:212|334:246,2,110.000003356934,2|2|2,0:0|0:0|0:0,0:0:0:0:
164,255,158075,6,0,P|84:262|38:328,1,165.000005035401,6|2,0:0|0:0,0:0:0:0:
266,340,158589,2,0,L|393:353,1,110.000003356934,2|0,0:0|0:0,0:0:0:0:
473,328,158932,2,0,P|427:262|347:255,1,165.000005035401,2|0,0:0|0:0,0:0:0:0:
309,272,159275,2,0,B|302:192|302:192|272:226,1,110.000003356934,2|6,0:0|0:0,0:0:0:0:
231,307,159618,5,8,0:1:0:0:
204,309,159703,1,8,0:1:0:0:
177,311,159789,1,8,0:1:0:0:
108,215,159960,1,8,0:1:0:0:
135,218,160045,1,8,0:1:0:0:
162,220,160132,1,8,0:1:0:0:
237,123,160303,5,8,0:1:0:0:
210,126,160388,1,8,0:1:0:0:
183,128,160474,1,8,0:1:0:0:
88,38,160646,1,8,0:1:0:0:
115,41,160731,1,8,0:1:0:0:
142,43,160817,1,8,0:1:0:0:
0,36,160989,6,0,L|19:259,1,220.000006713867,2|2,0:0|0:0,0:0:0:0:
35,336,161503,2,0,B|109:316|103:234|103:234|138:217|185:247,1,220.000006713867,2|2,0:0|0:0,0:0:0:0:
390,281,162018,6,0,P|335:277|288:303,1,110.000003356934,2|6,0:0|0:0,0:0:0:0:
484,280,162360,2,0,P|444:206|345:200,1,165.000005035401,2|0,0:0|0:0,0:0:0:0:
326,194,162703,2,0,P|332:110|268:124,1,165.000005035401,2|0,0:0|0:0,0:0:0:0:
234,145,163046,2,0,B|146:137|146:137|165:106,2,110.000003356934,2|2|2,0:0|0:0|0:0,0:0:0:0:
423,35,163560,5,4,3:2:0:0:
476,104,163732,1,2,0:3:0:0:
480,108,163818,1,2,0:3:0:0:
484,112,163903,2,0,L|478:175,1,55.0000016784668,8|0,0:0|0:3,0:0:0:0:
426,277,164075,1,4,0:3:0:0:
422,281,164160,1,4,0:3:0:0:
418,285,164246,2,0,L|412:221,1,55.0000016784668,8|8,0:3|0:3,0:0:0:0:
361,109,164418,5,8,0:0:0:0:
357,105,164504,1,8,0:3:0:0:
353,101,164589,2,0,L|347:164,1,55.0000016784668,6|6,0:1|0:1,0:0:0:0:
202,284,164760,1,8,0:3:0:0:
210,293,164846,1,8,0:3:0:0:
210,293,164932,2,0,P|256:253|328:245,1,110.000003356934,8|0,0:2|0:0,0:0:0:0:
376,272,165189,1,8,0:0:0:0:
380,276,165275,6,0,L|386:349,1,37.5000014305115,8|0,0:0|0:0,0:0:0:0:
364,192,165446,1,8,0:1:0:0:
360,188,165532,1,8,0:1:0:0:
356,184,165618,2,8,L|361:120,3,37.5000014305115,8|8|8|8,0:1|0:1|0:1|0:1,0:1:0:0:
275,95,165960,2,8,L|278:132,3,37.5000014305115,8|8|8|8,0:1|0:1|0:1|0:1,0:1:0:0:
215,197,166303,6,0,L|87:185,1,119.999996337891,2|2,0:0|0:0,0:0:0:0:
20,106,167675,2,0,L|147:94,1,119.999996337891,2|2,0:0|0:0,0:0:0:0:
295,31,169046,6,0,P|238:30|219:83,1,119.999996337891,2|2,0:0|0:0,0:0:0:0:
260,145,170075,1,2,0:0:0:0:
281,217,170418,2,0,P|327:197|377:198,1,99.9999969482423,2|2,0:0|0:0,0:0:0:0:
416,222,171103,2,8,L|416:214,8,7.49999977111817,8|0|8|0|8|0|8|0|8,0:1|0:1|0:1|0:1|0:1|0:1|0:1|0:1|0:1,0:1:0:0:
308,327,171789,6,0,B|315:307|306:261|282:283|268:245|281:213,1,119.999996337891,2|2,0:0|0:0,0:0:0:0:
306,149,172818,1,2,0:0:0:0:
337,79,173160,2,0,B|306:66|269:68|269:68|252:91|221:102,1,119.999996337891,2|2,0:0|0:0,0:0:0:0:
161,75,174189,1,2,0:0:0:0:
98,118,174532,6,0,B|105:137|96:183|72:161|58:199|71:231,1,119.999996337891,2|2,0:0|0:0,0:0:0:0:
102,297,175560,1,2,0:0:0:0:
220,270,175903,1,2,0:0:0:0:
220,270,176589,5,4,0:3:0:0:
264,292,176703,1,8,0:3:0:0:
305,286,176818,1,4,0:1:0:0:
395,342,176932,5,8,0:0:0:0:
395,342,177275,6,0,L|403:246,2,75.0000028610231,4|8|0,0:2|0:3|3:0,3:0:0:0:
313,231,177789,1,8,0:0:0:0:
309,227,177960,2,0,L|316:316,2,75.0000028610231,0|8|0,3:0|0:0|3:0,0:0:0:0:
299,124,178475,1,4,0:1:0:0:
181,212,178646,5,0,3:0:0:0:
174,51,178818,1,8,0:3:0:0:
219,119,178989,1,0,3:0:0:0:
39,138,179160,1,8,0:0:0:0:
107,95,179332,1,0,3:0:0:0:
109,175,179503,1,8,0:0:0:0:
28,10,179675,2,0,L|102:16,1,75.0000028610231,0|4,3:0|0:1,0:0:0:0:
248,45,180018,6,0,L|168:51,1,75.0000028610231,0|8,3:0|0:3,0:0:0:0:
33,90,180360,2,0,L|112:96,1,75.0000028610231,0|8,3:0|0:0,0:0:0:0:
261,125,180703,2,0,L|181:131,1,75.0000028610231,0|8,3:0|0:0,0:0:0:0:
39,168,181046,2,0,L|118:174,1,75.0000028610231,0|4,3:0|0:1,0:0:0:0:
281,251,181389,5,0,3:0:0:0:
186,208,181560,1,8,0:3:0:0:
196,312,181732,1,0,3:0:0:0:
268,153,181903,1,8,0:0:0:0:
105,268,182075,1,0,3:0:0:0:
281,251,182246,1,8,0:0:0:0:
24,161,182418,2,0,L|119:169,1,75.0000028610231,0|4,3:0|0:1,0:0:0:0:
338,185,182760,6,0,L|178:198,1,150.000005722046,4|0,3:2|3:0,0:0:0:0:
221,112,183275,1,8,0:0:0:0:
184,201,183446,1,0,3:0:0:0:
258,23,183618,1,8,0:0:0:0:
317,100,183789,1,0,3:0:0:0:
163,36,183960,1,4,0:1:0:0:
272,263,184132,6,0,L|278:183,1,75.0000028610231,0|8,3:0|0:3,0:0:0:0:
359,325,184475,2,0,L|352:245,1,75.0000028610231,0|8,3:0|0:0,0:0:0:0:
193,247,184818,2,0,L|186:321,1,75.0000028610231,0|8,3:0|0:0,0:0:0:0:
101,202,185160,2,0,L|107:276,1,75.0000028610231,0|4,3:0|0:1,0:0:0:0:
8,109,185503,6,0,L|183:124,1,150.000005722046,4|0,3:2|3:0,0:0:0:0:
244,133,186018,1,8,0:0:0:0:
211,53,186189,1,0,3:0:0:0:
277,213,186360,1,8,0:0:0:0:
157,122,186532,1,0,3:0:0:0:
296,64,186703,1,4,0:1:0:0:
116,194,186875,6,0,L|195:200,2,75.0000028610231,0|8|0,3:0|0:3|3:0,0:0:0:0:
250,280,187389,1,8,0:0:0:0:
254,284,187560,2,0,L|174:290,2,75.0000028610231,0|8|0,3:0|0:0|3:0,0:0:0:0:
125,358,188075,1,4,0:1:0:0:
289,208,188246,6,0,P|320:237|334:277,1,85.0000016212464,12|0,3:2|0:0,0:0:0:0:
300,349,188589,1,0,3:0:0:0:
436,143,188760,1,8,0:0:0:0:
440,139,188932,2,0,P|409:167|395:207,1,85.0000016212464,0|0,3:0|0:0,0:0:0:0:
410,49,189275,1,8,3:2:0:0:
361,141,189446,1,0,0:0:0:0:
271,71,189618,6,0,P|231:59|190:67,1,85.0000016212464,8|0,3:2|0:0,0:0:0:0:
198,146,189960,1,0,3:0:0:0:
122,111,190132,1,8,0:0:0:0:
287,147,190303,2,0,L|284:170,4,21.2500004053116,2|2|2|2|2,3:2|0:0|0:0|0:0|0:0,0:0:0:0:
240,243,190646,2,0,P|280:254|321:246,1,85.0000016212464,8|0,3:2|0:0,0:0:0:0:
98,236,190989,6,0,P|110:173|163:208,1,150,10|0,0:0|0:0,0:0:0:0:
167,212,191332,2,8,L|206:215,3,29.9999990844727,8|8|8|8,0:1|0:1|0:1|0:1,0:1:0:0:
291,158,191675,2,8,L|252:161,3,29.9999990844727,8|8|8|8,0:1|0:1|0:1|0:1,0:1:0:0:
172,93,192018,2,8,L|211:96,3,29.9999990844727,8|8|8|8,0:1|0:1|0:1|0:1,0:1:0:0:
288,33,192360,6,8,L|284:70,3,37.5000014305115,8|8|8|8,0:1|0:1|0:1|0:1,0:1:0:0:
365,123,192703,2,8,L|368:160,3,37.5000014305115,8|8|8|8,0:1|0:1|0:1|0:1,0:1:0:0:
436,250,193046,5,8,0:1:0:0:
402,238,193131,1,8,0:1:0:0:
364,239,193217,1,8,0:1:0:0:
330,253,193303,1,8,0:1:0:0:
301,275,193389,1,8,0:1:0:0:
263,294,193474,1,8,0:1:0:0:
221,302,193560,1,8,0:1:0:0:
179,297,193646,1,0,0:0:0:0:
152,267,193732,5,12,0:0:0:0:
89,145,193903,1,0,3:0:0:0:
3,247,194075,1,0,3:0:0:0:
140,276,194246,5,12,0:0:0:0:
100,142,194418,1,0,3:0:0:0:
0,230,194589,1,0,3:0:0:0:
127,279,194760,5,12,0:0:0:0:
110,140,194932,1,0,0:0:0:0:
299,231,195103,5,0,3:0:0:0:
200,221,195275,1,8,0:0:0:0:
241,312,195446,1,0,3:0:0:0:
258,140,195618,1,8,0:0:0:0:
341,322,195789,1,0,3:0:0:0:
159,131,195960,2,0,L|72:139,2,85.0000016212464,4|8|0,3:2|0:0|0:0,0:0:0:0:
258,140,196475,5,8,0:2:0:0:
200,221,196646,1,0,3:0:0:0:
217,50,196818,1,8,0:0:0:0:
357,149,196989,1,8,0:0:0:0:
159,131,197160,1,8,0:0:0:0:
315,59,197332,1,8,0:0:0:0:
299,231,197503,1,8,0:0:0:0:
117,40,197675,1,8,0:0:0:0:
413,67,197846,5,8,0:0:0:0:
456,156,198532,1,2,0:0:0:0:
401,239,199218,1,8,0:0:0:0:
299,231,199903,1,2,0:0:0:0:
299,231,200589,6,0,L|263:234,2,29.9999990844727,2|0|2,3:1|3:0|0:1,0:0:0:0:
378,225,201275,1,2,0:1:0:0:
328,159,201618,2,0,L|294:161,1,29.9999990844727,2|0,0:1|0:0,0:0:0:0:
196,173,201960,6,0,L|190:233,1,59.9999981689454,2|2,0:1|0:1,0:0:0:0:
184,309,202646,1,2,0:1:0:0:
117,256,202989,2,0,L|119:225,1,29.9999990844727,2|0,0:1|0:0,0:0:0:0:
133,122,203332,5,2,3:1:0:0:
133,122,203503,1,0,3:0:0:0:
142,45,203675,1,2,0:1:0:0:
204,91,204018,1,2,0:1:0:0:
266,136,204360,2,0,L|268:166,1,29.9999990844727,2|0,0:1|0:0,0:0:0:0:
299,247,204703,6,0,L|227:240,1,59.9999981689454,2|2,0:1|0:1,0:0:0:0:
134,181,205389,2,0,L|205:174,1,59.9999981689454,2|2,0:1|0:1,0:0:0:0:
277,88,206075,5,2,3:1:0:0:
277,88,206246,1,0,3:0:0:0:
268,165,206418,1,2,0:1:0:0:
341,134,206760,2,0,L|401:140,1,59.9999981689454,2|2,0:1|0:1,0:0:0:0:
484,208,207446,6,0,L|424:213,1,59.9999981689454,2|2,0:1|0:1,0:0:0:0:
332,282,208132,2,0,L|391:287,1,59.9999981689454,2|2,0:1|0:1,0:0:0:0:
268,236,208818,5,2,3:1:0:0:
268,236,208989,1,0,3:0:0:0:
259,313,209161,1,2,0:1:0:0:
198,265,209503,2,0,L|138:270,1,59.9999981689454,2|2,0:1|0:1,0:0:0:0:
43,289,210189,6,0,L|49:217,1,70,2|0,0:1|0:0,0:0:0:0:
45,215,210875,2,0,L|84:211,1,25,10|0,0:2|0:0,0:0:0:0:
184,158,211046,2,0,L|115:151,1,50,2|0,3:2|0:0,0:0:0:0:
34,76,211303,2,0,L|62:138,1,50,2|0,0:0|0:0,0:0:0:0:
239,87,211560,6,0,P|274:145|261:212,1,139.999995727539,0|0,3:0|3:0,0:0:0:0:
204,275,212075,1,8,0:0:0:0:
322,156,212246,2,0,P|356:157|389:169,2,69.9999978637696,0|8|0,3:0|0:0|3:0,0:0:0:0:
416,246,212760,1,8,0:3:0:0:
184,158,212932,6,0,P|148:216|161:283,1,139.999995727539,0|0,3:0|3:0,0:0:0:0:
224,344,213446,1,8,0:0:0:0:
246,259,213618,1,0,3:0:0:0:
157,287,213789,1,8,0:0:0:0:
308,320,213960,1,0,3:0:0:0:
177,195,214132,1,8,0:3:0:0:
141,369,214303,6,0,L|61:362,1,69.9999978637696,0|0,3:0|0:0,0:0:0:0:
157,287,214646,1,0,3:0:0:0:
224,344,214818,1,8,0:0:0:0:
265,174,214989,1,0,3:0:0:0:
246,259,215160,2,0,L|317:252,1,69.9999978637696,8|0,0:0|3:0,0:0:0:0:
445,241,215503,1,8,0:3:0:0:
370,133,215675,5,0,3:0:0:0:
187,201,215903,6,0,P|210:203|230:214,1,46.6666652425131,2|0,0:0|0:0,0:0:0:0:
183,197,216132,6,0,P|206:195|228:202,1,46.6666652425131,2|0,0:0|0:0,0:0:0:0:
179,193,216360,6,0,P|201:187|224:190,1,46.6666652425131,2|0,0:0|0:0,0:0:0:0:
175,189,216589,6,0,P|196:179|219:178,1,46.6666652425131,2|0,0:0|0:0,0:0:0:0:
171,186,216818,6,0,P|188:170|210:163,1,46.6666652425131,2|0,0:0|0:0,0:0:0:0:
371,227,217046,6,0,L|211:213,1,139.999995727539,0|0,3:0|3:0,0:0:0:0:
156,242,217560,1,8,0:0:0:0:
240,135,217732,1,0,3:0:0:0:
290,261,217903,1,8,0:0:0:0:
165,164,218075,1,0,3:0:0:0:
305,183,218246,1,8,0:3:0:0:
143,323,218418,6,0,L|238:314,1,69.9999978637696,0|8,3:0|0:1,0:0:0:0:
359,267,218760,2,0,L|263:258,1,69.9999978637696,0|8,3:0|0:1,0:0:0:0:
118,185,219103,2,0,L|213:176,1,69.9999978637696,0|8,3:0|0:1,0:0:0:0:
380,116,219446,2,0,L|284:107,1,69.9999978637696,0|8,3:0|0:1,0:0:0:0:
203,30,219789,5,0,3:0:0:0:
143,168,219960,1,8,0:2:0:0:
199,26,220131,1,8,3:2:0:0:
222,198,220303,1,8,0:2:0:0:
195,22,220474,1,8,3:0:0:0:
158,251,220646,1,8,0:0:0:0:
349,209,220817,2,0,L|244:218,1,104.999996795654,4|0,3:2|0:0,0:0:0:0:
240,214,221160,5,10,3:2:0:0:
124,141,221331,1,10,3:2:0:0:
257,0,221503,1,10,3:2:0:0:
496,77,221674,1,10,3:2:0:0:
96,74,222532,5,8,3:1:0:0:
96,74,222618,1,2,0:3:0:0:
96,74,222703,1,2,0:3:0:0:
96,74,222789,1,4,0:3:0:0:
96,74,222875,2,8,L|194:95,1,69.9999978637696,12|8,3:2|0:2,0:2:0:0:
252,112,223132,1,8,0:2:0:0:
252,112,223218,6,8,B|184:122|184:122|164:164|164:164|100:174,1,179.999994506836,12|8,3:2|0:2,0:2:0:0:
6,159,223560,2,8,P|14:187|20:217,1,59.9999981689454,12|8,3:2|0:2,0:2:0:0:
170,349,223732,2,8,P|178:320|184:290,1,59.9999981689454,8|8,0:2|0:2,0:2:0:0:
182,201,223903,5,12,3:2:0:0:
289,335,224075,1,8,0:2:0:0:
289,335,224160,1,8,0:2:0:0:
289,335,224246,2,8,L|397:357,1,100,12|8,3:2|0:2,0:2:0:0:
479,326,224503,1,8,0:2:0:0:
479,325,224589,6,8,P|472:300|468:276,1,50,12|8,3:2|0:2,0:2:0:0:
378,246,224760,2,8,P|383:222|387:198,1,50,8|8,0:2|0:2,0:2:0:0:
436,70,224932,2,8,P|363:72|314:126,1,150,12|8,3:2|0:2,0:2:0:0:
262,236,225275,5,12,3:2:0:0:
218,257,225360,1,8,0:2:0:0:
173,239,225446,1,8,0:2:0:0:
157,193,225532,1,8,0:2:0:0:
180,151,225618,1,12,3:2:0:0:
196,104,225703,1,8,0:2:0:0:
183,56,225789,1,8,0:2:0:0:
146,24,225875,1,8,0:2:0:0:
97,20,225960,1,12,3:2:0:0:
53,42,226046,1,8,0:2:0:0:
30,85,226132,1,8,0:2:0:0:
36,134,226218,1,8,0:2:0:0:
67,172,226303,5,12,3:2:0:0:
64,191,226389,1,8,0:2:0:0:
61,210,226475,1,8,0:2:0:0:
58,229,226560,1,8,0:2:0:0:
56,248,226646,6,8,P|89:255|136:273,1,59.9999981689454,12|8,3:2|0:2,0:2:0:0:
377,159,226818,1,8,0:2:0:0:
377,159,226903,1,8,0:2:0:0:
377,159,226989,6,8,P|343:166|292:188,1,64.9999970245363,12|8,3:2|0:2,0:2:0:0:
60,79,227160,1,8,0:2:0:0:
60,79,227246,1,8,0:2:0:0:
60,79,227332,6,8,P|94:86|151:111,1,69.9999978637696,12|8,3:2|0:2,0:2:0:0:
184,355,227503,1,8,0:2:0:0:
198,339,227589,1,8,0:2:0:0:
207,321,227675,6,8,P|214:284|215:246,1,75.0000028610231,12|8,3:2|0:2,0:2:0:0:
289,11,227846,2,8,P|296:47|297:85,1,75.0000028610231,8|8,0:2|0:2,0:2:0:0:
349,274,228018,6,0,P|423:271|473:218,1,150,14|0,3:2|0:2,0:2:0:0:
464,196,228360,2,0,L|532:181,2,50,0|0|14,3:2|0:2|0:2,0:2:0:0:
378,372,228703,1,2,3:2:0:0:
260,208,228875,1,2,0:2:0:0:
186,345,229046,1,14,3:2:0:0:
331,274,229218,1,2,0:2:0:0:
156,191,229389,5,12,3:2:0:0:
156,191,229475,2,0,L|138:88,1,100,8|4,0:3|0:1,0:2:0:0:
160,106,229732,1,2,3:2:0:0:
53,295,229903,2,0,L|35:364,2,50,12|8|2,0:2|0:2|3:2,0:2:0:0:
13,201,230246,1,0,0:2:0:0:
170,304,230418,2,0,P|220:314|266:333,1,100,14|0,3:2|0:2,0:2:0:0:
434,42,230760,6,4,P|409:99|273:115,1,200,14|0,3:2|3:2,0:2:0:0:
452,187,231275,1,14,0:2:0:0:
381,262,231446,2,0,L|481:294,1,80,4|8,3:3|0:3,0:2:0:0:
252,281,231789,2,0,L|230:368,1,89.9999972534181,8|12,3:1|0:0,0:2:0:0:
177,163,232132,6,2,L|30:193,1,150,10|8,3:2|0:1,0:2:0:0:
18,204,232475,2,8,P|13:179|8:154,3,50,8|8|8|8,3:1|0:1|0:1|0:1,0:1:0:0:
160,315,232818,2,8,P|155:339|150:364,3,50,8|8|8|8,3:1|0:1|0:1|0:1,0:1:0:0:
278,214,233160,5,8,3:1:0:0:
327,212,233245,1,8,0:1:0:0:
372,233,233331,1,8,0:1:0:0:
405,270,233417,1,8,0:1:0:0:
417,318,233503,2,0,P|359:332|302:354,1,119.999996337891,14|2,3:2|3:2,0:2:0:0:
127,146,234018,5,14,0:2:0:0:
219,90,234189,2,0,L|236:209,1,100,2|0,3:2|0:2,0:2:0:0:
7,379,234532,2,0,B|54:350|54:350|66:253,1,150,14|0,3:2|0:2,0:2:0:0:
49,237,234875,6,8,L|171:268,1,100,14|2,3:2|0:2,0:2:0:0:
330,151,235218,1,2,3:2:0:0:
188,350,235389,1,14,0:2:0:0:
283,343,235560,2,2,L|266:244,1,100,2|2,3:2|0:2,0:2:0:0:
116,47,235903,2,0,L|193:60,1,50,12|0,3:2|0:2,0:2:0:0:
290,143,236075,2,0,L|240:134,1,50,8|8,0:2|0:2,0:2:0:0:
155,185,236246,5,14,3:2:0:0:
266,34,236418,1,2,0:2:0:0:
134,189,236589,1,2,3:2:0:0:
282,244,236760,2,0,L|300:308,1,50,14|8,0:2|0:2,0:2:0:0:
329,372,236932,1,2,3:2:0:0:
386,156,237103,1,0,0:2:0:0:
485,281,237275,2,0,P|435:273|387:259,1,100,10|12,3:2|0:2,0:2:0:0:
38,149,237618,6,8,P|93:101|167:98,1,150,12|8,3:2|0:1,0:2:0:0:
185,106,237960,2,8,L|173:39,2,50,8|8|8,3:1|0:1|0:1,0:1:0:0:
430,169,238303,5,8,3:1:0:0:
389,143,238389,1,8,0:1:0:0:
340,145,238474,1,8,0:1:0:0:
302,176,238560,1,8,0:1:0:0:
289,224,238646,1,8,3:1:0:0:
276,271,238731,1,8,0:1:0:0:
238,302,238818,1,8,0:1:0:0:
189,304,238903,1,8,0:1:0:0:
147,278,238989,2,0,P|140:228|128:179,1,100,14|0,3:2|3:2,0:2:0:0:
382,243,239503,5,14,0:2:0:0:
398,339,239675,2,0,L|499:366,1,100,2|2,3:2|0:2,0:2:0:0:
415,148,240018,1,14,3:2:0:0:
301,309,240189,1,2,0:2:0:0:
226,141,240360,5,14,3:2:0:0:
226,141,240446,2,0,L|204:37,1,100,8|4,0:3|0:1,0:3:0:0:
200,23,240703,1,2,3:2:0:0:
84,115,240875,2,0,L|73:163,2,50,12|8|2,0:2|0:2|3:2,0:2:0:0:
312,201,241218,1,0,0:2:0:0:
338,96,241389,2,0,P|392:86|439:68,1,100,14|0,3:2|0:2,0:2:0:0:
194,206,241732,6,0,P|129:277|142:373,1,200,14|0,3:2|3:2,0:2:0:0:
446,313,242246,1,12,0:2:0:0:
361,375,242418,2,0,L|345:262,1,100,2|0,3:2|0:2,0:2:0:0:
441,137,242760,2,0,P|364:129|317:74,1,150,12|0,3:2|0:2,0:2:0:0:
324,60,243103,6,0,L|210:44,1,100,14|0,3:2|0:2,0:2:0:0:
121,30,243446,1,0,3:2:0:0:
25,270,243618,1,12,0:2:0:0:
158,128,243789,1,0,3:2:0:0:
28,65,243960,5,0,0:2:0:0:
59,171,244132,1,4,3:3:0:0:
162,225,244303,1,4,0:1:0:0:
269,181,244475,6,0,B|351:192|331:143|414:157,1,150,12|0,3:2|3:2,0:2:0:0:
512,145,244818,2,0,P|504:168|499:193,1,50,8|8,3:2|0:2,0:2:0:0:
425,262,244989,2,0,P|432:285|437:310,1,50,8|8,0:3|0:2,0:2:0:0:
512,366,245160,1,4,3:1:0:0:
396,172,245332,1,8,0:3:0:0:
212,355,245503,2,0,P|285:358|337:299,1,150,12|0,3:2|0:2,0:2:0:0:
332,285,245846,6,0,L|231:255,1,100,12|0,3:2|0:2,0:2:0:0:
51,164,246189,2,8,L|61:231,1,50,8|8,3:1|0:1,0:1:0:0:
69,303,246360,1,8,0:1:0:0:
8,69,246532,5,8,3:1:0:0:
50,43,246618,1,8,0:1:0:0:
99,49,246703,1,8,0:1:0:0:
134,83,246789,1,8,0:1:0:0:
142,131,246875,1,8,3:1:0:0:
149,179,246960,1,8,0:1:0:0:
185,213,247046,1,8,0:1:0:0:
234,218,247132,1,8,0:1:0:0:
276,193,247218,6,0,L|372:181,1,89.9999972534181,12|0,3:2|0:2,0:2:0:0:
398,86,247560,1,8,3:3:0:0:
340,276,247732,1,8,0:2:0:0:
251,98,247903,1,4,3:1:0:0:
472,164,248075,2,0,P|460:207|454:252,1,89.9999972534181,4|8,0:3|3:2,0:2:0:0:
231,357,248418,6,0,P|225:312|213:268,1,89.9999972534181,0|8,0:2|3:2,0:2:0:0:
125,218,248760,1,8,0:3:0:0:
320,292,248932,1,0,3:2:0:0:
132,330,249103,2,0,L|31:347,1,89.9999972534181,8|4,0:2|3:1,0:2:0:0:
209,148,249446,2,0,L|190:47,1,89.9999972534181,8|8,0:3|3:2,0:2:0:0:
312,177,249789,1,4,0:3:0:0:
476,214,249960,6,0,P|418:279|332:275,1,179.999994506836,12|8,3:2|3:3,0:2:0:0:
418,14,250475,1,8,0:2:0:0:
361,91,250646,2,0,P|405:100|450:108,1,89.9999972534181,4|8,3:1|0:3,0:2:0:0:
96,211,250989,1,4,3:3:0:0:
193,118,251160,1,12,0:2:0:0:
77,22,251332,6,0,L|101:134,1,89.9999972534181,8|8,3:3|0:2,0:2:0:0:
188,322,251675,2,0,B|210:281|210:281|203:237,1,89.9999972534181,0|8,3:2|0:2,0:2:0:0:
383,23,252018,2,0,B|324:43|324:43|306:162,1,179.999994506836,0|8,3:2|3:2,0:2:0:0:
411,115,252532,1,0,0:2:0:0:
392,218,252703,6,0,L|494:253,1,89.9999972534181,12|8,3:2|0:3,0:2:0:0:
335,308,253046,1,4,3:1:0:0:
209,97,253218,1,12,0:2:0:0:
200,197,253389,2,0,B|105:183|135:254|33:245,1,179.999994506836,8|12,3:2|3:2,0:2:0:0:
78,130,253903,1,4,0:3:0:0:
149,313,254075,6,0,L|261:347,1,89.9999972534181,12|8,3:2|0:3,0:0:0:0:
370,384,254418,2,0,B|383:349|383:349|371:296,1,89.9999972534181,4|12,3:1|0:2,0:2:0:0:
431,18,254760,2,0,B|389:52|389:52|403:161,1,134.999995880127,0|8,3:2|0:3,0:2:0:0:
401,150,255103,2,0,P|445:157|488:169,1,89.9999972534181,12|4,3:2|0:1,0:2:0:0:
274,67,255446,5,8,3:1:0:0:
249,30,255531,1,8,0:1:0:0:
207,17,255618,1,8,0:1:0:0:
167,36,255703,1,8,0:1:0:0:
149,76,255788,1,8,3:1:0:0:
162,118,255874,1,8,0:1:0:0:
199,142,255960,1,8,0:1:0:0:
242,154,256046,1,8,0:1:0:0:
270,188,256131,1,8,3:1:0:0:
273,232,256217,1,8,0:1:0:0:
251,271,256302,1,8,0:1:0:0:
210,289,256389,1,8,0:1:0:0:
167,281,256474,1,8,3:1:0:0:
136,249,256560,1,8,0:1:0:0:
96,230,256645,1,8,0:1:0:0:
52,238,256731,1,8,0:1:0:0:
22,270,256818,5,8,3:1:0:0:
35,289,256903,1,8,0:1:0:0:
49,308,256989,2,8,L|39:394,1,59.9999981689454,8|8,0:1|0:1,0:1:0:0:
252,329,257160,5,8,3:1:0:0:
265,310,257245,1,8,0:1:0:0:
279,291,257332,2,8,L|269:206,1,59.9999981689454,8|8,0:1|0:1,0:1:0:0:
140,45,257503,6,8,P|131:73|129:103,1,59.9999981689454,8|8,3:1|0:1,0:1:0:0:
419,231,257675,2,8,P|427:202|429:172,1,59.9999981689454,8|8,0:1|0:1,0:1:0:0:
385,77,257846,5,8,3:1:0:0:
385,77,257932,1,8,0:1:0:0:
385,77,258018,1,8,0:1:0:0:
385,77,258103,1,8,0:1:0:0:
385,77,258189,1,4,3:1:0:0:
256,192,258275,12,0,262818,0:0:0:0:
33,28,263675,6,0,L|100:33,1,50,2|2,0:0|0:0,0:0:0:0:
86,36,264220,1,2,0:0:0:0:
119,109,264765,1,2,0:0:0:0:
230,51,265311,1,2,0:0:0:0:
281,113,265856,6,0,L|275:180,1,50,2|2,0:0|0:0,0:0:0:0:
272,166,266402,1,2,0:0:0:0:
196,142,266947,2,0,L|201:209,1,50,2|2,0:0|0:0,0:0:0:0:
259,237,267493,2,0,L|254:304,1,50,2|2,0:0|0:0,0:0:0:0:
196,142,268038,6,0,L|198:175,1,29.9999990844727,2|2,0:0|0:0,0:0:0:0:
170,241,268584,2,0,L|167:274,1,29.9999990844727,2|2,0:0|0:0,0:0:0:0:
163,274,269129,1,2,0:0:0:0:
165,353,269675,1,2,0:0:0:0:
235,312,270219,6,0,L|318:319,1,75,2|2,0:0|0:0,0:0:0:0:
256,192,271561,12,0,274644,0:0:0:0:
