osu file format v14

[General]
AudioFilename: audio.mp3
AudioLeadIn: 0
PreviewTime: 42728
Countdown: 0
SampleSet: Soft
StackLeniency: 0.7
Mode: 0
LetterboxInBreaks: 0
WidescreenStoryboard: 0

[Editor]
DistanceSpacing: 1.4
BeatDivisor: 4
GridSize: 8
TimelineZoom: 2.899999

[Metadata]
Title:Sore wa Chiisana Hikari no Youna (TV Size)
TitleUnicode:それは小さな光のような
Artist:Sayuri
ArtistUnicode:さユり
Creator:luxoDeh
Version:Insane
Source:僕だけがいない街
Tags:Boku Dake ga Inai Machi ERASED ending TV size Del05
BeatmapID:888628
BeatmapSetID:408753

[Difficulty]
HPDrainRate:6.2
CircleSize:4.2
OverallDifficulty:6
ApproachRate:8.5
SliderMultiplier:1.6
SliderTickRate:1

[Events]
//Background and Video events
0,0,"BG.jpg",0,0
Video,0,"video.avi"
//Break Periods
//Storyboard Layer 0 (Background)
//Storyboard Layer 1 (Fail)
//Storyboard Layer 2 (Pass)
//Storyboard Layer 3 (Foreground)
//Storyboard Layer 4 (Overlay)
//Storyboard Sound Samples

[TimingPoints]
283,416.666666666667,3,2,1,40,1,0
283,-133.333333333333,3,2,1,40,0,0
1921,416.666666666667,3,2,1,40,1,0
1921,-133.333333333333,3,2,1,40,0,0
2129,416.666666666667,3,2,1,40,1,0
2129,-133.333333333333,3,2,1,40,0,0
2728,416.666666666667,3,2,1,40,1,0
2728,-133.333333333333,3,2,1,40,0,0
5228,-133.333333333333,3,2,1,50,0,0
23978,-181.818181818181,3,2,1,50,0,0
25228,-117.647058823529,3,2,3,60,0,0
40228,-117.647058823529,3,2,3,65,0,0
41478,-181.818181818181,3,2,3,50,0,0
42728,-100,3,2,3,70,0,1
82728,-100,3,2,1,50,0,0
84811,-100,3,2,1,20,0,0
86061,-100,3,2,1,5,0,0

[Colours]
Combo1 : 255,192,0
Combo2 : 255,128,128
Combo3 : 60,148,255
Combo4 : 227,114,0

[HitObjects]
197,263,283,6,0,P|253:277|315:264,1,120.000004577637,2|0,0:0|0:0,0:0:0:0:
188,176,908,2,0,P|140:195|107:255,1,120.000004577637,2|0,0:0|0:0,0:0:0:0:
271,177,1533,6,0,P|279:127|267:62,1,110.000004196167,2|0,0:0|0:0,0:0:0:0:
250,260,2129,1,2,0:0:0:0:
331,241,2337,2,0,L|406:223,1,60.0000022888184
172,283,2728,6,0,P|198:321|273:331,1,120.000004577637,2|0,0:0|0:0,0:0:0:0:
178,198,3353,2,0,P|137:185|58:203,1,120.000004577637,2|0,0:0|0:0,0:0:0:0:
260,221,3977,6,0,L|269:98,1,120.000004577637,2|2,0:0|0:0,0:0:0:0:
319,34,4602,1,0,0:0:0:0:
241,112,4810,2,0,P|206:115|167:105,1,60.0000022888184
341,114,5228,6,0,P|367:155|396:224,1,120.000004577637,2|0,0:0|0:0,0:0:0:0:
410,303,5853,1,2,0:0:0:0:
290,340,6061,2,0,L|218:344,1,60.0000022888184
132,239,6478,6,0,L|254:253,1,120.000004577637,2|2,0:0|0:0,0:0:0:0:
322,208,7103,1,0,0:0:0:0:
413,126,7311,2,0,L|477:131,1,60.0000022888184
329,51,7728,6,0,L|198:59,1,120.000004577637,2|2,0:0|0:0,0:0:0:0:
130,28,8353,1,0,0:0:0:0:
58,161,8561,2,0,P|51:204|56:245,1,60.0000022888184
204,310,8978,6,0,P|197:261|124:252,1,120.000004577637,2|0,0:0|0:0,0:0:0:0:
121,328,9603,1,2,0:0:0:0:
244,332,9811,2,0,L|320:336,1,60.0000022888184
370,198,10228,6,0,P|387:249|461:238,1,120.000004577637,2|2,0:0|0:0,0:0:0:0:
454,168,10853,1,0,0:0:0:0:
355,98,11061,2,0,P|312:95|275:102,1,60.0000022888184
208,206,11478,6,0,B|201:236|201:236|167:268|161:322,1,120.000004577637,2|2,0:0|0:0,0:0:0:0:
216,170,12103,1,0,0:0:0:0:
135,145,12311,2,0,P|88:140|53:150,1,60.0000022888184,2|0,0:0|0:0,0:0:0:0:
252,245,12728,6,0,P|278:221|291:191,1,60.0000022888184,2|0,0:0|0:0,0:0:0:0:
99,269,13144,2,0,L|83:337,1,60.0000022888184,2|0,0:0|0:0,0:0:0:0:
266,124,13561,2,0,L|252:60,1,60.0000022888184
346,263,13978,6,0,P|377:273|472:256,1,120.000004577637,2|0,0:0|0:0,0:0:0:0:
505,189,14603,1,2,0:0:0:0:
432,98,14811,2,0,P|426:57|437:22,1,60.0000022888184
422,178,15228,6,0,L|298:157,1,120.000004577637,2|2,0:0|0:0,0:0:0:0:
221,141,15853,1,0,0:0:0:0:
93,180,16061,2,0,P|84:225|94:264,1,60.0000022888184
248,308,16478,6,0,P|240:265|156:260,1,120.000004577637,2|2,0:0|0:0,0:0:0:0:
168,331,17103,1,0,0:0:0:0:
288,330,17311,2,0,P|327:321|350:305,1,60.0000022888184
369,148,17728,6,0,P|337:181|328:206,1,60.0000022888184,2|0,0:0|0:0,0:0:0:0:
463,187,18144,1,2,0:0:0:0:
392,64,18353,1,0,0:0:0:0:
272,135,18561,2,0,P|231:137|199:133,1,60.0000022888184
81,45,18978,6,0,B|80:86|80:86|62:126|62:126|58:178,1,120.000004577637,2|0,0:0|0:0,0:0:0:0:
66,243,19603,1,2,0:0:0:0:
155,322,19811,2,0,P|185:336|227:339,1,60.0000022888184
308,277,20228,6,0,P|316:233|253:185,1,120.000004577637,2|0,0:0|0:0,0:0:0:0:
225,260,20853,1,2,0:0:0:0:
342,303,21061,2,0,P|380:307|418:296,1,60.0000022888184
452,147,21478,6,0,L|460:81,1,60.0000022888184,2|0,0:0|0:0,0:0:0:0:
408,20,21894,1,0,0:0:0:0:
369,185,22103,2,0,P|396:219|435:233,1,60.0000022888184,2|0,0:0|0:0,0:0:0:0:
369,40,22519,1,0,0:0:0:0:
204,112,22728,6,0,P|217:154|304:144,1,120.000004577637,2|2,0:0|0:0,0:0:0:0:
282,79,23353,1,0,0:0:0:0:
174,95,23561,2,0,L|105:105,1,60.0000022888184,2|0,0:0|0:0,0:0:0:0:
55,235,23978,6,0,B|57:264|43:290|43:290|93:293|125:301|139:330|139:330|191:282,1,220.000006713867,2|0,0:0|0:0,0:0:0:0:
273,208,25228,6,0,P|306:206|343:209,1,68.0000012969971,4|8,0:0|0:0,0:0:0:0:
421,300,25644,1,8,0:0:0:0:
421,300,25853,1,0,0:0:0:0:
338,179,26061,2,0,P|333:139|339:98,1,68.0000012969971,8|0,0:0|0:0,0:0:0:0:
512,209,26478,6,0,B|473:245|473:245|437:213|384:230,1,136.000002593994,2|0,0:0|0:0,0:0:0:0:
295,298,27103,1,8,0:0:0:0:
214,335,27311,2,0,P|168:338|129:329,1,68.0000012969971,8|0,0:0|0:0,0:0:0:0:
87,204,27728,6,0,P|94:165|180:190,1,136.000002593994,4|0,0:0|0:0,0:0:0:0:
157,255,28353,1,8,0:0:0:0:
62,178,28561,2,0,P|52:141|53:101,1,68.0000012969971,8|0,0:0|0:0,0:0:0:0:
279,144,28978,6,0,P|236:172|171:112,1,136.000002593994,2|0,0:0|0:0,0:0:0:0:
237,68,29603,1,8,0:0:0:0:
357,98,29811,2,0,P|389:125|412:168,1,68.0000012969971,8|0,0:0|0:0,0:0:0:0:
312,302,30228,6,0,P|354:276|391:264,1,68.0000012969971,2|8,0:0|0:0,0:0:0:0:
465,216,30644,1,8,0:0:0:0:
465,216,30853,1,0,0:0:0:0:
332,196,31061,2,0,L|251:189,1,68.0000012969971,8|0,0:0|0:0,0:0:0:0:
104,114,31478,6,0,L|189:103,1,68.0000012969971,2|8,0:0|0:0,0:0:0:0:
60,39,31894,1,2,0:0:0:0:
39,180,32103,1,0,0:0:0:0:
197,132,32311,2,0,P|218:94|225:46,1,68.0000012969971,8|0,0:0|0:0,0:0:0:0:
136,216,32728,6,0,P|144:260|227:260,1,136.000002593994,4|0,0:0|0:0,0:0:0:0:
214,176,33353,1,0,0:0:0:0:
117,300,33561,2,0,P|78:322|35:323,1,68.0000012969971,10|0,0:0|0:0,0:0:0:0:
259,245,33978,6,0,L|333:256,1,68.0000012969971,8|8,0:0|0:0,0:0:0:0:
136,132,34394,2,0,L|65:144,1,68.0000012969971,8|2,0:0|0:0,0:0:0:0:
18,215,34811,1,8,0:0:0:0:
84,60,35019,1,0,0:0:0:0:
213,174,35228,6,0,P|256:176|289:167,1,68.0000012969971,4|8,0:0|0:0,0:0:0:0:
237,45,35644,1,8,0:0:0:0:
237,45,35853,1,0,0:0:0:0:
311,157,36061,2,0,B|338:179|338:179|372:188,1,68.0000012969971,8|0,0:0|0:0,0:0:0:0:
480,68,36478,5,0,0:0:0:0:
325,120,36686,1,8,0:0:0:0:
468,264,36894,2,0,P|475:306|466:350,1,68.0000012969971,2|0,0:0|0:0,0:0:0:0:
265,349,37311,2,0,P|258:307|267:263,1,68.0000012969971,8|0,0:0|0:0,0:0:0:0:
372,217,37728,6,0,P|327:233|285:163,1,136.000002593994,2|0,0:0|0:0,0:0:0:0:
360,127,38353,1,8,0:0:0:0:
253,203,38561,2,0,B|214:210|214:210|167:199,1,68.0000012969971,8|2,0:0|0:0,0:0:0:0:
92,65,38978,5,0,0:0:0:0:
108,212,39186,1,8,0:0:0:0:
164,104,39394,1,2,0:0:0:0:
30,244,39603,1,2,0:0:0:0:
150,228,39811,2,0,L|216:214,1,68.0000012969971,8|0,0:0|0:0,0:0:0:0:
408,309,40228,5,8,0:0:0:0:
408,309,40436,1,10,0:0:0:0:
292,194,40644,2,0,P|284:143|287:99,1,68.0000012969971,2|8,0:0|0:0,0:0:0:0:
422,44,41061,2,0,P|430:95|427:139,1,68.0000012969971,0|2,0:0|0:0,0:0:0:0:
298,275,41478,6,0,B|282:294|278:325|278:325|194:264|194:264|166:272|132:262,1,220.000006713867,8|0,0:0|0:0,0:0:0:0:
70,86,42728,6,0,P|114:80|164:93,2,80,4|0|0,0:0|0:0|0:0,0:0:0:0:
209,146,43353,1,4,0:0:0:0:
341,53,43561,2,0,P|365:95|375:153,1,80,8|0,0:0|0:0,0:0:0:0:
247,291,43978,6,0,P|259:244|285:203,1,80,2|0,0:0|0:0,0:0:0:0:
315,345,44394,1,8,0:0:0:0:
168,281,44603,1,2,0:0:0:0:
290,196,44811,2,0,B|331:205|331:205|381:191,1,80,8|0,0:0|0:0,0:0:0:0:
184,100,45228,6,0,B|143:91|143:91|93:105,2,80,4|0|8,0:0|0:0|0:0,0:0:0:0:
290,196,45853,1,4,0:0:0:0:
150,173,46061,1,8,0:0:0:0:
323,122,46269,1,0,0:0:0:0:
105,241,46478,6,0,P|74:203|67:155,1,80,2|0,0:0|0:0,0:0:0:0:
313,212,46894,2,0,P|344:250|351:298,1,80,10|0,0:0|0:0,0:0:0:0:
220,186,47311,1,8,0:0:0:0:
220,186,47519,1,0,0:0:0:0:
313,94,47728,6,0,P|359:88|399:96,1,80,4|0,0:0|0:0,0:0:0:0:
314,213,48144,1,8,0:0:0:0:
232,107,48353,2,0,B|234:51|273:25|273:25|183:36,1,160,2|0,0:0|0:0,0:0:0:0:
85,90,48978,6,0,P|69:136|68:187,1,80,8|0,0:0|0:0,0:0:0:0:
207,266,49394,2,0,P|223:220|224:169,1,80,12|0,0:0|0:0,0:0:0:0:
114,296,49811,2,0,P|137:337|176:358,1,80,8|0,0:0|0:0,0:0:0:0:
225,189,50228,6,0,P|196:143|159:113,1,80,2|0,0:0|0:0,0:0:0:0:
302,272,50644,2,0,B|344:282|344:282|388:273,1,80,10|0,0:0|0:0,0:0:0:0:
438,122,51061,2,0,B|396:112|396:112|352:121,1,80,8|0,0:0|0:0,0:0:0:0:
455,218,51478,5,2,0:0:0:0:
408,352,51686,1,0,0:0:0:0:
349,200,51894,1,2,0:0:0:0:
195,272,52103,2,0,P|201:322|294:310,1,160,0|0,0:0|0:0,0:0:0:0:
156,201,52728,6,0,P|110:196|64:202,1,80,4|0,0:0|0:0,0:0:0:0:
195,272,53144,1,10,0:0:0:0:
218,148,53353,2,0,B|222:106|222:106|204:60,1,80,0|8,0:0|0:0,0:0:0:0:
156,201,53769,1,0,0:0:0:0:
277,216,53978,6,0,B|321:223|321:223|372:213,1,80,2|0,0:0|0:0,0:0:0:0:
436,83,54394,1,8,0:0:0:0:
436,83,54603,1,2,0:0:0:0:
373,200,54811,2,0,P|369:249|379:299,1,80,8|0,0:0|0:0,0:0:0:0:
506,342,55228,5,10,0:0:0:0:
346,299,55436,1,2,0:0:0:0:
458,187,55644,2,0,P|441:149|407:120,1,80
264,260,56061,2,0,L|251:350,1,80,8|0,0:0|0:0,0:0:0:0:
192,136,56478,6,0,P|146:105|94:95,1,80,10|0,0:0|0:0,0:0:0:0:
163,221,56894,1,8,0:0:0:0:
280,143,57103,1,2,0:0:0:0:
94,173,57311,2,0,P|79:217|90:271,1,80,8|0,0:0|0:0,0:0:0:0:
334,273,57728,6,0,P|342:222|245:220,1,160,4|8,0:0|0:0,0:0:0:0:
227,305,58353,1,2,0:0:0:0:
360,293,58561,2,0,P|407:280|438:259,1,80,8|0,0:0|0:0,0:0:0:0:
426,88,58978,6,0,P|379:101|348:122,1,80,2|0,0:0|0:0,0:0:0:0:
498,141,59394,1,2,0:0:0:0:
498,141,59603,1,0,0:0:0:0:
327,106,59811,2,0,L|230:89,1,80,10|0,0:0|0:0,0:0:0:0:
174,262,60228,6,0,L|342:291,1,160,4|8,0:0|0:0,0:0:0:0:
403,337,60853,1,2,0:0:0:0:
190,176,61061,2,0,P|130:186|92:285,1,160,8|2,0:0|0:0,0:0:0:0:
269,193,61686,5,2,0:0:0:0:
209,87,61894,2,0,P|203:47|208:3,1,80,10|8,0:0|0:0,0:0:0:0:
346,137,62311,1,8,0:0:0:0:
258,230,62519,1,2,0:0:0:0:
428,221,62728,6,0,P|436:265|425:321,1,80,4|0,0:0|0:0,0:0:0:0:
338,344,63144,1,10,0:0:0:0:
413,180,63353,2,0,L|493:196,1,80,0|12,0:0|0:0,0:0:0:0:
353,116,63769,1,0,0:0:0:0:
244,226,63978,6,0,L|163:241,1,80,4|0,0:0|0:0,0:0:0:0:
274,152,64394,2,0,P|306:177|292:290,1,160,10|2,0:0|0:0,0:0:0:0:
212,97,65019,1,0,0:0:0:0:
350,65,65228,6,0,B|390:57|390:57|422:32,1,80,12|0,0:0|0:0,0:0:0:0:
134,67,65644,2,0,B|123:108|134:166|134:166|56:129,1,160,10|10,0:0|0:0,0:0:0:0:
195,18,66269,1,0,0:0:0:0:
206,208,66478,6,0,P|177:238|110:252,1,80,2|0,0:0|0:0,0:0:0:0:
250,118,66894,2,0,P|295:117|344:123,1,80,10|0,0:0|0:0,0:0:0:0:
391,273,67311,1,8,0:0:0:0:
391,273,67519,1,0,0:0:0:0:
247,139,67728,6,0,B|241:92|241:92|248:42,1,80,4|0,0:0|0:0,0:0:0:0:
375,185,68144,1,8,0:0:0:0:
259,313,68353,1,2,0:0:0:0:
375,185,68561,2,0,P|433:181|472:193,1,80,8|0,0:0|0:0,0:0:0:0:
286,211,68978,6,0,L|305:113,1,80,2|0,0:0|0:0,0:0:0:0:
438,346,69394,2,0,B|393:351|393:351|338:343,1,80,10|0,0:0|0:0,0:0:0:0:
200,245,69811,1,10,0:0:0:0:
200,245,70019,1,0,0:0:0:0:
409,132,70228,6,0,P|370:165|312:93,1,160,4|10,0:0|0:0,0:0:0:0:
446,51,70853,1,0,0:0:0:0:
469,188,71061,2,0,P|471:230|464:274,1,80,8|0,0:0|0:0,0:0:0:0:
268,217,71478,5,4,0:0:0:0:
268,217,71686,1,0,0:0:0:0:
139,107,71894,2,0,P|137:59|157:22,1,80,8|0,0:0|0:0,0:0:0:0:
203,160,72311,1,10,0:0:0:0:
57,135,72519,1,0,0:0:0:0:
268,217,72728,6,0,P|212:247|121:188,1,160,4|10,0:0|0:0,0:0:0:0:
270,110,73353,1,0,0:0:0:0:
421,89,73561,2,0,P|465:98|500:126,1,80,10|0,0:0|0:0,0:0:0:0:
378,240,73978,5,2,0:0:0:0:
378,240,74186,1,0,0:0:0:0:
391,90,74394,2,0,L|457:23,1,80,8|0,0:0|0:0,0:0:0:0:
412,243,74811,2,0,L|355:299,1,80,10|0,0:0|0:0,0:0:0:0:
198,216,75228,6,0,P|192:161|203:118,2,80,2|0|10,0:0|0:0|0:0,0:0:0:0:
277,71,75853,1,2,0:0:0:0:
115,117,76061,2,0,B|78:131|78:131|36:170,1,80,8|0,0:0|0:0,0:0:0:0:
139,337,76478,6,0,B|176:323|176:323|218:284,1,80,2|0,0:0|0:0,0:0:0:0:
254,141,76894,1,10,0:0:0:0:
310,284,77103,1,0,0:0:0:0:
194,206,77311,1,8,0:0:0:0:
352,205,77519,1,0,0:0:0:0:
181,114,77728,6,0,P|130:117|92:105,1,80,4|0,0:0|0:0,0:0:0:0:
246,63,78144,1,8,0:0:0:0:
194,206,78353,1,2,0:0:0:0:
281,44,78561,2,0,P|332:41|370:53,1,80,10|0,0:0|0:0,0:0:0:0:
272,164,78978,5,2,0:0:0:0:
119,197,79186,1,0,0:0:0:0:
301,241,79394,2,0,P|331:278|344:316,1,80,10|0,0:0|0:0,0:0:0:0:
272,164,79811,1,8,0:0:0:0:
408,101,80019,1,0,0:0:0:0:
480,288,80228,6,0,P|429:304|384:219,1,160,4|10,0:0|0:0,0:0:0:0:
484,198,80853,1,2,0:0:0:0:
367,309,81061,1,8,0:0:0:0:
258,216,81269,1,0,0:0:0:0:
369,64,81478,6,0,P|437:36|474:99,1,160,4|2,0:0|0:0,0:0:0:0:
381,225,82103,1,2,0:0:0:0:
256,317,82311,1,10,0:0:0:0:
131,225,82519,1,0,0:0:0:0:
256,52,82728,5,4,0:0:0:0:
256,192,82832,12,2,86686,0:0:0:0:
