osu file format v14

[General]
AudioFilename: audio.mp3
AudioLeadIn: 0
PreviewTime: 42728
Countdown: 0
SampleSet: Soft
StackLeniency: 0.7
Mode: 0
LetterboxInBreaks: 0
WidescreenStoryboard: 0

[Editor]
DistanceSpacing: 1.3
BeatDivisor: 4
GridSize: 8
TimelineZoom: 2.399999

[Metadata]
Title:Sore wa Chiisana Hikari no Youna (TV Size)
TitleUnicode:それは小さな光のような
Artist:Sayuri
ArtistUnicode:さユり
Creator:luxoDeh
Version:Hard
Source:僕だけがいない街
Tags:Boku Dake ga Inai Machi ERASED ending TV size Del05
BeatmapID:887516
BeatmapSetID:408753

[Difficulty]
HPDrainRate:5
CircleSize:4
OverallDifficulty:5
ApproachRate:7
SliderMultiplier:1.4
SliderTickRate:1

[Events]
//Background and Video events
0,0,"BG.jpg",0,0
Video,0,"video.avi"
//Break Periods
//Storyboard Layer 0 (Background)
//Storyboard Layer 1 (Fail)
//Storyboard Layer 2 (Pass)
//Storyboard Layer 3 (Foreground)
//Storyboard Layer 4 (Overlay)
//Storyboard Sound Samples

[TimingPoints]
283,416.666666666667,3,2,1,40,1,0
283,-133.333333333333,3,2,1,40,0,0
1921,416.666666666667,3,2,1,40,1,0
1921,-133.333333333333,3,2,1,40,0,0
2129,416.666666666667,3,2,1,40,1,0
2129,-133.333333333333,3,2,1,40,0,0
2728,416.666666666667,3,2,1,40,1,0
2728,-133.333333333333,3,2,1,40,0,0
5228,-133.333333333333,3,2,1,50,0,0
25228,-117.647058823529,3,2,3,60,0,0
25228,-117.647058823529,3,2,3,50,0,0
40228,-117.647058823529,3,2,3,65,0,0
41478,-181.818181818181,3,2,3,50,0,0
42728,-100,3,2,3,70,0,1
82728,-100,3,2,1,50,0,0
84811,-100,3,2,1,20,0,0
86061,-100,3,2,1,5,0,0

[Colours]
Combo1 : 255,192,0
Combo2 : 255,128,128
Combo3 : 60,148,255
Combo4 : 227,114,0

[HitObjects]
307,321,283,6,0,P|361:294|384:240,1,105.000004005432,2|0,0:0|0:0,0:0:0:0:
350,182,908,2,0,P|317:156|289:93,1,105.000004005432,2|0,0:0|0:0,0:0:0:0:
321,24,1533,2,0,P|263:24|228:47,1,96.2500036716463,2|0,0:0|0:0,0:0:0:0:
190,113,2129,2,0,P|151:144|83:138,1,105.000004005432,2|0,0:0|0:0,0:0:0:0:
29,105,2728,5,2,0:0:0:0:
5,262,3144,1,0,0:0:0:0:
72,303,3353,2,0,P|104:319|182:323,1,105,2|0,0:0|0:0,0:0:0:0:
245,294,3978,2,0,P|289:283|356:292,1,105.000004005432,2|2,0:0|0:0,0:0:0:0:
420,320,4603,1,0,0:0:0:0:
447,246,4811,2,0,L|462:185,1,52.5000020027161
397,146,5228,6,0,L|382:40,1,105.000004005432,2|0,0:0|0:0,0:0:0:0:
310,74,5853,1,2,0:0:0:0:
310,74,6061,2,0,P|276:90|243:93,1,52.5000020027161
182,84,6478,2,0,P|133:81|75:121,1,105.000004005432,2|2,0:0|0:0,0:0:0:0:
51,179,7103,1,0,0:0:0:0:
51,179,7311,2,0,L|67:238,1,52.5000020027161
49,307,7728,6,0,P|85:305|139:252,1,105.000004005432,2|2,0:0|0:0,0:0:0:0:
174,192,8353,1,0,0:0:0:0:
174,192,8561,2,0,P|211:189|243:195,1,52.5000020027161
283,241,8978,2,0,B|331:247|331:247|403:234,1,105.000004005432,2|0,0:0|0:0,0:0:0:0:
463,217,9603,1,2,0:0:0:0:
463,217,9811,2,0,P|444:180|427:166,1,52.5000020027161
361,146,10228,6,0,P|336:113|345:37,1,105.000004005432,2|2,0:0|0:0,0:0:0:0:
408,18,10853,1,0,0:0:0:0:
408,18,11061,2,0,L|481:24,1,52.5000020027161
481,98,11478,2,0,L|361:89,1,105.000004005432,2|2,0:0|0:0,0:0:0:0:
309,131,12103,1,0,0:0:0:0:
309,131,12311,2,0,P|275:137|239:130,1,52.5000020027161
193,184,12728,6,0,B|115:154|115:154|86:125,1,105.000004005432,2|2,0:0|0:0,0:0:0:0:
66,67,13353,1,0,0:0:0:0:
66,67,13561,1,0,0:0:0:0:
101,220,13978,2,0,P|107:259|79:333,1,105.000004005432,2|0,0:0|0:0,0:0:0:0:
26,369,14603,1,2,0:0:0:0:
26,369,14811,1,0,0:0:0:0:
27,209,15228,6,0,P|46:169|102:144,1,105.000004005432,2|2,0:0|0:0,0:0:0:0:
176,159,15853,1,0,0:0:0:0:
176,159,16061,2,0,P|216:165|246:154,1,52.5000020027161
294,121,16478,2,0,P|329:102|408:111,1,105.000004005432,2|2,0:0|0:0,0:0:0:0:
454,153,17103,1,0,0:0:0:0:
454,153,17311,2,0,L|464:215,1,52.5000020027161
423,273,17728,6,0,B|386:286|365:311|365:311|321:316,1,105.000004005432,2|2,0:0|0:0,0:0:0:0:
256,288,18353,1,0,0:0:0:0:
176,315,18561,2,0,B|141:311|141:311|120:286|83:273,2,105.000004005432,0|2|0,0:0|0:0|0:0,0:0:0:0:
256,288,19603,1,2,0:0:0:0:
256,288,19811,2,0,L|256:224,1,52.5000020027161
286,162,20228,6,0,B|279:136|279:136|239:97|239:97|224:58,2,105.000004005432,2|0|0,0:0|0:0|0:0,0:0:0:0:
375,291,21478,2,0,B|398:305|398:305|445:309|445:309|477:331,2,105.000004005432,2|0|0,0:0|0:0|0:0,0:0:0:0:
221,256,22728,6,0,P|185:250|111:284,1,105.000004005432,2|2,0:0|0:0,0:0:0:0:
62,324,23353,1,0,0:0:0:0:
32,250,23561,2,0,P|25:217|26:178,1,52.5000020027161,2|0,0:0|0:0,0:0:0:0:
34,119,23978,1,2,0:0:0:0:
169,39,24394,6,0,L|226:40,1,52.5000020027161
236,112,24811,2,0,L|293:113,1,52.5000020027161
415,94,25228,6,0,P|418:122|361:189,1,119.000002269745,4|8,0:0|0:0,0:0:0:0:
290,211,25853,1,0,0:0:0:0:
290,211,26061,2,0,L|216:223,1,59.5000011348725,8|0,0:0|0:0,0:0:0:0:
142,309,26478,6,0,L|270:325,1,119.000002269745,2|0,0:0|0:0,0:0:0:0:
336,334,27103,1,8,0:0:0:0:
336,334,27311,2,0,P|373:329|411:309,1,59.5000011348725,8|0,0:0|0:0,0:0:0:0:
474,232,27728,6,0,B|466:192|475:155|475:155|462:104,1,119.000002269745,4|0,0:0|0:0,0:0:0:0:
394,66,28353,1,8,0:0:0:0:
394,66,28561,2,0,P|364:43|330:36,1,59.5000011348725,8|0,0:0|0:0,0:0:0:0:
275,74,28978,6,0,P|236:83|153:70,1,119.000002269745,2|0,0:0|0:0,0:0:0:0:
91,33,29603,1,8,0:0:0:0:
91,33,29811,2,0,P|62:67|51:92,1,59.5000011348725,8|0,0:0|0:0,0:0:0:0:
89,195,30228,6,0,L|107:260,1,59.5000011348725,2|8,0:0|0:0,0:0:0:0:
77,331,30644,2,0,B|43:309|43:309|19:230,1,119.000002269745,8|8,0:0|0:0,0:0:0:0:
22,155,31269,1,0,0:0:0:0:
143,191,31478,6,0,P|179:199|216:196,1,59.5000011348725,2|8,0:0|0:0,0:0:0:0:
261,150,31894,1,0,0:0:0:0:
324,105,32103,2,0,P|367:103|405:119,1,59.5000011348725,0|8,0:0|0:0,0:0:0:0:
391,263,32728,6,0,P|436:284|482:228,1,119.000002269745,4|0,0:0|0:0,0:0:0:0:
425,188,33353,1,0,0:0:0:0:
308,202,33561,2,0,B|235:209|235:209|172:193,1,119.000002269745,10|8,0:0|0:0,0:0:0:0:
126,153,34186,5,0,0:0:0:0:
82,88,34394,2,0,L|75:20,1,59.5000011348725,8|2,0:0|0:0,0:0:0:0:
164,108,34811,2,0,L|170:167,1,59.5000011348725,8|0,0:0|0:0,0:0:0:0:
100,265,35228,6,0,P|92:301|104:339,1,59.5000011348725,4|8,0:0|0:0,0:0:0:0:
163,371,35644,1,8,0:0:0:0:
222,310,35853,1,0,0:0:0:0:
222,310,36061,2,0,L|289:323,1,59.5000011348725,8|0,0:0|0:0,0:0:0:0:
397,297,36478,6,0,B|419:254|413:210|413:210|432:162,1,119.000002269745,0|2,0:0|0:0,0:0:0:0:
468,119,37103,1,0,0:0:0:0:
468,119,37311,2,0,P|460:76|442:50,1,59.5000011348725,8|0,0:0|0:0,0:0:0:0:
344,113,37728,6,0,P|294:121|225:108,1,119.000002269745,2|0,0:0|0:0,0:0:0:0:
158,72,38353,1,8,0:0:0:0:
158,72,38561,2,0,P|109:82|81:106,1,59.5000011348725,8|2,0:0|0:0,0:0:0:0:
67,156,38978,6,0,L|75:226,1,59.5000011348725,0|8,0:0|0:0,0:0:0:0:
158,298,39394,2,0,L|172:221,1,59.5000011348725,2|2,0:0|0:0,0:0:0:0:
236,140,39811,1,8,0:0:0:0:
314,273,40228,5,8,0:0:0:0:
314,273,40436,1,10,0:0:0:0:
401,192,40644,2,0,P|432:157|443:123,1,59.5000011348725,2|8,0:0|0:0,0:0:0:0:
367,48,41061,2,0,P|336:83|325:117,1,59.5000011348725,8|2,0:0|0:0,0:0:0:0:
328,212,41478,6,0,B|333:243|369:262|369:262|342:298|352:352,1,154.000004699707,8|0,0:0|0:0,0:0:0:0:
255,80,42728,6,0,P|210:74|176:83,1,70,4|0,0:0|0:0,0:0:0:0:
114,134,43144,1,0,0:0:0:0:
114,134,43353,2,0,L|89:214,2,70,4|8|0,0:0|0:0|0:0,0:0:0:0:
91,45,43978,6,0,P|39:38|2:53,1,70,2|0,0:0|0:0,0:0:0:0:
114,134,44394,2,0,P|162:140|263:130,1,140,8|8,0:0|0:0,0:0:0:0:
333,89,45019,1,0,0:0:0:0:
411,135,45228,6,0,P|451:150|495:152,2,70,4|0|8,0:0|0:0|0:0,0:0:0:0:
347,200,45853,2,0,P|307:215|263:217,1,70,4|8,0:0|0:0,0:0:0:0:
192,195,46269,1,0,0:0:0:0:
192,195,46478,6,0,P|142:191|100:202,1,70,2|0,0:0|0:0,0:0:0:0:
15,284,46894,2,0,P|17:335|106:331,1,140,10|8,0:0|0:0,0:0:0:0:
168,296,47519,1,0,0:0:0:0:
130,169,47728,6,0,P|122:125|141:80,1,70,4|0,0:0|0:0,0:0:0:0:
211,64,48144,2,0,P|238:98|331:86,1,140,8|8,0:0|0:0,0:0:0:0:
406,45,48769,1,0,0:0:0:0:
406,45,48978,6,0,P|452:65|480:95,1,70,8|0,0:0|0:0,0:0:0:0:
459,168,49394,2,0,L|436:244,1,70,12|0,0:0|0:0,0:0:0:0:
396,316,49811,2,0,P|423:337|456:348,1,70,8|0,0:0|0:0,0:0:0:0:
364,242,50228,6,0,B|312:227|268:244|268:244|220:225,1,140,8|10,0:0|0:0,0:0:0:0:
152,179,50853,1,0,0:0:0:0:
152,179,51061,2,0,P|105:204|78:236,1,70,8|0,0:0|0:0,0:0:0:0:
228,228,51478,6,0,P|244:169|198:98,1,140,2|2,0:0|0:0,0:0:0:0:
123,66,52103,1,0,0:0:0:0:
123,66,52311,2,0,P|86:69|44:64,1,70,10|0,0:0|0:0,0:0:0:0:
196,17,52728,6,0,P|236:15|275:20,2,70,4|0|10,0:0|0:0|0:0,0:0:0:0:
287,94,53353,1,0,0:0:0:0:
378,105,53561,2,0,P|426:100|466:80,1,70,8|0,0:0|0:0,0:0:0:0:
502,21,53978,5,2,0:0:0:0:
502,21,54186,1,0,0:0:0:0:
446,93,54394,2,0,P|422:138|508:146,1,140,8|8,0:0|0:0,0:0:0:0:
446,93,55019,1,0,0:0:0:0:
323,94,55228,6,0,L|242:95,1,70,10|2,0:0|0:0,0:0:0:0:
206,172,55644,2,0,L|346:169,2,140,0|8|8,0:0|0:0|0:0,0:0:0:0:
129,221,56686,5,0,0:0:0:0:
129,221,56894,2,0,P|118:260|122:304,1,70,8|2,0:0|0:0,0:0:0:0:
236,366,57311,2,0,P|247:327|243:283,1,70,8|0,0:0|0:0,0:0:0:0:
129,221,57728,6,0,P|72:240|54:316,1,140,4|8,0:0|0:0,0:0:0:0:
120,373,58353,1,2,0:0:0:0:
120,373,58561,2,0,L|200:380,1,70,8|0,0:0|0:0,0:0:0:0:
249,310,58978,6,0,B|350:299|350:299|396:270,1,140,2|2,0:0|0:0,0:0:0:0:
437,205,59603,1,0,0:0:0:0:
437,205,59811,2,0,P|445:148|431:109,1,70,10|0,0:0|0:0,0:0:0:0:
303,114,60228,6,0,P|254:105|280:27,1,140,4|8,0:0|0:0,0:0:0:0:
356,34,60853,1,2,0:0:0:0:
381,121,61061,2,0,P|370:174|302:240,1,140,8|2,0:0|0:0,0:0:0:0:
221,237,61686,5,2,0:0:0:0:
221,237,61894,2,0,L|134:226,1,70,10|8,0:0|0:0,0:0:0:0:
75,278,62311,1,8,0:0:0:0:
75,278,62519,1,2,0:0:0:0:
61,141,62728,6,0,P|54:95|59:54,2,70,4|0|10,0:0|0:0|0:0,0:0:0:0:
173,204,63353,1,0,0:0:0:0:
188,294,63561,2,0,P|183:341|167:377,1,70,12|0,0:0|0:0,0:0:0:0:
188,294,63978,6,0,P|239:293|274:297,1,70,4|0,0:0|0:0,0:0:0:0:
383,356,64394,2,0,P|445:359|438:282,1,140,10|2,0:0|0:0,0:0:0:0:
393,224,65019,1,0,0:0:0:0:
393,224,65228,6,0,P|388:174|401:135,1,70,4|0,0:0|0:0,0:0:0:0:
438,77,65644,2,0,B|393:54|334:51|334:51|296:82,1,140,10|10,0:0|0:0,0:0:0:0:
256,144,66269,1,0,0:0:0:0:
204,68,66478,6,0,P|159:62|115:72,1,70,2|0,0:0|0:0,0:0:0:0:
61,184,66894,2,0,P|112:207|145:136,1,140,10|8,0:0|0:0,0:0:0:0:
67,103,67519,1,0,0:0:0:0:
13,239,67728,6,0,P|7:284|12:326,1,70,4|0,0:0|0:0,0:0:0:0:
158,357,68144,2,0,B|197:350|197:350|307:358,1,140,8|8,0:0|0:0,0:0:0:0:
387,369,68769,1,0,0:0:0:0:
387,369,68978,6,0,P|420:324|433:284,1,70,2|0,0:0|0:0,0:0:0:0:
389,227,69394,2,0,L|373:133,1,70,10|0,0:0|0:0,0:0:0:0:
331,79,69811,2,0,P|346:47|369:21,1,70,10|0,0:0|0:0,0:0:0:0:
377,157,70228,6,0,P|318:168|248:114,1,140,4|10,0:0|0:0,0:0:0:0:
193,57,70853,1,0,0:0:0:0:
193,57,71061,2,0,P|138:52|106:60,1,70,8|0,0:0|0:0,0:0:0:0:
40,167,71478,6,0,P|48:223|135:209,1,140,4|8,0:0|0:0,0:0:0:0:
198,181,72103,1,8,0:0:0:0:
198,181,72311,2,0,P|252:178|293:185,1,70,10|0,0:0|0:0,0:0:0:0:
402,212,72728,6,0,P|409:252|321:267,1,140,4|10,0:0|0:0,0:0:0:0:
315,187,73353,1,0,0:0:0:0:
315,187,73561,1,10,0:0:0:0:
379,122,73769,1,0,0:0:0:0:
379,122,73978,6,0,P|433:125|455:136,1,70,2|0,0:0|0:0,0:0:0:0:
315,187,74394,2,0,P|289:144|289:111,1,70,8|0,0:0|0:0,0:0:0:0:
402,212,74811,2,0,P|428:255|428:288,1,70,10|0,0:0|0:0,0:0:0:0:
292,306,75228,6,0,L|206:298,1,70,2|0,0:0|0:0,0:0:0:0:
90,346,75644,1,10,0:0:0:0:
90,346,75853,1,2,0:0:0:0:
122,261,76061,2,0,P|124:209|34:197,1,140,8|2,0:0|0:0,0:0:0:0:
33,273,76686,5,0,0:0:0:0:
122,261,76894,2,0,L|203:249,1,70,10|0,0:0|0:0,0:0:0:0:
317,312,77311,2,0,L|403:321,1,70,8|0,0:0|0:0,0:0:0:0:
471,207,77728,6,0,P|471:158|381:136,1,140,4|8,0:0|0:0,0:0:0:0:
316,172,78353,1,2,0:0:0:0:
239,122,78561,2,0,P|212:84|206:34,1,70,10|0,0:0|0:0,0:0:0:0:
295,52,78978,6,0,L|379:36,1,70,2|0,0:0|0:0,0:0:0:0:
451,62,79394,1,10,0:0:0:0:
451,62,79603,1,0,0:0:0:0:
469,200,79811,2,0,P|466:248|443:290,1,70,8|0,0:0|0:0,0:0:0:0:
351,335,80228,6,0,P|313:307|226:354,1,140,4|10,0:0|0:0,0:0:0:0:
147,368,80853,1,2,0:0:0:0:
147,368,81061,2,0,P|107:325|99:288,1,70,8|0,0:0|0:0,0:0:0:0:
168,210,81478,6,0,P|170:162|82:140,1,140,4|2,0:0|0:0,0:0:0:0:
45,209,82103,1,2,0:0:0:0:
18,122,82311,2,0,P|17:63|24:39,1,70,10|0,0:0|0:0,0:0:0:0:
162,38,82728,5,4,0:0:0:0:
256,192,82832,12,2,86686,0:0:0:0:
