osu file format v14

[General]
AudioFilename: audio.mp3
AudioLeadIn: 0
PreviewTime: 42728
Countdown: 0
SampleSet: Soft
StackLeniency: 0.7
Mode: 0
LetterboxInBreaks: 0
WidescreenStoryboard: 0

[Editor]
DistanceSpacing: 1.7
BeatDivisor: 4
GridSize: 8
TimelineZoom: 3.199999

[Metadata]
Title:Sore wa Chiisana Hikari no Youna (TV Size)
TitleUnicode:それは小さな光のような
Artist:Sayuri
ArtistUnicode:さユり
Creator:luxoDeh
Version:Erased
Source:僕だけがいない街
Tags:Boku Dake ga Inai Machi ERASED ending TV size Del05
BeatmapID:892964
BeatmapSetID:408753

[Difficulty]
HPDrainRate:7
CircleSize:4.2
OverallDifficulty:7
ApproachRate:8.8
SliderMultiplier:1.8
SliderTickRate:1

[Events]
//Background and Video events
0,0,"BG.jpg",0,0
Video,0,"video.avi"
//Break Periods
//Storyboard Layer 0 (Background)
//Storyboard Layer 1 (Fail)
//Storyboard Layer 2 (Pass)
//Storyboard Layer 3 (Foreground)
//Storyboard Layer 4 (Overlay)
//Storyboard Sound Samples

[TimingPoints]
283,416.666666666667,3,2,1,40,1,0
283,-133.333333333333,3,2,1,40,0,0
1921,416.666666666667,3,2,1,40,1,0
1921,-133.333333333333,3,2,1,40,0,0
2129,416.666666666667,3,2,1,40,1,0
2728,416.666666666667,3,2,1,40,1,0
2728,-133.333333333333,3,2,1,40,0,0
5228,-133.333333333333,3,2,1,50,0,0
23144,-142.857142857143,3,2,1,50,0,0
23561,-153.846153846154,3,2,1,50,0,0
23978,-181.818181818181,3,2,1,50,0,0
25228,-117.647058823529,3,2,3,60,0,0
26478,-153.846153846153,3,2,3,60,0,0
27103,-117.647058823529,3,2,3,60,0,0
40228,-117.647058823529,3,2,3,65,0,0
41478,-181.818181818181,3,2,3,50,0,0
42728,-100,3,2,3,70,0,1
61894,-125,3,2,3,70,0,1
62728,-100,3,2,3,70,0,1
82728,-100,3,2,1,50,0,0
84811,-100,3,2,1,20,0,0
86061,-100,3,2,1,5,0,0

[Colours]
Combo1 : 255,192,0
Combo2 : 255,128,128
Combo3 : 60,148,255
Combo4 : 227,114,0

[HitObjects]
411,84,283,6,0,B|399:99|378:104|378:104|350:99|316:102|316:102|275:129,1,135.000005149842,2|0,0:0|0:0,0:0:0:0:
147,224,908,1,2,0:0:0:0:
217,78,1116,1,0,0:0:0:0:
253,243,1324,1,0,0:0:0:0:
125,138,1533,6,0,P|93:153|58:236,1,123.750004720688,2|0,0:0|0:0,0:0:0:0:
213,276,2129,1,2,0:0:0:0:
211,122,2337,1,0,0:0:0:0:
312,233,2546,1,0,0:0:0:0:
137,87,2728,6,0,P|128:136|193:201,1,135.000005149842,2|0,0:0|0:0,0:0:0:0:
337,134,3353,1,2,0:0:0:0:
161,60,3561,2,0,L|88:50,1,67.5000025749208
260,141,3978,6,0,B|275:178|280:208|280:208|320:203|360:214,1,135.000005149842,2|2,0:0|0:0,0:0:0:0:
464,246,4603,1,0,0:0:0:0:
337,134,4811,1,0,0:0:0:0:
373,291,5019,1,0,0:0:0:0:
467,50,5228,6,0,B|432:72|408:107|408:107|393:75|360:62,1,135.000005149842,2|0,0:0|0:0,0:0:0:0:
253,121,5853,1,2,0:0:0:0:
155,203,6061,2,0,L|74:209,1,67.5000025749208
258,241,6478,6,0,P|301:240|332:333,1,135.000005149842,2|2,0:0|0:0,0:0:0:0:
186,276,7103,1,0,0:0:0:0:
357,181,7311,2,0,L|438:175,1,67.5000025749208
254,143,7728,6,0,P|211:144|180:51,1,135.000005149842,2|2,0:0|0:0,0:0:0:0:
326,108,8353,1,0,0:0:0:0:
157,147,8561,2,0,P|119:126|98:85,1,67.5000025749208
257,239,8978,6,0,P|231:278|175:224,1,135.000005149842,2|0,0:0|0:0,0:0:0:0:
302,166,9603,1,2,0:0:0:0:
419,237,9811,2,0,P|440:273|446:310,1,67.5000025749208
296,138,10228,6,0,P|308:98|386:140,1,135.000005149842,2|2,0:0|0:0,0:0:0:0:
342,240,10853,1,0,0:0:0:0:
218,148,11061,2,0,P|199:117|191:71,1,67.5000025749208
187,272,11478,6,0,P|157:301|101:241,1,135.000005149842,2|2,0:0|0:0,0:0:0:0:
218,148,12103,1,0,0:0:0:0:
331,174,12311,2,0,L|354:248,1,67.5000025749208,2|0,0:0|0:0,0:0:0:0:
218,148,12728,5,2,0:0:0:0:
390,112,12936,1,0,0:0:0:0:
240,109,13144,2,0,L|173:97,1,67.5000025749208,2|0,0:0|0:0,0:0:0:0:
60,71,13561,1,0,0:0:0:0:
264,81,13769,1,0,0:0:0:0:
329,306,13978,6,0,B|298:339|275:347|275:347|229:334|190:335,1,135.000005149842,2|0,0:0|0:0,0:0:0:0:
94,327,14603,1,2,0:0:0:0:
192,191,14811,1,0,0:0:0:0:
209,335,15019,1,0,0:0:0:0:
125,133,15228,6,0,P|106:171|141:263,1,135.000005149842,2|2,0:0|0:0,0:0:0:0:
215,111,15853,1,0,0:0:0:0:
48,110,16061,1,0,0:0:0:0:
167,40,16269,1,0,0:0:0:0:
244,194,16478,6,0,B|265:225|306:243|306:243|337:228|382:229,1,135.000005149842,2|2,0:0|0:0,0:0:0:0:
274,325,17103,1,0,0:0:0:0:
329,155,17311,2,0,P|336:116|333:66,1,67.5000025749208
389,316,17728,6,0,P|436:328|479:325,1,67.5000025749208,2|0,0:0|0:0,0:0:0:0:
343,235,18144,1,2,0:0:0:0:
212,282,18353,1,0,0:0:0:0:
343,235,18561,2,0,P|390:247|433:244,1,67.5000025749208
159,224,18978,6,0,P|136:259|174:352,1,135.000005149842,2|0,0:0|0:0,0:0:0:0:
248,220,19603,1,2,0:0:0:0:
61,207,19811,1,0,0:0:0:0:
195,136,20019,1,0,0:0:0:0:
260,333,20228,6,0,P|305:343|320:251,1,135.000005149842,2|0,0:0|0:0,0:0:0:0:
248,220,20853,1,2,0:0:0:0:
376,282,21061,2,0,P|417:288|456:271,1,67.5000025749208
254,150,21478,6,0,P|220:185|232:280,1,135.000005149842,2|0,0:0|0:0,0:0:0:0:
376,282,22103,1,2,0:0:0:0:
380,89,22311,1,0,0:0:0:0:
483,249,22519,1,0,0:0:0:0:
462,81,22728,6,0,P|441:33|409:12,1,67.5000025749208,2|0,0:0|0:0,0:0:0:0:
254,150,23144,6,0,P|218:153|171:141,1,62.9999980773926,2|0,0:0|0:0,0:0:0:0:
126,322,23561,6,0,P|97:287|82:255,1,58.4999973220826,2|0,0:0|0:0,0:0:0:0:
392,181,23978,6,0,B|375:219|308:244|308:244|321:288|302:308|302:308|252:363,1,247.500007553101,2|0,0:0|0:0,0:0:0:0:
134,196,25228,6,0,L|123:109,1,76.5000014591217,4|8,0:0|0:0,0:0:0:0:
216,49,25644,1,8,0:0:0:0:
134,196,25853,1,0,0:0:0:0:
272,315,26061,2,0,P|308:335|349:342,1,76.5000014591217,8|0,0:0|0:0,0:0:0:0:
168,269,26478,6,0,B|125:271|98:283|98:283|89:246|70:236,1,116.999994644165,2|0,0:0|0:0,0:0:0:0:
192,81,27103,1,8,0:0:0:0:
256,213,27311,1,8,0:0:0:0:
320,81,27519,1,0,0:0:0:0:
390,293,27728,6,0,P|397:240|481:246,1,153.000002918243,4|0,0:0|0:0,0:0:0:0:
479,244,28353,1,8,0:0:0:0:
441,118,28561,2,0,P|438:71|447:31,1,76.5000014591217,8|0,0:0|0:0,0:0:0:0:
494,171,28978,5,2,0:0:0:0:
348,99,29186,1,0,0:0:0:0:
283,265,29394,1,0,0:0:0:0:
167,160,29603,1,8,0:0:0:0:
316,280,29811,2,0,P|366:282|403:276,1,76.5000014591217,8|0,0:0|0:0,0:0:0:0:
259,168,30228,5,2,0:0:0:0:
184,305,30436,1,8,0:0:0:0:
356,166,30644,2,0,L|352:82,1,76.5000014591217,8|0,0:0|0:0,0:0:0:0:
146,242,31061,2,0,L|149:318,1,76.5000014591217,8|0,0:0|0:0,0:0:0:0:
4,174,31478,6,0,P|42:181|80:177,1,76.5000014591217,2|8,0:0|0:0,0:0:0:0:
164,68,31894,1,2,0:0:0:0:
254,211,32103,1,0,0:0:0:0:
348,68,32311,1,8,0:0:0:0:
299,277,32519,1,0,0:0:0:0:
168,214,32728,6,0,P|146:171|140:129,1,76.5000014591217,4|0,0:0|0:0,0:0:0:0:
342,160,33144,1,0,0:0:0:0:
183,246,33353,1,2,0:0:0:0:
338,290,33561,2,0,L|414:283,1,76.5000014591217,8|0,0:0|0:0,0:0:0:0:
121,334,33978,6,0,L|35:316,1,76.5000014591217,8|0,0:0|0:0,0:0:0:0:
253,184,34394,2,0,L|339:166,1,76.5000014591217,8|2,0:0|0:0,0:0:0:0:
99,79,34811,1,8,0:0:0:0:
256,42,35019,1,0,0:0:0:0:
441,189,35228,6,0,P|444:235|431:296,1,76.5000014591217,4|8,0:0|0:0,0:0:0:0:
366,117,35644,1,8,0:0:0:0:
307,272,35853,1,0,0:0:0:0:
397,99,36061,2,0,P|449:91|489:105,1,76.5000014591217,8|0,0:0|0:0,0:0:0:0:
253,194,36478,5,0,0:0:0:0:
316,64,36686,1,8,0:0:0:0:
307,272,36894,1,2,0:0:0:0:
189,129,37103,1,0,0:0:0:0:
338,287,37311,2,0,L|438:297,1,76.5000014591217,8|0,0:0|0:0,0:0:0:0:
155,140,37728,6,0,P|116:165|171:243,1,153.000002918243,2|0,0:0|0:0,0:0:0:0:
155,243,38353,1,8,0:0:0:0:
37,307,38561,2,0,P|19:353|16:385,1,76.5000014591217,8|2,0:0|0:0,0:0:0:0:
155,243,38978,5,0,0:0:0:0:
60,93,39186,1,8,0:0:0:0:
78,240,39394,1,2,0:0:0:0:
252,319,39603,1,2,0:0:0:0:
338,192,39811,2,0,L|329:117,1,76.5000014591217,8|0,0:0|0:0,0:0:0:0:
421,346,40228,5,8,0:0:0:0:
449,190,40436,1,10,0:0:0:0:
291,256,40644,2,0,P|248:257|202:254,1,76.5000014591217,2|8,0:0|0:0,0:0:0:0:
395,121,41061,1,0,0:0:0:0:
480,279,41269,1,2,0:0:0:0:
256,169,41478,6,0,B|237:119|251:61|251:61|208:100|152:93,1,198.000006042481,8|0,0:0|0:0,0:0:0:0:
171,94,42728,5,4,0:0:0:0:
41,118,42936,2,0,P|13:166|-2:204,1,90,0|8,0:0|0:0,0:0:0:0:
185,316,43353,1,4,0:0:0:0:
23,238,43561,2,0,P|27:286|50:342,1,90,8|0,0:0|0:0,0:0:0:0:
253,195,43978,5,2,0:0:0:0:
185,316,44186,1,0,0:0:0:0:
356,281,44394,2,0,L|461:292,1,90,8|2,0:0|0:0,0:0:0:0:
245,166,44811,1,8,0:0:0:0:
308,364,45019,1,0,0:0:0:0:
325,194,45228,5,4,0:0:0:0:
145,142,45436,1,0,0:0:0:0:
350,60,45644,1,8,0:0:0:0:
112,32,45853,1,4,0:0:0:0:
355,197,46061,2,0,P|396:171|431:132,1,90,8|0,0:0|0:0,0:0:0:0:
170,236,46478,5,2,0:0:0:0:
351,317,46686,1,0,0:0:0:0:
144,208,46894,2,0,P|95:204|45:210,1,90,10|0,0:0|0:0,0:0:0:0:
197,343,47311,1,8,0:0:0:0:
252,196,47519,1,0,0:0:0:0:
410,264,47728,6,0,L|511:258,1,90,4|0,0:0|0:0,0:0:0:0:
341,163,48144,1,8,0:0:0:0:
286,310,48352,1,2,0:0:0:0:
442,159,48561,2,0,P|456:99|443:44,1,90,8|0,0:0|0:0,0:0:0:0:
253,36,48978,6,0,L|159:71,1,90,8|0,0:0|0:0,0:0:0:0:
178,262,49394,1,10,0:0:0:0:
347,194,49603,1,0,0:0:0:0:
124,190,49811,2,0,L|68:273,1,90,8|0,0:0|0:0,0:0:0:0:
316,293,50228,5,2,0:0:0:0:
222,138,50436,1,0,0:0:0:0:
347,316,50644,2,0,B|395:325|395:325|444:317,1,90,10|0,0:0|0:0,0:0:0:0:
497,120,51061,2,0,B|449:111|449:111|400:119,1,90,8|0,0:0|0:0,0:0:0:0:
254,248,51478,5,2,0:0:0:0:
313,57,51686,1,0,0:0:0:0:
154,191,51894,1,2,0:0:0:0:
258,348,52103,1,0,0:0:0:0:
316,164,52311,1,10,0:0:0:0:
131,105,52519,1,0,0:0:0:0:
291,258,52728,6,0,P|349:264|386:251,1,90,4|0,0:0|0:0,0:0:0:0:
411,112,53144,1,10,0:0:0:0:
418,326,53353,2,0,P|467:278|493:234,1,90,0|8,0:0|0:0,0:0:0:0:
325,111,53769,1,0,0:0:0:0:
250,227,53978,6,0,P|242:290|252:348,1,90,2|0,0:0|0:0,0:0:0:0:
336,198,54394,1,8,0:0:0:0:
185,129,54603,2,0,P|132:113|81:130,1,90,2|8,0:0|0:0,0:0:0:0:
36,305,55019,1,0,0:0:0:0:
189,113,55228,2,0,B|168:63|168:63|126:29,1,90,10|2,0:0|0:0,0:0:0:0:
135,198,55644,6,0,B|156:251|156:251|184:281,1,90
378,294,56061,1,8,0:0:0:0:
265,76,56269,1,0,0:0:0:0:
354,257,56478,6,0,P|404:276|447:275,1,90,10|0,0:0|0:0,0:0:0:0:
276,107,56894,2,0,P|226:88|183:89,1,90,8|2,0:0|0:0,0:0:0:0:
340,207,57311,1,8,0:0:0:0:
291,24,57519,1,0,0:0:0:0:
372,228,57728,6,0,P|423:226|409:113,1,180,4|8,0:0|0:0,0:0:0:0:
254,174,58353,1,2,0:0:0:0:
173,288,58561,2,0,P|186:346|217:386,1,90,8|0,0:0|0:0,0:0:0:0:
272,252,58978,1,2,0:0:0:0:
109,211,59186,1,0,0:0:0:0:
286,222,59394,6,0,P|305:173|304:118,1,90,2|0,0:0|0:0,0:0:0:0:
183,247,59811,1,10,0:0:0:0:
375,224,60019,1,0,0:0:0:0:
92,98,60228,6,0,P|113:149|187:86,1,180,4|8,0:0|0:0,0:0:0:0:
30,41,60853,1,2,0:0:0:0:
126,203,61061,2,0,P|183:197|221:158,1,90,8|0,0:0|0:0,0:0:0:0:
30,168,61478,1,2,0:0:0:0:
149,300,61686,1,2,0:0:0:0:
326,170,61894,6,0,P|332:110|323:72,1,72,10|8,0:0|0:0,0:0:0:0:
254,275,62311,1,8,0:0:0:0:
408,204,62519,1,2,0:0:0:0:
224,58,62728,6,0,B|183:52|183:52|134:59,1,90,4|0,0:0|0:0,0:0:0:0:
82,216,63144,1,10,0:0:0:0:
108,46,63353,1,0,0:0:0:0:
168,179,63561,1,12,0:0:0:0:
27,83,63769,1,0,0:0:0:0:
219,71,63978,5,4,0:0:0:0:
281,141,64186,1,0,0:0:0:0:
384,46,64394,2,0,L|396:146,1,90,10|0,0:0|0:0,0:0:0:0:
417,268,64811,1,10,0:0:0:0:
281,141,65019,1,0,0:0:0:0:
457,270,65228,6,0,P|492:229|501:181,1,90,12|0,0:0|0:0,0:0:0:0:
291,231,65644,1,10,0:0:0:0:
402,364,65853,1,0,0:0:0:0:
262,224,66061,2,0,P|211:229|165:257,1,90,10|0,0:0|0:0,0:0:0:0:
348,303,66478,5,2,0:0:0:0:
334,131,66686,1,0,0:0:0:0:
493,289,66894,1,10,0:0:0:0:
334,131,67103,1,0,0:0:0:0:
493,46,67311,2,0,P|444:40|391:50,1,90,8|0,0:0|0:0,0:0:0:0:
340,243,67728,5,4,0:0:0:0:
236,75,67936,1,0,0:0:0:0:
164,273,68144,1,8,0:0:0:0:
236,75,68353,2,0,P|179:60|125:70,1,90,2|8,0:0|0:0,0:0:0:0:
164,273,68769,1,0,0:0:0:0:
267,185,68978,6,0,P|283:131|283:71,1,90,2|0,0:0|0:0,0:0:0:0:
182,192,69394,1,10,0:0:0:0:
340,245,69603,1,0,0:0:0:0:
155,96,69811,1,10,0:0:0:0:
373,51,70019,1,0,0:0:0:0:
370,257,70228,6,0,P|415:291|475:205,1,180,4|10,0:0|0:0,0:0:0:0:
289,128,70853,1,0,0:0:0:0:
248,253,71061,2,0,L|218:338,1,90,8|0,0:0|0:0,0:0:0:0:
431,237,71478,5,4,0:0:0:0:
412,113,71686,2,0,L|398:24,1,90,0|8,0:0|0:0,0:0:0:0:
366,321,72103,1,0,0:0:0:0:
486,159,72311,1,10,0:0:0:0:
305,191,72519,1,0,0:0:0:0:
468,341,72728,6,0,P|474:289|459:243,1,90,4|0,0:0|0:0,0:0:0:0:
376,137,73144,1,10,0:0:0:0:
221,174,73353,1,0,0:0:0:0:
258,298,73561,1,10,0:0:0:0:
82,269,73769,1,0,0:0:0:0:
164,65,73978,6,0,B|213:61|213:61|262:69,1,90,2|0,0:0|0:0,0:0:0:0:
388,213,74394,1,8,0:0:0:0:
216,219,74603,1,0,0:0:0:0:
326,140,74811,1,10,0:0:0:0:
417,299,75019,1,0,0:0:0:0:
159,284,75228,6,0,P|131:223|144:176,1,90,2|0,0:0|0:0,0:0:0:0:
256,65,75644,1,10,0:0:0:0:
389,195,75853,1,2,0:0:0:0:
253,345,76061,2,0,P|197:348|148:329,1,90,8|0,0:0|0:0,0:0:0:0:
255,194,76478,5,2,0:0:0:0:
366,324,76686,1,0,0:0:0:0:
232,175,76894,2,0,P|237:129|260:78,1,90,10|0,0:0|0:0,0:0:0:0:
166,259,77311,1,8,0:0:0:0:
35,188,77519,1,0,0:0:0:0:
251,273,77728,6,0,P|256:326|245:369,1,90,4|0,0:0|0:0,0:0:0:0:
187,182,78144,1,8,0:0:0:0:
325,67,78353,1,2,0:0:0:0:
251,273,78561,1,10,0:0:0:0:
325,67,78769,1,0,0:0:0:0:
364,223,78978,6,0,P|419:242|467:242,1,90,2|0,0:0|0:0,0:0:0:0:
261,129,79394,1,10,0:0:0:0:
146,243,79603,1,0,0:0:0:0:
364,223,79811,1,8,0:0:0:0:
146,243,80019,1,0,0:0:0:0:
167,95,80228,6,0,P|192:58|240:32,1,90,4|0,0:0|0:0,0:0:0:0:
188,175,80644,1,10,0:0:0:0:
91,52,80853,1,2,0:0:0:0:
257,221,81061,2,0,P|264:272|248:320,1,90,8|0,0:0|0:0,0:0:0:0:
188,175,81478,5,4,0:0:0:0:
354,127,81686,1,0,0:0:0:0:
139,61,81894,1,2,0:0:0:0:
270,248,82103,1,2,0:0:0:0:
139,61,82311,2,0,P|88:57|43:62,1,90,10|0,0:0|0:0,0:0:0:0:
253,117,82728,5,4,0:0:0:0:
256,192,82832,12,2,86686,0:0:0:0:
