osu file format v14

[General]
AudioFilename: audio.mp3
AudioLeadIn: 0
PreviewTime: 42728
Countdown: 0
SampleSet: Soft
StackLeniency: 0.7
Mode: 0
LetterboxInBreaks: 0
WidescreenStoryboard: 0

[Editor]
DistanceSpacing: 1.2
BeatDivisor: 4
GridSize: 8
TimelineZoom: 2.2

[Metadata]
Title:Sore wa Chiisana Hikari no Youna (TV Size)
TitleUnicode:それは小さな光のような
Artist:Sayuri
ArtistUnicode:さユり
Creator:luxoDeh
Version:Easy
Source:僕だけがいない街
Tags:Boku Dake ga Inai Machi ERASED ending TV size Del05
BeatmapID:888664
BeatmapSetID:408753

[Difficulty]
HPDrainRate:3
CircleSize:3
OverallDifficulty:2
ApproachRate:3
SliderMultiplier:1
SliderTickRate:1

[Events]
//Background and Video events
0,0,"BG.jpg",0,0
Video,0,"video.avi"
//Break Periods
//Storyboard Layer 0 (Background)
//Storyboard Layer 1 (Fail)
//Storyboard Layer 2 (Pass)
//Storyboard Layer 3 (Foreground)
//Storyboard Layer 4 (Overlay)
//Storyboard Sound Samples

[TimingPoints]
283,416.666666666667,3,2,1,40,1,0
1921,416.666666666667,3,2,1,40,1,0
2129,416.666666666667,3,2,1,40,1,0
2728,416.666666666667,3,2,1,40,1,0
5228,-100,3,2,1,50,0,0
25228,-100,3,2,3,60,0,0
25228,-100,3,2,3,60,0,0
40228,-100,3,2,3,65,0,0
42728,-100,3,2,3,70,0,1
82728,-100,3,2,1,50,0,0
84811,-100,3,2,1,20,0,0
86061,-100,3,2,1,5,0,0

[Colours]
Combo1 : 255,192,0
Combo2 : 255,128,128
Combo3 : 60,148,255
Combo4 : 227,114,0

[HitObjects]
225,321,283,6,0,B|215:283|187:253|145:238|144:186,1,150,2|0,0:0|0:0,0:0:0:0:
259,55,1533,2,0,P|325:42|402:60,1,141.666666666667,2|0,0:0|0:0,0:0:0:0:
472,214,2728,6,0,B|457:246|453:296|453:296|387:280,1,150,2|0,0:0|0:0,0:0:0:0:
209,266,3978,2,0,B|168:259|127:275|127:275|134:208|83:166,1,200,2|0,0:0|0:0,0:0:0:0:
15,74,5228,6,0,P|58:49|209:84,1,200,2|0,0:0|0:0,0:0:0:0:
263,175,6478,2,0,P|354:209|446:175,1,200,2|0,0:0|0:0,0:0:0:0:
447,55,7728,6,0,B|407:51|351:76|351:76|295:53|243:60,1,200,2|0,0:0|0:0,0:0:0:0:
140,101,8978,2,0,P|92:147|139:266,1,200,2|0,0:0|0:0,0:0:0:0:
239,312,10228,6,0,B|267:312|334:280|334:280|436:302,1,200,2|0,0:0|0:0,0:0:0:0:
503,205,11478,2,0,P|505:155|406:55,1,200,2|0,0:0|0:0,0:0:0:0:
292,92,12728,6,0,P|257:99|185:87,2,100,2|0|0,0:0|0:0|0:0,0:0:0:0:
406,55,13978,2,0,P|432:101|444:154,1,100,2|0,0:0|0:0,0:0:0:0:
401,259,14811,1,0,0:0:0:0:
302,327,15228,6,0,B|247:340|226:363|187:362|169:337|110:320,1,200,2|0,0:0|0:0,0:0:0:0:
32,230,16478,2,0,P|32:180|137:83,1,200,2|0,0:0|0:0,0:0:0:0:
240,138,17728,6,0,L|240:250,2,100,2|0|0,0:0|0:0|0:0,0:0:0:0:
341,74,18978,2,0,P|405:98|429:138,1,100,2|0,0:0|0:0,0:0:0:0:
434,241,19811,1,0,0:0:0:0:
362,337,20228,6,0,P|401:357|467:358,2,100,2|0|0,0:0|0:0|0:0,0:0:0:0:
306,230,21478,2,0,P|292:177|214:247,1,200,2|0,0:0|0:0,0:0:0:0:
150,340,22728,6,0,P|112:306|93:260,2,100,2|0|0,0:0|0:0|0:0,0:0:0:0:
264,375,23978,1,2,0:0:0:0:
442,65,25228,6,0,L|332:72,1,100,4|8,0:0|0:0,0:0:0:0:
235,127,26061,1,8,0:0:0:0:
141,202,26478,2,0,L|41:208,2,100,2|0|8,0:0|0:0|0:0,0:0:0:0:
245,260,27728,6,0,P|274:287|420:253,1,200,2|8,0:0|0:0,0:0:0:0:
415,138,28978,2,0,P|414:76|440:26,2,100,0|0|8,0:0|0:0|0:0,0:0:0:0:
496,226,30228,5,2,0:0:0:0:
401,299,30644,2,0,L|296:307,1,100,8|8,0:0|0:0,0:0:0:0:
198,244,31478,2,0,B|99:249|99:249|9:188,1,200,2|8,0:0|0:0,0:0:0:0:
34,73,32728,6,0,P|59:41|215:48,1,200,2|8,0:0|0:0,0:0:0:0:
300,111,33978,2,0,P|344:120|405:107,1,100,8|0,0:0|0:0,0:0:0:0:
505,56,34811,1,8,0:0:0:0:
497,175,35228,6,0,L|481:381,1,200,2|8,0:0|0:0,0:0:0:0:
372,325,36478,2,0,P|337:316|265:321,1,100,8|0,0:0|0:0,0:0:0:0:
153,327,37311,1,8,0:0:0:0:
76,233,37728,6,0,P|67:189|184:87,1,200,2|8,0:0|0:0,0:0:0:0:
279,120,38978,2,0,P|322:122|392:117,2,100,8|0|8,0:0|0:0|0:0,0:0:0:0:
165,81,40228,5,10,0:0:0:0:
54,126,40644,2,0,P|33:156|21:229,1,100
81,320,41478,1,8,0:0:0:0:
441,73,42728,6,0,P|342:51|231:94,1,200,4|8,0:0|0:0,0:0:0:0:
143,134,43978,1,2,0:0:0:0:
49,58,44394,1,8,0:0:0:0:
4,169,44811,1,8,0:0:0:0:
101,239,45228,6,0,P|129:293|118:386,2,150,4|2|2,0:0|0:0|0:0,0:0:0:0:
4,169,46894,2,0,P|55:132|105:123,1,100,10|8,0:0|0:0,0:0:0:0:
204,160,47728,6,0,P|251:170|305:161,1,100,4|8,0:0|0:0,0:0:0:0:
403,98,48561,1,8,0:0:0:0:
438,212,48978,2,0,L|465:327,2,100,8|4|8,0:0|0:0|0:0,0:0:0:0:
403,98,50228,6,0,B|365:66|304:65|304:65|259:98|202:88,2,200,8|8|2,0:0|0:0|0:0,0:0:0:0:
498,171,52311,1,8,0:0:0:0:
397,237,52728,6,0,P|354:255|289:261,1,100,4|10,0:0|0:0,0:0:0:0:
191,216,53561,1,8,0:0:0:0:
81,171,53978,2,0,P|31:161|-23:173,2,100,2|8|8,0:0|0:0|0:0,0:0:0:0:
174,246,55228,6,0,L|188:354,2,100,10|0|8,0:0|0:0|0:0,0:0:0:0:
165,126,56478,1,8,0:0:0:0:
260,54,56894,2,0,P|299:49|368:54,1,100,8|8,0:0|0:0,0:0:0:0:
470,99,57728,6,0,B|497:142|482:204|482:204|418:221|395:271,1,200,4|8,0:0|0:0,0:0:0:0:
355,360,58978,1,2,0:0:0:0:
251,303,59394,2,0,P|209:289|139:291,1,100,2|10,0:0|0:0,0:0:0:0:
40,328,60228,6,0,P|4:272|103:202,1,200,4|8,0:0|0:0,0:0:0:0:
206,176,61478,1,2,0:0:0:0:
323,200,61894,2,0,P|368:206|434:198,1,100,10|8,0:0|0:0,0:0:0:0:
473,92,62728,6,0,B|450:63|444:23|444:23|389:52|319:31,2,200,4|8|10,0:0|0:0|0:0,0:0:0:0:
509,206,64811,1,2,0:0:0:0:
441,304,65228,6,0,P|409:328|350:340,2,100,4|10|10,0:0|0:0|0:0,0:0:0:0:
391,194,66478,2,0,P|342:202|301:230,2,100,2|10|8,0:0|0:0|0:0,0:0:0:0:
493,130,67728,6,0,B|483:83|436:43|436:43|382:72|330:61,1,200,4|8,0:0|0:0,0:0:0:0:
226,44,68978,1,2,0:0:0:0:
109,70,69394,2,0,P|72:106|51:162,1,100,10|10,0:0|0:0,0:0:0:0:
48,270,70228,6,0,P|56:306|169:267,1,200,4|8,0:0|0:0,0:0:0:0:
145,154,71478,1,4,0:0:0:0:
261,181,71894,2,0,L|363:199,1,100,8|10,0:0|0:0,0:0:0:0:
470,152,72728,6,0,P|479:203|387:317,2,200,4|10|8,0:0|0:0|0:0,0:0:0:0:
393,59,74811,1,10,0:0:0:0:
272,60,75228,6,0,L|60:60,2,200,2|8|10,0:0|0:0|0:0,0:0:0:0:
393,59,77311,1,8,0:0:0:0:
451,163,77728,6,0,B|461:212|461:212|449:266,1,100,4|8,0:0|0:0,0:0:0:0:
386,362,78561,1,10,0:0:0:0:
276,312,78978,2,0,P|230:302|160:314,2,100,2|10|8,0:0|0:0|0:0,0:0:0:0:
386,362,80228,6,0,P|431:355|482:301,1,100,4|10,0:0|0:0,0:0:0:0:
473,200,81061,1,8,0:0:0:0:
357,165,81478,2,0,P|312:159|243:169,1,100,4|2,0:0|0:0,0:0:0:0:
147,211,82311,1,8,0:0:0:0:
144,88,82728,5,4,0:0:0:0:
256,192,82936,12,2,86686,0:0:0:0:
