osu file format v14

[General]
AudioFilename: audio.mp3
AudioLeadIn: 0
PreviewTime: 42747
Countdown: 0
SampleSet: Normal
StackLeniency: 0.7
Mode: 1
LetterboxInBreaks: 0
WidescreenStoryboard: 0

[Editor]
DistanceSpacing: 0.9
BeatDivisor: 4
GridSize: 8
TimelineZoom: 1.7

[Metadata]
Title:Sore wa Chiisana Hikari no Youna (TV Size)
TitleUnicode:それは小さな光のような (TV Size)
Artist:Sayuri
ArtistUnicode:さユり
Creator:Stefan
Version:Oni
Source:僕だけがいない街
Tags:boku dake ga inai machi erased ending it is like a small light closing theme mikazuki no kokai sanketsu-girl japanese anime thenutritiousguy tng
BeatmapID:2458498
BeatmapSetID:1178919

[Difficulty]
HPDrainRate:6
CircleSize:5
OverallDifficulty:6
ApproachRate:5
SliderMultiplier:1.4
SliderTickRate:1

[Events]
//Background and Video events
0,0,"bg.jpg",0,0
//Break Periods
//Storyboard Layer 0 (Background)
//Storyboard Layer 1 (Fail)
//Storyboard Layer 2 (Pass)
//Storyboard Layer 3 (Foreground)
//Storyboard Layer 4 (Overlay)
//Storyboard Sound Samples

[TimingPoints]
247,416.666666666667,3,1,0,30,1,0
24622,-100,3,1,1,50,0,0
40976,-100,3,1,0,50,0,0
41184,-100,3,1,1,50,0,0
41809,-100,3,1,0,50,0,0
42747,-83.3333333333333,3,1,0,80,0,1
43476,-83.3333333333333,3,1,1,80,0,1
43684,-83.3333333333333,3,1,0,80,0,1
44726,-83.3333333333333,3,1,1,80,0,1
44934,-83.3333333333333,3,1,0,80,0,1
45976,-83.3333333333333,3,1,1,80,0,1
46184,-83.3333333333333,3,1,0,80,0,1
47226,-83.3333333333333,3,1,1,80,0,1
47434,-83.3333333333333,3,1,0,80,0,1
48476,-83.3333333333333,3,1,1,80,0,1
48684,-83.3333333333333,3,1,0,80,0,1
49726,-83.3333333333333,3,1,1,80,0,1
49934,-83.3333333333333,3,1,0,80,0,1
50976,-83.3333333333333,3,1,1,80,0,1
51184,-83.3333333333333,3,1,0,80,0,1
52226,-83.3333333333333,3,1,1,80,0,1
52434,-83.3333333333333,3,1,0,80,0,1
53476,-83.3333333333333,3,1,1,80,0,1
53684,-83.3333333333333,3,1,0,80,0,1
54726,-83.3333333333333,3,1,1,80,0,1
54934,-83.3333333333333,3,1,0,80,0,1
55976,-83.3333333333333,3,1,1,80,0,1
56184,-83.3333333333333,3,1,0,80,0,1
57226,-83.3333333333333,3,1,1,80,0,1
57434,-83.3333333333333,3,1,0,80,0,1
58476,-83.3333333333333,3,1,1,80,0,1
58684,-83.3333333333333,3,1,0,80,0,1
59726,-83.3333333333333,3,1,1,80,0,1
59934,-83.3333333333333,3,1,0,80,0,1
60247,-82.6446280991736,3,1,0,80,0,1
60663,-81.9672131147541,3,1,0,80,0,1
60872,-81.3008130081301,3,1,0,80,0,1
60976,-80.6451612903226,3,1,1,80,0,1
61184,-80.6451612903226,3,1,0,80,0,1
61497,-80,3,1,0,80,0,1
61705,-79.3650793650794,3,1,0,80,0,1
61913,-78.7401574803149,3,1,0,80,0,1
62017,-78.125,3,1,1,80,0,1
62330,-77.5193798449612,3,1,1,80,0,1
62538,-76.9230769230769,3,1,1,80,0,1
62642,-76.9230769230769,3,1,0,80,0,1
62955,-78.125,3,1,0,80,0,1
63163,-79.3650793650794,3,1,0,80,0,1
63372,-80.6451612903226,3,1,0,80,0,1
63476,-81.9672131147541,3,1,1,80,0,1
63684,-81.9672131147541,3,1,0,80,0,1
63788,-83.3333333333333,3,1,0,80,0,1
64726,-83.3333333333333,3,1,1,80,0,1
64934,-83.3333333333333,3,1,0,80,0,1
65976,-83.3333333333333,3,1,1,80,0,1
66184,-83.3333333333333,3,1,0,80,0,1
67226,-83.3333333333333,3,1,1,80,0,1
67434,-83.3333333333333,3,1,0,80,0,1
68476,-83.3333333333333,3,1,1,80,0,1
68684,-83.3333333333333,3,1,0,80,0,1
69726,-83.3333333333333,3,1,1,80,0,1
69934,-83.3333333333333,3,1,0,80,0,1
70976,-83.3333333333333,3,1,1,80,0,1
71184,-83.3333333333333,3,1,0,80,0,1
72226,-83.3333333333333,3,1,1,80,0,1
72434,-83.3333333333333,3,1,0,80,0,1
73476,-83.3333333333333,3,1,1,80,0,1
73684,-83.3333333333333,3,1,0,80,0,1
74726,-83.3333333333333,3,1,1,80,0,1
74934,-83.3333333333333,3,1,0,80,0,1
75976,-83.3333333333333,3,1,1,80,0,1
76184,-83.3333333333333,3,1,0,80,0,1
77226,-83.3333333333333,3,1,1,80,0,1
77434,-83.3333333333333,3,1,0,80,0,1
78476,-83.3333333333333,3,1,1,80,0,1
78684,-83.3333333333333,3,1,0,80,0,1
79726,-83.3333333333333,3,1,1,80,0,1
79934,-83.3333333333333,3,1,0,80,0,1
80976,-83.3333333333333,3,1,1,80,0,1
81184,-83.3333333333333,3,1,0,80,0,1
82226,-83.3333333333333,3,1,1,80,0,1
82434,-83.3333333333333,3,1,0,80,0,1
82747,-83.3333333333333,3,1,0,80,0,0
83372,-83.3333333333333,3,1,0,70,0,0
83997,-83.3333333333333,3,1,0,60,0,0
84622,-83.3333333333333,3,1,0,50,0,0
85247,-83.3333333333333,3,1,0,40,0,0
85872,-83.3333333333333,3,1,0,30,0,0
86497,-83.3333333333333,3,1,0,20,0,0
87330,-83.3333333333333,3,1,0,10,0,0

[HitObjects]
256,192,247,5,0,0:0:0:0:
160,80,663,1,8,0:0:0:0:
160,80,872,1,0,0:0:0:0:
256,192,1497,1,0,0:0:0:0:
160,80,1913,1,8,0:0:0:0:
160,80,2122,1,0,0:0:0:0:
160,80,2538,1,0,0:0:0:0:
256,192,2747,1,0,0:0:0:0:
160,80,3163,1,8,0:0:0:0:
160,80,3372,1,0,0:0:0:0:
256,192,3997,1,0,0:0:0:0:
160,80,4413,1,8,0:0:0:0:
160,80,4622,1,0,0:0:0:0:
160,80,4830,1,0,0:0:0:0:
160,80,5038,1,0,0:0:0:0:
256,192,5247,1,8,0:0:0:0:
160,80,6080,1,8,0:0:0:0:
160,80,6497,1,8,0:0:0:0:
160,80,7122,1,0,0:0:0:0:
160,80,7330,1,8,0:0:0:0:
160,80,7747,1,0,0:0:0:0:
160,80,8580,1,8,0:0:0:0:
160,80,8997,1,8,0:0:0:0:
160,80,9622,1,0,0:0:0:0:
160,80,9830,1,8,0:0:0:0:
160,80,10247,1,0,0:0:0:0:
160,80,11080,1,8,0:0:0:0:
160,80,11497,1,8,0:0:0:0:
160,80,12330,1,8,0:0:0:0:
160,80,12747,1,0,0:0:0:0:
160,80,13163,1,8,0:0:0:0:
160,80,13372,1,0,0:0:0:0:
160,80,13580,1,8,0:0:0:0:
160,80,13997,1,0,0:0:0:0:
160,80,14830,1,8,0:0:0:0:
160,80,15247,1,8,0:0:0:0:
160,80,15663,1,0,0:0:0:0:
160,80,15872,1,0,0:0:0:0:
160,80,16080,1,8,0:0:0:0:
160,80,16497,1,8,0:0:0:0:
160,80,16913,1,0,0:0:0:0:
160,80,17122,1,0,0:0:0:0:
160,80,17330,1,8,0:0:0:0:
160,80,17747,1,8,0:0:0:0:
160,80,18163,1,8,0:0:0:0:
160,80,18372,1,0,0:0:0:0:
160,80,18580,1,0,0:0:0:0:
160,80,18997,1,8,0:0:0:0:
160,80,19413,1,0,0:0:0:0:
160,80,20247,1,0,0:0:0:0:
160,80,20663,1,8,0:0:0:0:
160,80,21080,1,8,0:0:0:0:
160,80,21497,1,0,0:0:0:0:
160,80,21913,1,0,0:0:0:0:
160,80,22122,1,8,0:0:0:0:
160,80,22538,1,0,0:0:0:0:
160,80,22747,1,8,0:0:0:0:
160,80,23163,1,0,0:0:0:0:
160,80,23580,1,0,0:0:0:0:
160,80,23997,1,0,0:0:0:0:
160,80,25247,1,0,0:0:0:0:
160,80,25455,1,8,0:0:0:0:
160,80,25663,1,8,0:0:0:0:
160,80,25872,1,0,0:0:0:0:
160,80,26080,1,8,0:0:0:0:
160,80,26497,1,0,0:0:0:0:
160,80,26913,1,0,0:0:0:0:
160,80,27122,1,0,0:0:0:0:
160,80,27330,1,8,0:0:0:0:
160,80,27538,1,0,0:0:0:0:
160,80,27747,1,0,0:0:0:0:
160,80,28163,1,0,0:0:0:0:
160,80,28372,1,8,0:0:0:0:
160,80,28580,1,8,0:0:0:0:
160,80,28788,1,0,0:0:0:0:
160,80,28997,1,0,0:0:0:0:
160,80,29413,1,0,0:0:0:0:
160,80,29622,1,0,0:0:0:0:
160,80,29830,1,8,0:0:0:0:
160,80,30247,1,0,0:0:0:0:
160,80,30455,1,8,0:0:0:0:
160,80,30663,1,8,0:0:0:0:
160,80,30872,1,0,0:0:0:0:
160,80,31080,1,8,0:0:0:0:
160,80,31497,1,0,0:0:0:0:
160,80,31705,1,8,0:0:0:0:
160,80,31913,1,0,0:0:0:0:
160,80,32122,1,0,0:0:0:0:
160,80,32330,1,8,0:0:0:0:
160,80,32747,1,0,0:0:0:0:
160,80,33163,1,0,0:0:0:0:
160,80,33372,1,0,0:0:0:0:
160,80,33580,1,8,0:0:0:0:
160,80,33997,1,0,0:0:0:0:
160,80,34205,1,8,0:0:0:0:
160,80,34413,1,0,0:0:0:0:
160,80,34622,1,0,0:0:0:0:
160,80,34830,1,8,0:0:0:0:
160,80,35247,1,0,0:0:0:0:
160,80,35455,1,8,0:0:0:0:
160,80,35663,1,8,0:0:0:0:
160,80,35872,1,0,0:0:0:0:
160,80,36080,1,8,0:0:0:0:
160,80,36497,1,0,0:0:0:0:
160,80,36705,1,8,0:0:0:0:
160,80,36913,1,0,0:0:0:0:
160,80,37330,1,8,0:0:0:0:
160,80,37538,1,0,0:0:0:0:
160,80,37747,1,0,0:0:0:0:
160,80,38163,1,0,0:0:0:0:
160,80,38372,1,8,0:0:0:0:
160,80,38580,1,8,0:0:0:0:
160,80,38788,1,0,0:0:0:0:
160,80,38997,1,8,0:0:0:0:
160,80,39205,1,8,0:0:0:0:
160,80,39413,1,0,0:0:0:0:
160,80,39622,1,0,0:0:0:0:
160,80,39830,1,8,0:0:0:0:
160,80,40247,1,8,0:0:0:0:
160,80,40455,1,0,0:0:0:0:
160,80,40872,1,0,0:0:0:0:
160,80,41080,1,8,0:0:0:0:
160,80,41288,1,0,0:0:0:0:
160,80,41497,1,8,0:0:0:0:
160,80,41705,1,0,0:0:0:0:
160,80,41913,1,8,0:0:0:0:
160,80,42122,1,0,0:0:0:0:
160,80,42330,1,8,0:0:0:0:
160,80,42747,1,12,0:0:0:0:
160,80,42955,1,0,0:0:0:0:
160,80,43163,1,8,0:0:0:0:
160,80,43372,1,0,0:0:0:0:
160,80,43580,1,8,0:0:0:0:
160,80,43788,1,8,0:0:0:0:
160,80,43997,1,0,0:0:0:0:
160,80,44205,1,0,0:0:0:0:
160,80,44413,1,8,0:0:0:0:
160,80,44830,1,8,0:0:0:0:
160,80,45038,1,0,0:0:0:0:
160,80,45247,1,8,0:0:0:0:
160,80,45351,1,8,0:0:0:0:
160,80,45455,1,8,0:0:0:0:
160,80,45663,1,8,0:0:0:0:
160,80,45872,1,0,0:0:0:0:
160,80,46080,1,8,0:0:0:0:
160,80,46288,1,0,0:0:0:0:
160,80,46497,1,8,0:0:0:0:
160,80,46705,1,0,0:0:0:0:
160,80,46913,1,8,0:0:0:0:
160,80,47017,1,8,0:0:0:0:
160,80,47122,1,0,0:0:0:0:
160,80,47330,1,8,0:0:0:0:
160,80,47747,1,8,0:0:0:0:
160,80,47955,1,0,0:0:0:0:
160,80,48163,1,8,0:0:0:0:
160,80,48580,1,8,0:0:0:0:
160,80,48788,1,0,0:0:0:0:
160,80,48997,1,0,0:0:0:0:
160,80,49413,1,0,0:0:0:0:
160,80,49830,1,8,0:0:0:0:
160,80,50247,1,8,0:0:0:0:
160,80,50351,1,8,0:0:0:0:
160,80,50455,1,0,0:0:0:0:
160,80,50663,1,8,0:0:0:0:
160,80,51080,1,8,0:0:0:0:
160,80,51497,1,8,0:0:0:0:
160,80,51705,1,0,0:0:0:0:
160,80,51913,1,8,0:0:0:0:
160,80,52330,1,8,0:0:0:0:
160,80,52538,1,0,0:0:0:0:
160,80,52747,1,12,0:0:0:0:
160,80,52955,1,8,0:0:0:0:
160,80,53163,1,0,0:0:0:0:
160,80,53372,1,0,0:0:0:0:
160,80,53580,1,8,0:0:0:0:
160,80,53788,1,0,0:0:0:0:
160,80,53997,1,8,0:0:0:0:
160,80,54413,1,8,0:0:0:0:
160,80,54622,1,0,0:0:0:0:
160,80,54830,1,8,0:0:0:0:
160,80,55038,1,8,0:0:0:0:
160,80,55247,1,0,0:0:0:0:
160,80,55455,1,8,0:0:0:0:
160,80,55663,1,0,0:0:0:0:
160,80,56080,1,8,0:0:0:0:
160,80,56497,1,0,0:0:0:0:
160,80,56913,1,0,0:0:0:0:
160,80,57330,1,8,0:0:0:0:
160,80,57747,1,0,0:0:0:0:
160,80,58094,1,0,0:0:0:0:
160,80,58372,1,0,0:0:0:0:
160,80,58580,1,8,0:0:0:0:
160,80,59413,1,0,0:0:0:0:
160,80,59830,1,8,0:0:0:0:
160,80,60247,1,8,0:0:0:0:
160,80,60663,1,8,0:0:0:0:
160,80,60872,1,0,0:0:0:0:
160,80,61080,1,8,0:0:0:0:
160,80,61497,1,0,0:0:0:0:
160,80,61705,1,8,0:0:0:0:
160,80,61913,1,0,0:0:0:0:
160,80,62122,1,8,0:0:0:0:
160,80,62330,1,8,0:0:0:0:
160,80,62538,1,8,0:0:0:0:
160,80,62747,1,4,0:0:0:0:
160,80,62955,1,0,0:0:0:0:
160,80,63163,1,8,0:0:0:0:
160,80,63372,1,0,0:0:0:0:
160,80,63580,1,8,0:0:0:0:
160,80,63788,1,8,0:0:0:0:
160,80,63997,1,0,0:0:0:0:
160,80,64205,1,0,0:0:0:0:
160,80,64413,1,8,0:0:0:0:
160,80,64830,1,8,0:0:0:0:
160,80,65038,1,0,0:0:0:0:
160,80,65247,1,8,0:0:0:0:
160,80,65351,1,8,0:0:0:0:
160,80,65455,1,0,0:0:0:0:
160,80,65663,1,8,0:0:0:0:
160,80,66080,1,8,0:0:0:0:
160,80,66288,1,0,0:0:0:0:
160,80,66497,1,8,0:0:0:0:
160,80,66705,1,0,0:0:0:0:
160,80,66809,1,0,0:0:0:0:
160,80,66913,1,8,0:0:0:0:
160,80,67122,1,0,0:0:0:0:
160,80,67330,1,8,0:0:0:0:
160,80,67747,1,8,0:0:0:0:
160,80,67955,1,0,0:0:0:0:
160,80,68163,1,8,0:0:0:0:
160,80,68580,1,8,0:0:0:0:
160,80,68788,1,0,0:0:0:0:
160,80,68997,1,8,0:0:0:0:
160,80,69205,1,8,0:0:0:0:
160,80,69413,1,0,0:0:0:0:
160,80,69830,1,8,0:0:0:0:
160,80,70247,1,8,0:0:0:0:
160,80,70351,1,8,0:0:0:0:
160,80,70455,1,0,0:0:0:0:
160,80,70663,1,8,0:0:0:0:
160,80,70872,1,0,0:0:0:0:
160,80,71080,1,8,0:0:0:0:
160,80,71497,1,8,0:0:0:0:
160,80,71705,1,8,0:0:0:0:
160,80,71913,1,0,0:0:0:0:
160,80,72330,1,8,0:0:0:0:
160,80,72747,1,12,0:0:0:0:
160,80,73094,1,0,0:0:0:0:
160,80,73372,1,0,0:0:0:0:
160,80,73580,1,8,0:0:0:0:
160,80,73788,1,0,0:0:0:0:
160,80,73997,1,8,0:0:0:0:
160,80,74413,1,0,0:0:0:0:
160,80,74830,1,8,0:0:0:0:
160,80,75247,1,8,0:0:0:0:
160,80,75455,1,8,0:0:0:0:
160,80,75663,1,0,0:0:0:0:
160,80,76080,1,8,0:0:0:0:
160,80,76497,1,0,0:0:0:0:
160,80,76913,1,0,0:0:0:0:
160,80,77122,1,0,0:0:0:0:
160,80,77330,1,8,0:0:0:0:
160,80,77538,1,0,0:0:0:0:
160,80,77747,1,8,0:0:0:0:
160,80,78163,1,0,0:0:0:0:
160,80,78372,1,0,0:0:0:0:
160,80,78580,1,8,0:0:0:0:
160,80,78997,1,0,0:0:0:0:
160,80,79205,1,8,0:0:0:0:
160,80,79622,1,0,0:0:0:0:
160,80,79830,1,8,0:0:0:0:
160,80,80038,1,0,0:0:0:0:
160,80,80247,1,8,0:0:0:0:
160,80,80663,1,0,0:0:0:0:
160,80,81080,1,8,0:0:0:0:
160,80,81288,1,0,0:0:0:0:
160,80,81497,1,8,0:0:0:0:
160,80,81705,1,0,0:0:0:0:
160,80,81809,1,0,0:0:0:0:
160,80,81913,1,0,0:0:0:0:
160,80,82122,1,0,0:0:0:0:
160,80,82330,1,8,0:0:0:0:
160,80,82538,1,0,0:0:0:0:
160,80,82747,1,8,0:0:0:0:
256,192,82955,12,0,87747,0:0:0:0:
