osu file format v14

[General]
AudioFilename: audio.mp3
AudioLeadIn: 0
PreviewTime: 42747
Countdown: 0
SampleSet: Normal
StackLeniency: 0.7
Mode: 1
LetterboxInBreaks: 0
WidescreenStoryboard: 1

[Editor]
DistanceSpacing: 0.9
BeatDivisor: 4
GridSize: 8
TimelineZoom: 1.7

[Metadata]
Title:Sore wa Chiisana Hikari no Youna (TV Size)
TitleUnicode:それは小さな光のような (TV Size)
Artist:Sayuri
ArtistUnicode:さユり
Creator:Stefan
Version:Futsuu
Source:僕だけがいない街
Tags:boku dake ga inai machi erased ending it is like a small light closing theme mikazuki no kokai sanketsu-girl japanese anime thenutritiousguy tng
BeatmapID:2458496
BeatmapSetID:1178919

[Difficulty]
HPDrainRate:8
CircleSize:5
OverallDifficulty:4
ApproachRate:5
SliderMultiplier:1.4
SliderTickRate:1

[Events]
//Background and Video events
0,0,"bg.jpg",0,0
//Break Periods
//Storyboard Layer 0 (Background)
//Storyboard Layer 1 (Fail)
//Storyboard Layer 2 (Pass)
//Storyboard Layer 3 (Foreground)
//Storyboard Layer 4 (Overlay)
//Storyboard Sound Samples

[TimingPoints]
247,416.666666666667,3,1,0,30,1,0
24622,-100,3,1,1,50,0,0
40976,-100,3,1,0,50,0,0
41184,-100,3,1,1,50,0,0
41809,-100,3,1,0,50,0,0
42747,-100,3,1,0,80,0,1
43476,-100,3,1,1,80,0,1
43684,-100,3,1,0,80,0,1
44726,-100,3,1,1,80,0,1
44934,-100,3,1,0,80,0,1
45976,-100,3,1,1,80,0,1
46184,-100,3,1,0,80,0,1
47226,-100,3,1,1,80,0,1
47434,-100,3,1,0,80,0,1
48476,-100,3,1,1,80,0,1
48684,-100,3,1,0,80,0,1
49726,-100,3,1,1,80,0,1
49934,-100,3,1,0,80,0,1
50976,-100,3,1,1,80,0,1
51184,-100,3,1,0,80,0,1
52226,-100,3,1,1,80,0,1
52434,-100,3,1,0,80,0,1
53476,-100,3,1,1,80,0,1
53684,-100,3,1,0,80,0,1
54726,-100,3,1,1,80,0,1
54934,-100,3,1,0,80,0,1
55976,-100,3,1,1,80,0,1
56184,-100,3,1,0,80,0,1
57226,-100,3,1,1,80,0,1
57434,-100,3,1,0,80,0,1
58476,-100,3,1,1,80,0,1
58684,-100,3,1,0,80,0,1
59726,-100,3,1,1,80,0,1
59934,-100,3,1,0,80,0,1
60976,-100,3,1,1,80,0,1
61184,-100,3,1,0,80,0,1
62017,-100,3,1,1,80,0,1
62642,-100,3,1,0,80,0,1
63476,-100,3,1,1,80,0,1
63684,-100,3,1,0,80,0,1
64726,-100,3,1,1,80,0,1
64934,-100,3,1,0,80,0,1
65976,-100,3,1,1,80,0,1
66184,-100,3,1,0,80,0,1
67226,-100,3,1,1,80,0,1
67434,-100,3,1,0,80,0,1
68476,-100,3,1,1,80,0,1
68684,-100,3,1,0,80,0,1
69726,-100,3,1,1,80,0,1
69934,-100,3,1,0,80,0,1
70976,-100,3,1,1,80,0,1
71184,-100,3,1,0,80,0,1
72226,-100,3,1,1,80,0,1
72434,-100,3,1,0,80,0,1
73476,-100,3,1,1,80,0,1
73684,-100,3,1,0,80,0,1
74726,-100,3,1,1,80,0,1
74934,-100,3,1,0,80,0,1
75976,-100,3,1,1,80,0,1
76184,-100,3,1,0,80,0,1
77226,-100,3,1,1,80,0,1
77434,-100,3,1,0,80,0,1
78476,-100,3,1,1,80,0,1
78684,-100,3,1,0,80,0,1
79726,-100,3,1,1,80,0,1
79934,-100,3,1,0,80,0,1
80976,-100,3,1,1,80,0,1
81184,-100,3,1,0,80,0,1
82226,-100,3,1,1,80,0,1
82434,-100,3,1,0,80,0,1
82747,-100,3,1,0,80,0,0
83372,-100,3,1,0,70,0,0
83997,-100,3,1,0,60,0,0
84622,-100,3,1,0,50,0,0
85247,-100,3,1,0,40,0,0
85872,-100,3,1,0,30,0,0
86497,-100,3,1,0,20,0,0
87330,-100,3,1,0,10,0,0

[HitObjects]
256,192,247,5,0,0:0:0:0:
256,192,1497,1,0,0:0:0:0:
256,192,2747,1,0,0:0:0:0:
256,192,3997,1,0,0:0:0:0:
160,80,4413,1,8,0:0:0:0:
160,80,4830,1,0,0:0:0:0:
256,192,5247,1,8,0:0:0:0:
160,80,6497,1,8,0:0:0:0:
160,80,7747,1,0,0:0:0:0:
160,80,8997,1,8,0:0:0:0:
160,80,10247,1,0,0:0:0:0:
160,80,11497,1,8,0:0:0:0:
160,80,12747,1,0,0:0:0:0:
160,80,13580,1,8,0:0:0:0:
160,80,13997,1,8,0:0:0:0:
160,80,15247,1,0,0:0:0:0:
160,80,16080,1,8,0:0:0:0:
160,80,16497,1,8,0:0:0:0:
160,80,17330,1,0,0:0:0:0:
160,80,17747,1,0,0:0:0:0:
160,80,18580,1,0,0:0:0:0:
160,80,18997,1,8,0:0:0:0:
160,80,19413,1,0,0:0:0:0:
160,80,20247,1,0,0:0:0:0:
160,80,21080,1,8,0:0:0:0:
256,192,21497,12,0,23163,0:0:0:0:
160,80,23997,5,0,0:0:0:0:
160,80,25247,1,0,0:0:0:0:
160,80,25663,1,8,0:0:0:0:
160,80,26080,1,8,0:0:0:0:
160,80,27330,1,8,0:0:0:0:
160,80,27747,1,0,0:0:0:0:
160,80,28163,1,0,0:0:0:0:
160,80,28580,1,8,0:0:0:0:
160,80,28997,1,0,0:0:0:0:
160,80,29830,1,8,0:0:0:0:
160,80,30247,1,0,0:0:0:0:
160,80,31080,1,8,0:0:0:0:
160,80,31497,1,0,0:0:0:0:
160,80,32330,1,8,0:0:0:0:
160,80,32747,1,0,0:0:0:0:
160,80,33580,1,8,0:0:0:0:
160,80,34830,1,8,0:0:0:0:
160,80,35247,1,0,0:0:0:0:
160,80,36080,1,8,0:0:0:0:
160,80,36497,1,0,0:0:0:0:
160,80,36913,1,0,0:0:0:0:
160,80,37330,1,8,0:0:0:0:
160,80,37747,1,0,0:0:0:0:
160,80,38580,1,8,0:0:0:0:
160,80,38997,1,8,0:0:0:0:
160,80,39413,1,0,0:0:0:0:
160,80,40663,1,0,0:0:0:0:
160,80,41080,1,8,0:0:0:0:
160,80,41497,1,8,0:0:0:0:
160,80,41913,1,8,0:0:0:0:
160,80,42330,1,8,0:0:0:0:
160,80,42747,1,4,0:0:0:0:
160,80,43580,1,8,0:0:0:0:
160,80,43997,1,0,0:0:0:0:
160,80,44413,1,8,0:0:0:0:
160,80,44830,1,8,0:0:0:0:
160,80,45247,1,0,0:0:0:0:
160,80,46080,1,8,0:0:0:0:
160,80,46497,1,0,0:0:0:0:
160,80,46913,1,8,0:0:0:0:
160,80,47330,1,8,0:0:0:0:
160,80,47747,1,0,0:0:0:0:
160,80,48163,1,0,0:0:0:0:
160,80,48580,1,8,0:0:0:0:
160,80,49830,1,8,0:0:0:0:
160,80,50247,1,0,0:0:0:0:
160,80,50663,1,8,0:0:0:0:
160,80,51080,1,8,0:0:0:0:
160,80,51497,1,0,0:0:0:0:
160,80,51913,1,0,0:0:0:0:
160,80,52330,1,8,0:0:0:0:
160,80,52747,1,4,0:0:0:0:
160,80,53580,1,8,0:0:0:0:
160,80,53997,1,0,0:0:0:0:
160,80,54413,1,0,0:0:0:0:
160,80,54830,1,8,0:0:0:0:
160,80,55247,1,0,0:0:0:0:
160,80,56080,1,8,0:0:0:0:
160,80,56497,1,0,0:0:0:0:
160,80,56913,1,0,0:0:0:0:
160,80,57330,1,8,0:0:0:0:
160,80,57747,1,0,0:0:0:0:
160,80,58580,1,8,0:0:0:0:
160,80,59413,1,0,0:0:0:0:
160,80,59830,1,8,0:0:0:0:
160,80,60247,1,8,0:0:0:0:
160,80,61080,1,8,0:0:0:0:
160,80,61913,1,0,0:0:0:0:
160,80,62330,1,8,0:0:0:0:
160,80,62747,1,4,0:0:0:0:
160,80,63580,1,8,0:0:0:0:
160,80,63997,1,0,0:0:0:0:
160,80,64413,1,8,0:0:0:0:
160,80,64830,1,8,0:0:0:0:
160,80,65247,1,0,0:0:0:0:
160,80,65663,1,0,0:0:0:0:
160,80,66080,1,8,0:0:0:0:
160,80,66497,1,0,0:0:0:0:
160,80,67330,1,8,0:0:0:0:
160,80,67747,1,0,0:0:0:0:
160,80,68580,1,8,0:0:0:0:
160,80,68997,1,0,0:0:0:0:
160,80,69413,1,0,0:0:0:0:
160,80,69830,1,8,0:0:0:0:
160,80,70247,1,0,0:0:0:0:
160,80,70663,1,8,0:0:0:0:
160,80,71080,1,8,0:0:0:0:
160,80,71913,1,0,0:0:0:0:
160,80,72330,1,8,0:0:0:0:
160,80,72747,1,4,0:0:0:0:
160,80,73580,1,8,0:0:0:0:
160,80,74413,1,0,0:0:0:0:
160,80,74830,1,8,0:0:0:0:
160,80,75247,1,8,0:0:0:0:
160,80,75663,1,0,0:0:0:0:
160,80,76080,1,8,0:0:0:0:
160,80,77330,1,8,0:0:0:0:
160,80,77747,1,0,0:0:0:0:
160,80,78580,1,8,0:0:0:0:
160,80,78997,1,0,0:0:0:0:
160,80,79830,1,8,0:0:0:0:
160,80,80247,1,0,0:0:0:0:
160,80,81080,1,8,0:0:0:0:
160,80,81497,1,8,0:0:0:0:
160,80,81913,1,0,0:0:0:0:
160,80,82330,1,0,0:0:0:0:
160,80,82747,5,8,0:0:0:0:
256,192,82955,12,0,87747,0:0:0:0:
